#TITLE:HEARTBEAT;
#SUBTITLE:;
#ARTIST:NATHALIE;
#TITLETRANSLIT:;
#SUBTITLETRANSLIT:;
#ARTISTTRANSLIT:;
#GENRE:;
#CREDIT:;
#BANNER:[Round J] - HEARTBEAT.png;
#BACKGROUND:[Round J] - HEARTBEAT-bg.png;
#LYRICSPATH:;
#CDTITLE:;
#MUSIC:[Round J] - HEARTBEAT.mp3;
#OFFSET:-0.046190;
#SAMPLESTART:48.760151;
#SAMPLELENGTH:12.000000;
#SELECTABLE:YES;
#DISPLAYBPM:155.000000;
#BPMS:0.000000=155.214005
,32.000000=165.089005
,33.000000=155.084000
,216.000000=156.000000
;
#STOPS:
;
#BGCHANGES:;
#KEYSOUNDS:;
#ATTACKS:;

//---------------dance-single - ----------------
#NOTES:
     dance-single:
     :
     Hard:
     8:
     0.583568,0.564175,0.741717,0.143915,0.071958,369.000000,302.000000,67.000000,13.000000,0.000000,0.000000,0.583568,0.564175,0.741717,0.143915,0.071958,369.000000,302.000000,67.000000,13.000000,0.000000,0.000000:
// measure 0
0000
0000
0000
0000
,  // measure 1
0000
0000
0000
0000
,  // measure 2
0000
0000
0000
0000
,  // measure 3
0000
0000
0000
0000
,  // measure 4
0022
0000
0000
0000
0000
0003
0130
2200
,  // measure 5
0000
0000
0000
0000
0000
3000
1300
2002
,  // measure 6
0000
0000
0000
3003
,  // measure 7
1001
0000
0000
0000
0110
0000
0000
0000
1001
0000
0000
0000
1000
0001
1000
0000
,  // measure 8
0001
0000
1000
0100
0001
0100
1000
1010
,  // measure 9
0000
0000
0000
1000
0001
0000
0100
0000
1000
0000
0100
0000
0001
0000
0011
0000
,  // measure 10
0000
0000
0000
0000
1000
0000
0100
0000
0010
0000
0100
0000
1000
0000
0000
1010
,  // measure 11
0000
0000
1000
0000
0010
0000
0000
0110
0000
0000
0100
0000
0001
0000
0010
0000
,  // measure 12
0011
0000
1000
0100
0001
0100
1000
1010
,  // measure 13
0000
0000
0000
0010
0100
0000
0001
0000
0010
0000
1000
0000
0010
0000
0011
0000
,  // measure 14
0000
0000
0001
0000
0100
0000
0000
0000
0110
0000
0010
0000
0000
0000
1000
0001
,  // measure 15
1000
0000
0000
0000
0010
0000
1000
0001
0000
0000
0001
0000
1000
0000
0010
0000
,  // measure 16
0100
0000
0010
1000
0100
1000
0001
0010
,  // measure 17
0000
0100
0010
0001
0100
0001
1000
0010
,  // measure 18
0000
0100
0010
1000
0100
1000
0001
0010
,  // measure 19
0011
0000
0100
1100
0000
0110
0000
1001
,  // measure 20
0000
1000
0010
0001
0010
1000
0001
0010
,  // measure 21
0000
0100
0010
0001
0100
1000
0100
0010
,  // measure 22
0000
1000
0100
0010
1000
0010
0001
1000
,  // measure 23
0000
0101
0000
1010
0000
1100
0000
0001
,  // measure 24
0021
0000
0130
1200
0000
0310
0000
0101
,  // measure 25
0000
1010
0000
1100
0000
1001
0000
0021
,  // measure 26
0000
0000
0130
0010
0001
0100
0000
0110
,  // measure 27
0000
1100
0000
0110
0000
1001
0000
0000
,  // measure 28
0021
0000
0130
1100
0000
0011
0000
0101
,  // measure 29
0000
1010
0000
1001
0000
0110
0000
1002
,  // measure 30
0000
0000
1003
0010
0100
0001
0000
0010
,  // measure 31
0011
0000
0000
1100
0000
0001
0100
0001
,  // measure 32
1000
0100
0010
0001
0100
0001
1000
0010
,  // measure 33
0000
0101
0000
1100
0000
0010
0100
0010
,  // measure 34
0001
0000
0100
1000
0000
1100
0000
0101
,  // measure 35
0000
1100
0000
0001
0010
0100
0010
0001
,  // measure 36
0000
1100
0000
0010
0000
0001
0100
0020
,  // measure 37
0000
1030
0010
0000
0001
0000
0010
0100
,  // measure 38
0001
0010
0100
1000
0001
0010
0000
0100
,  // measure 39
1000
0010
0100
0001
1000
0010
0100
0001
,  // measure 40
0000
1100
0000
0010
0000
0001
0100
1000
,  // measure 41
0000
0101
0000
1000
0000
0001
0010
0100
,  // measure 42
1000
0000
0001
0010
0000
1100
0000
0101
,  // measure 43
0000
0110
0000
1000
0010
0001
0010
1000
,  // measure 44
0000
0101
0000
0010
0000
1000
0100
0002
,  // measure 45
0000
0103
1000
0000
1000
0000
0010
1000
,  // measure 46
0100
0010
0001
0100
0010
0001
1000
0100
,  // measure 47
0000
0101
0000
1100
0000
0011
0001
1000
,  // measure 48
1001
0000
0001
0010
1000
0010
0001
0101
,  // measure 49
0000
0000
0000
0001
1000
0000
0010
0000
0001
0000
0010
0000
1000
0000
1100
0000
,  // measure 50
0000
0000
0000
0000
0001
0000
0010
0000
0100
0000
0010
0000
0001
0000
0000
0101
,  // measure 51
0000
0000
0001
0000
0100
0000
0000
0110
0000
0000
0010
0000
1000
0000
0100
0000
,  // measure 52
1100
0000
0001
0010
1000
0010
0001
0101
,  // measure 53
0000
0000
0000
0100
0010
0000
1000
0000
0100
0000
0001
0000
0100
0000
1100
0000
,  // measure 54
0000
0000
1000
0000
0010
0000
0000
0000
0110
0000
0100
0000
0000
0000
0001
1000
,  // measure 55
0001
0000
0000
0000
0100
0000
0001
1000
0000
0000
0001
0000
1000
0000
0100
0000
,  // measure 56
0010
0100
0100
0010
0000
1001
0000
0000
;

//---------------dance-single - ----------------
#NOTES:
     dance-single:
     :
     Challenge:
     9:
     0.694272,0.783577,0.409605,0.243549,0.326577,439.000000,402.000000,37.000000,22.000000,0.000000,0.000000,0.694272,0.783577,0.409605,0.243549,0.326577,439.000000,402.000000,37.000000,22.000000,0.000000,0.000000:
// measure 0
0000
0000
0000
0000
,  // measure 1
0000
0000
0000
0000
,  // measure 2
0000
0000
0000
0000
,  // measure 3
0000
0000
0000
0000
,  // measure 4
2020
0000
0000
0000
0000
3030
0110
0202
,  // measure 5
0000
0000
0000
0000
0000
0303
0101
2002
,  // measure 6
0000
0000
0000
3003
,  // measure 7
1100
0000
0000
0000
0110
0000
0000
0000
0011
0000
0000
0000
0001
0010
0100
1000
,  // measure 8
0001
0000
0000
0000
0001
0100
0001
0100
0001
0000
0100
0000
0010
0000
1001
0000
,  // measure 9
0000
0000
0000
0001
1000
0100
1000
0100
1000
0000
0100
0000
0010
0000
1100
0000
,  // measure 10
0000
0000
0000
0000
0001
0100
0001
0100
0001
0000
0100
0000
0010
0000
0100
0010
,  // measure 11
0000
0000
1000
0010
0100
0010
0100
0010
0000
0100
0001
0000
1000
0001
0010
0000
,  // measure 12
0011
0000
0000
0000
0100
1000
0100
1000
0100
0000
0010
0000
0001
0000
0101
0000
,  // measure 13
0000
0000
0000
0010
0100
0001
0100
0001
0100
0000
0010
0000
1000
0000
1001
0000
,  // measure 14
0000
0000
0001
0000
1000
0000
0000
0000
0100
0000
0010
0000
0000
0000
0001
1000
,  // measure 15
0001
0000
0000
0000
0010
0000
0010
0100
0000
0000
1000
0100
1000
0001
1000
0100
,  // measure 16
0010
0001
0100
0001
1000
0010
0100
0001
,  // measure 17
0010
1000
0010
0001
0100
0001
1000
0010
,  // measure 18
0001
0010
1000
0100
0001
0100
1000
0010
,  // measure 19
1010
0000
0100
0101
0000
0110
0000
1001
,  // measure 20
0001
0010
0100
0010
0001
0100
0010
1000
,  // measure 21
0100
0001
0100
1000
0010
0100
0010
1000
,  // measure 22
0100
0010
0001
0100
0001
1000
0100
0001
,  // measure 23
0000
0110
0000
1001
0000
0110
0001
1000
,  // measure 24
0010
0000
0100
0002
0103
0002
0103
2000
,  // measure 25
3100
2000
3100
0020
0130
0020
0130
0002
,  // measure 26
0010
0003
0001
0010
0100
1000
0001
0101
,  // measure 27
0000
1100
0000
0101
0000
1001
0000
0000
,  // measure 28
1100
0000
1000
0020
0130
0020
0130
2000
,  // measure 29
3001
2000
3001
0020
1030
0020
1030
0200
,  // measure 30
0010
0000
1300
0100
0010
0001
0000
0001
,  // measure 31
1000
0000
0000
0101
0100
0001
0010
0100
,  // measure 32
1000
0010
1000
0100
0001
0100
0010
0001
,  // measure 33
0000
0101
0000
1100
0000
0001
0010
0100
,  // measure 34
1000
0001
0100
0010
0100
0001
1000
0100
,  // measure 35
1000
0010
0100
0001
0010
0010
0100
1000
,  // measure 36
0010
0100
1000
0100
0010
1000
0001
0020
,  // measure 37
0000
0130
0100
1000
0100
0001
0100
0010
,  // measure 38
0100
1000
0001
0100
0010
1000
0100
1000
,  // measure 39
0010
1000
0010
0000
0100
0001
0100
0000
0010
1000
0010
1000
0010
1000
0000
0000
,  // measure 40
1000
0010
0100
0010
1000
0001
0100
1000
,  // measure 41
0000
0101
0000
1100
0000
0001
0010
0100
,  // measure 42
1000
0010
0001
0010
1000
0100
0010
0001
,  // measure 43
0100
0010
0100
0001
0010
0010
0100
1000
,  // measure 44
1000
0010
0001
0010
1000
0001
0010
0200
,  // measure 45
0000
1000
1300
0000
1000
0001
0100
0010
,  // measure 46
1000
0000
0100
0000
0001
0000
0100
0000
1000
0000
0010
0000
0100
0000
0001
0100
,  // measure 47
0000
0000
0100
0001
0000
0000
0001
1000
0000
0000
0010
0100
0010
0100
0010
0100
,  // measure 48
0001
0000
1000
0000
0100
0010
0100
0010
0100
0000
1000
0000
0010
0000
0101
0000
,  // measure 49
1000
0000
0000
0001
0010
0100
0010
0100
0010
0000
0001
0000
0100
0000
0110
0000
,  // measure 50
0001
0000
0000
0000
1000
0100
1000
0100
1000
0000
0001
0000
0010
0000
0100
0010
,  // measure 51
0000
0000
0001
0100
0001
0100
0001
1000
0000
0001
0100
0000
0010
1000
0001
0000
,  // measure 52
1100
0000
0000
0000
0010
0001
0010
0001
0010
0000
0100
0000
1000
0000
0110
0000
,  // measure 53
0001
0000
0000
1000
0001
0100
0001
0100
0001
0000
0100
0000
0010
0000
0101
0000
,  // measure 54
1000
0000
0001
0000
0001
0000
0000
0000
0010
0000
0100
0000
0000
0000
1000
0010
,  // measure 55
0100
0000
0000
0000
0110
0000
0001
1000
0000
0000
0001
0010
0100
1000
0100
1000
,  // measure 56
0010
0100
0100
0010
0000
1001
0000
0000
;

//---------------dance-single - ----------------
#NOTES:
     dance-single:
     :
     Medium:
     6:
     0.419094,0.470146,0.210338,0.099634,0.011070,265.000000,246.000000,19.000000,9.000000,0.000000,0.000000,0.419094,0.470146,0.210338,0.099634,0.011070,265.000000,246.000000,19.000000,9.000000,0.000000,0.000000:
0000
0000
0000
0000
,
0000
0000
0000
0000
,
0000
0000
0000
0000
,
0000
0000
0000
0000
,
0002
0000
0000
0000
0000
0000
1003
0020
,
0000
0000
0000
0000
0000
0030
0100
0002
,
0000
0000
0000
0003
,
0101
0110
1001
0000
,
1000
0000
0001
0000
0010
0000
0001
0100
,
0001
0000
1000
0000
0010
0000
0100
0001
,
0100
0000
1000
0000
0100
0000
0001
1000
,
0001
0000
1000
0100
1000
0000
0100
0000
,
0110
0000
1000
0000
0001
0000
0100
0010
,
1000
0000
0001
0000
0010
0000
0100
0010
,
0001
1000
0001
0000
1000
0001
0000
1000
,
0010
0000
0000
0000
0110
0000
0000
0100
0000
0000
0000
0000
0002
0000
0000
0000
,
1003
0000
0100
0000
1000
0000
0010
1000
,
0100
0000
1000
0000
0001
0000
0010
0001
,
0100
0000
0001
0000
1000
0000
0001
0100
,
1000
0000
0100
0001
0000
1000
0000
0100
,
0010
0000
0001
0000
0100
0000
0001
0010
,
0100
0000
1000
0000
0010
0000
1000
0100
,
0010
0000
0001
0000
0100
0001
1000
0100
,
0000
0001
0000
0100
0000
1000
0000
0000
,
0001
0000
0001
0100
0000
0100
0000
0010
,
0000
0010
0000
1000
0000
1000
0000
0002
,
0000
0000
1003
0000
0001
0010
0000
0100
,
0000
1000
0000
0100
0000
0010
0000
0000
,
0001
0000
0001
1000
0000
1000
0000
0010
,
0000
0010
0000
0100
0000
0100
0000
0002
,
0000
0000
1003
0001
1000
0001
0000
0010
,
0000
0000
0000
0000
0100
1000
0100
0010
,
0000
0001
0000
0100
0000
0001
0100
0010
,
0000
1001
0000
1000
0000
0001
0010
0100
,
1000
0000
0010
0100
0000
0010
0000
1000
,
0000
0001
0000
0000
1000
0100
0010
0100
,
0000
1100
0000
0001
0000
0100
0001
1000
,
0000
0100
1000
0000
0010
0000
0100
0000
,
0001
1000
0001
0000
0010
0100
0010
0000
,
0011
0000
1100
0000
0101
0001
0010
0100
,
0000
1000
0000
0010
0000
1000
0010
0100
,
0000
1001
0000
0001
0000
1000
0100
0010
,
0001
0000
0100
0010
0000
0100
0000
0001
,
0000
1000
0000
0000
0001
0010
0100
0010
,
0000
0011
0000
1000
0000
0010
1000
0001
,
0000
0010
0001
0000
0100
0000
0010
0000
,
1000
0001
1000
0000
0100
0010
0100
1000
,
0000
0101
0000
0101
0000
0202
0000
0303
,
1001
0000
1000
0000
0100
0000
1000
0010
,
1000
0000
0001
0000
0100
0000
0010
1000
,
0010
0000
0001
0000
0010
0000
1000
0001
,
1000
0000
0001
0010
0001
0000
0010
0000
,
0110
0000
0001
0000
1000
0000
0010
0100
,
0001
0000
1000
0000
0100
0000
0010
0100
,
1000
0001
1000
0000
0001
1000
0000
0001
,
0100
0000
0000
0000
0110
0000
0000
0010
0000
0000
0000
0000
2000
0000
0000
0000
,
3100
0010
0100
0010
0000
1001
0000
0000
;

//---------------dance-single - ----------------
#NOTES:
     dance-single:
     :
     Easy:
     4:
     0.309971,0.376117,0.099634,0.044282,0.000000,196.000000,187.000000,9.000000,4.000000,0.000000,0.000000,0.309971,0.376117,0.099634,0.044282,0.000000,196.000000,187.000000,9.000000,4.000000,0.000000,0.000000:
0000
0000
0000
0000
,
0000
0000
0000
0000
,
0000
0000
0000
0000
,
0000
0000
0000
0000
,
2002
0000
3003
0000
0000
0000
1000
0002
,
0000
0000
0000
0000
0003
0000
1000
0002
,
0000
0000
0003
0000
,
1000
0001
0110
0000
,
1000
0010
1000
0100
,
0010
0001
0100
0001
,
1000
0010
0100
0001
,
0100
0010
1000
0000
,
0001
0010
0001
0100
,
0010
1000
0100
1000
,
0001
0010
0100
1000
,
0010
0100
0001
0000
,
1000
0100
1000
0001
,
0000
0100
0001
1000
,
0000
0010
1000
0001
,
0010
0100
1000
0001
,
1000
0001
0100
0010
,
0000
1000
0010
0100
,
0000
0001
1000
0100
,
1000
0001
1000
0000
,
0010
0010
1000
1000
,
0001
0001
0100
0100
,
0001
0100
0010
1000
,
0001
0100
0001
0000
,
1000
1000
0100
0100
,
0010
0010
0001
0001
,
1000
0001
0100
0001
,
1000
0000
0000
0000
,
0001
0010
0100
1000
,
0010
1000
0100
0000
,
1000
1000
0001
0001
,
1000
0001
0100
0010
,
1000
0010
0100
0001
,
0010
0001
0100
0000
,
0001
0001
1000
1000
,
1001
0110
1001
0000
,
1000
0100
0001
0100
,
1000
0100
0010
0000
,
0001
0001
1000
1000
,
0001
1000
0010
0100
,
0001
0100
1000
0100
,
0001
0100
0010
0000
,
1000
0000
1000
0000
0001
0000
1000
0001
,
0000
0110
0000
0110
0000
0110
0000
0000
,
0001
0100
0001
0010
,
0100
1000
0010
1000
,
0001
0100
0010
1000
,
0010
0100
0001
0000
,
1000
0100
1000
0010
,
0100
0001
0010
0001
,
1000
0100
0010
0001
,
0100
0010
1000
0000
,
0001
1000
0001
1000
0000
1001
0000
0000
;

//---------------dance-single - ----------------
#NOTES:
     dance-single:
     :
     Beginner:
     2:
     0.151823,0.188058,0.011070,0.022141,0.000000,96.000000,95.000000,1.000000,2.000000,0.000000,0.000000,0.151823,0.188058,0.011070,0.022141,0.000000,96.000000,95.000000,1.000000,2.000000,0.000000,0.000000:
0000
0000
0000
0000
,
0000
0000
0000
0000
,
0000
0000
0000
0000
,
0000
0000
0000
0000
,
1000
0000
0000
0000
,
0001
0000
0000
0000
,
1000
0000
0000
0000
,
0100
0100
0100
0000
,
1000
0000
0000
0001
,
0001
0000
0000
0100
,
0100
0000
0000
0010
,
0010
0000
1000
0000
,
0001
0000
0000
1000
,
1000
0000
0000
0100
,
0100
0000
0000
0000
,
1000
0001
1000
0000
,
0001
0000
0001
0000
,
1000
0000
1000
0000
,
0010
0000
0010
0000
,
0100
0000
0000
0000
,
0001
0000
0001
0000
,
1000
0000
1000
0000
,
0100
0000
0010
0000
,
0100
0000
0000
0000
,
1000
0000
0010
0000
,
0100
0000
0001
0000
,
1000
0000
0010
0000
,
0100
0000
0000
0000
,
0001
0000
0010
0000
,
0100
0000
1000
0000
,
0001
0000
1000
0000
,
0001
0000
0000
0000
,
0100
0000
0100
0000
,
0100
0000
0000
0000
,
0010
0000
1000
0000
,
0010
0000
0100
0000
,
0001
0000
1000
0000
,
0001
0000
0000
0000
,
1000
0000
0100
0000
,
0010
0010
0020
0030
,
0001
0000
1000
0000
,
0001
0000
0000
0000
,
1000
0000
0010
0000
,
0100
0000
0001
0000
,
1000
0000
0001
0000
,
1000
0000
0000
0000
,
0001
0000
0010
0000
,
0100
0000
0000
0000
,
1001
0000
0000
1000
,
1000
0000
0000
0010
,
0010
0000
0000
0100
,
0100
0000
0001
0000
,
1000
0000
0000
0001
,
0001
0000
0000
0010
,
0010
0000
0000
0000
,
0001
1000
0001
0000
,
2000
0000
0000
0000
0000
3000
0000
0000
;
