#TITLE:Sugar Free;
#SUBTITLE:;
#ARTIST:T-ARA;
#TITLETRANSLIT:;
#SUBTITLETRANSLIT:;
#ARTISTTRANSLIT:;
#GENRE:;
#CREDIT:;
#BANNER:;
#BACKGROUND:[Round I] - Sugar Free.jpg;
#LYRICSPATH:;
#CDTITLE:;
#MUSIC:[Round I] - Sugar Free.ogg;
#OFFSET:-0.546049;
#SAMPLESTART:105.538002;
#SAMPLELENGTH:15.000000;
#SELECTABLE:YES;
#BPMS:0.000000=128.000000
;
#STOPS:
;
#BGCHANGES:;
#KEYSOUNDS:;
#ATTACKS:;

//---------------dance-single - ----------------
#NOTES:
     dance-single:
     :
     Challenge:
     9:
     0.601371,0.853652,0.133513,0.204197,0.428028,536.000000,519.000000,17.000000,26.000000,0.000000,0.000000,0.601371,0.853652,0.133513,0.204197,0.428028,536.000000,519.000000,17.000000,26.000000,0.000000,0.000000:
0000
0000
0000
0000
,
0000
0000
0000
0000
,
0000
0000
0000
0000
,
0000
0000
0000
0110
,
0001
0000
0001
0010
0100
1000
0001
0000
0001
1000
0000
0010
,
0100
0000
0100
0010
1000
0001
0010
0000
0010
0100
1000
0001
,
0100
0000
0100
1000
0100
0001
1000
0000
1000
0100
0000
0100
,
0001
0000
0000
0000
0100
0000
0010
0000
0001
0000
0100
0000
0010
0100
0010
0000
0100
0000
0010
0000
1000
0000
0001
0000
,
1000
1000
0010
0010
0100
0100
0001
0001
,
1000
0100
0010
0001
0100
0010
0001
1000
,
0100
0001
0100
0001
1000
0001
1000
0001
1000
0100
1000
0100
0010
0001
0010
0001
,
0100
0010
1000
0100
0010
0001
0100
0010
1000
0001
0010
0100
1000
0010
0100
0001
,
0020
0000
0030
1001
,
0001
0100
1000
0100
0010
0010
1000
1000
,
0100
0001
0100
1000
0001
0010
2000
0000
,
3010
0001
0100
0001
1000
1000
0010
0010
,
0100
0000
0001
0000
0100
0000
0001
0000
0000
0000
0000
0000
1000
0000
0000
0000
0000
0000
0010
0000
0000
0000
0000
0000
0001
0000
0000
0010
0000
0000
0100
0000
0000
0000
0000
0000
0002
0000
0000
0000
0000
0000
0000
0000
0000
0000
0000
0000
,
1003
0100
1000
0010
0100
0100
0010
0010
,
1000
0000
0001
0010
0000
0010
0001
0000
0100
0000
0010
0000
2000
0000
0000
0000
,
3100
0001
0100
1000
0010
0010
1000
1000
,
0100
0000
0010
0000
0100
0000
0010
0000
0000
0000
0000
0000
0001
0000
0000
0010
0000
0000
0100
0000
0000
1000
0000
0000
0001
0000
0000
0010
0000
0000
0100
0000
0000
0000
0000
0000
1002
0000
0000
0000
0000
0000
0000
0000
0000
0000
0000
0000
,
1003
0100
1000
1000
0001
0100
0001
0001
,
0010
0100
1000
0001
0100
0010
1001
1000
,
0001
0010
0100
2000
0000
3010
0100
0010
,
1000
0100
0001
0100
1000
0000
0201
0000
,
0301
0010
0100
0100
1000
0001
0100
0100
,
0010
1000
0100
0010
0001
0100
0110
0010
,
2000
0000
0100
0100
0000
3001
0010
0001
,
0000
0000
0100
0000
0010
0000
1000
0000
0001
0000
0100
0010
2000
0000
3001
0000
,
1200
0000
0310
0010
0001
0001
1000
0010
,
0200
0000
0310
1000
0001
0001
0010
0100
,
2100
0000
3001
0001
0100
0100
1000
0100
,
0010
0000
0010
0000
1000
0000
1000
0001
0000
0000
0010
0000
0110
0000
1000
0000
,
0001
0001
0100
0100
0010
0010
1000
1000
,
0001
0000
0001
0000
0010
0000
0010
0100
1000
0000
0001
0000
0100
0000
0010
0000
,
1000
0100
1000
0100
0010
0001
0010
0001
1000
0010
0100
0001
0010
0100
0010
0001
,
1000
0000
0010
0100
0001
0000
0010
0100
1000
0000
0001
0100
0010
0000
1000
0001
,
0010
0010
0010
1001
,
0001
0000
0000
0010
0100
0000
0010
0000
0002
0000
0000
0000
1003
0000
0001
0000
,
0100
0000
0000
0010
1000
0000
0100
0000
0020
0000
0000
0000
0130
0000
1000
0000
,
0001
0000
0000
0100
0010
0000
0100
0000
0002
0000
0000
0000
0013
0000
0100
0000
,
0010
0000
0000
0001
0100
0000
0001
0000
2000
0000
0000
0000
3010
0000
0001
0000
,
0010
0000
0000
1000
0100
0000
0010
0000
0100
0000
0001
0000
0100
0000
1000
0000
,
0010
0000
0000
0100
0001
0000
1000
0000
0001
0000
0010
0000
1000
0000
0010
0000
,
0002
0100
0100
0203
0000
0320
0000
1030
,
1010
0000
0110
0001
1001
0010
0100
1000
,
0001
0001
0100
0100
1000
1000
0100
0001
,
1000
1000
0100
0100
0001
0001
0100
1000
,
0010
0000
1000
0100
0010
0001
1000
0000
1000
0010
0000
0100
,
0001
0000
0010
0100
0010
0001
1000
0000
0001
0100
0010
1000
,
0001
0000
0001
0010
0100
0010
0001
0000
0001
1000
0000
1000
,
0010
0000
0000
0000
0100
0000
0010
0000
1000
0000
0001
0000
0010
0001
0010
0000
0001
0000
0010
0000
0100
0000
1000
0000
,
0010
0001
0010
1000
0100
0001
0100
1000
,
0001
0100
1000
0100
0001
0010
1000
0010
,
0001
0100
0001
0100
0010
0100
0010
0100
1000
0100
1000
0100
0010
0100
0001
0100
,
0010
0010
0010
1001
,
1000
0000
0000
0100
0010
0000
0001
0000
2000
0000
0000
0000
3001
0000
0100
0000
,
0010
0000
0000
1000
0001
0000
0010
0000
0200
0000
0000
0000
0310
0000
0001
0000
,
0100
0000
0000
0010
1000
0000
0100
0000
0020
0000
0000
0000
0130
0000
1000
0000
,
0010
0000
0000
0100
0001
0000
1000
0000
0200
0000
0000
0000
0310
0000
0001
0000
,
0100
0000
0000
0010
1000
0000
0001
0000
0010
0000
1000
0000
0010
0000
0100
0000
,
1000
0000
0000
0010
0100
0000
0001
0000
1000
0000
0010
0000
0001
0000
0010
0000
,
0200
0001
0001
0302
0000
2003
0000
3001
,
0011
0000
0110
1000
1001
0001
0010
0100
,
1000
1000
0010
0010
0001
0001
0010
1000
,
0001
0001
0010
0010
1000
1000
0001
0100
;

//---------------dance-single - ----------------
#NOTES:
     dance-single:
     :
     Hard:
     8:
     0.502639,0.620838,0.353418,0.219904,0.255246,448.000000,403.000000,45.000000,28.000000,0.000000,0.000000,0.502639,0.620838,0.353418,0.219904,0.255246,448.000000,403.000000,45.000000,28.000000,0.000000,0.000000:
0000
0000
0000
0000
,
0000
0000
0000
0000
,
0000
0000
0000
0000
,
0000
0000
0000
0010
,
1001
1100
1001
0101
,
1100
0011
0101
1010
,
0110
1001
0011
1100
,
1010
0101
0110
1001
,
0001
0100
0001
0100
0000
0000
0010
1000
0010
1000
0000
0000
,
0001
0010
0001
0010
0100
0010
0100
1000
0100
1000
0000
0000
,
0010
1000
0001
0100
0000
0000
0001
1000
0100
0010
0000
0000
,
0100
1000
0000
0000
1001
0000
0000
0000
0100
0001
0000
0000
1001
0000
0000
0000
,
0010
0100
0000
0000
0110
0000
0000
0000
0100
0010
0000
0000
1001
0000
0000
0000
,
0110
0000
1001
0000
1000
0001
0100
0000
,
0001
0010
0100
0010
0001
0010
0200
0300
,
1100
0000
0011
0000
1000
0001
0100
0000
,
0010
0010
1000
0001
1000
0100
2200
3300
,
1001
0000
0110
0000
0001
1000
0100
0000
,
0010
0000
0001
0010
0000
0100
1000
0000
0010
0000
1000
0000
0002
0000
0003
0000
,
0101
0000
1010
0000
0100
0001
1000
0000
,
0002
0000
0000
0000
0013
0100
0010
0000
0100
1000
0100
0000
0020
0000
0000
0000
,
0031
0100
1000
0000
0100
0001
0010
0000
,
0100
0010
0001
0010
0100
1000
0010
0000
,
0100
0100
0001
2000
0000
0100
3100
0010
,
0100
1000
0100
0001
0100
0000
0110
0000
,
1000
0001
0100
0000
0001
0010
0100
0000
,
1000
0100
0010
0001
0010
1000
0010
0000
,
0002
0000
0100
0203
0000
0010
0310
1000
,
0000
0100
0010
0100
1000
0010
0100
0001
,
2000
0000
3001
0100
0001
0100
1000
0100
,
0002
0000
0013
0100
1000
1000
0010
1000
,
0200
0000
0310
0100
0001
0100
1000
0010
,
0100
0000
0010
0000
0100
0000
0010
1000
0000
0000
0100
0000
0010
0000
0100
0000
,
2000
0000
3020
0000
0130
0001
0010
0100
,
2000
0000
0000
0000
3200
0000
0000
0310
0001
0000
1000
0000
0001
0000
0100
0000
,
0020
0000
0000
0000
1030
0000
0100
0000
1000
0001
0000
0010
0000
0000
0100
0000
,
0010
0001
0000
0000
0001
0100
0000
0000
0100
0010
0000
0000
0010
1000
0000
0000
,
1002
0100
0103
0110
,
1000
0000
0000
0100
0000
0000
0010
0000
0002
0000
0000
0000
1003
0000
0001
0000
,
0100
0000
0000
0010
0000
0000
1000
0000
0002
0000
0000
0000
0013
0000
0100
0000
,
0010
0000
0000
0001
0000
0000
1000
0000
0020
0000
0000
0000
0130
0000
0010
0000
,
1000
0000
0000
0100
0000
0000
0010
0000
0002
0000
0000
0000
1003
0000
0001
0000
,
0100
0000
0000
1000
0000
0000
0100
0000
0001
0000
0010
0000
0100
0000
1000
0000
,
0010
0000
0000
0001
0000
0000
0010
0000
1000
0000
0100
0000
0010
0000
0001
0000
,
1000
0010
0100
0010
0000
0110
0000
1000
,
0100
0000
0100
0010
0100
1000
0001
0100
,
0020
1000
0100
0031
,
0200
0010
1000
0301
,
1100
0000
1000
0001
0000
0000
0101
0000
0001
1000
0000
0000
,
1000
0010
0000
0100
0001
0000
0010
0001
0000
1000
0100
0000
,
0110
0000
1000
0001
0000
0000
0110
0000
0001
1000
0000
0000
,
0001
0100
0000
1010
0000
0000
1000
0100
0000
0011
0000
0000
,
1000
0010
0000
0000
0101
0000
0000
0000
0001
0010
0000
0000
1100
0000
0000
0000
,
1000
0001
0000
0000
0101
0000
0100
0000
0001
1000
0000
0000
1100
0000
0000
0000
,
0010
0001
0000
0010
0001
0000
0010
0001
1000
0100
1000
0100
1000
0001
1000
0001
,
1000
0010
0000
0000
0010
0000
0000
0000
0010
0100
0000
0000
1001
0000
0000
0000
,
0001
0000
0000
0100
0000
0000
0010
0000
2000
0000
0000
0000
3001
0000
1000
0000
,
0100
0000
0000
0010
0000
0000
0001
0000
2000
0000
0000
0000
3010
0000
0100
0000
,
0010
0000
0000
1000
0000
0000
0001
0000
0020
0000
0000
0000
0130
0000
0010
0000
,
0001
0000
0000
0100
0000
0000
0010
0000
2000
0000
0000
0000
3001
0000
1000
0000
,
0100
0000
0000
0001
0000
0000
0100
0000
1000
0000
0010
0000
0100
0000
0001
0000
,
0010
0000
0000
1000
0000
0000
0010
0000
0001
0000
0100
0000
0010
0000
1000
0000
,
0001
0010
0100
0010
0000
0110
0000
0001
,
0100
0000
0100
0010
0100
0001
1000
0100
,
0010
0001
0010
0100
0010
0001
0010
0100
,
1000
0010
0100
0010
1000
0010
0100
0001
;

//---------------dance-single - ----------------
#NOTES:
     dance-single:
     :
     Medium:
     6:
     0.408394,0.464745,0.392687,0.251319,0.003927,364.000000,314.000000,50.000000,32.000000,0.000000,0.000000,0.408394,0.464745,0.392687,0.251319,0.003927,364.000000,314.000000,50.000000,32.000000,0.000000,0.000000:
0000
0000
0000
0000
,
0000
0000
0000
0000
,
0000
0000
0000
0000
,
0000
0000
0000
0000
,
1000
0010
1010
1001
,
0001
0010
0110
1100
,
0001
1000
0110
0101
,
1000
0001
1100
0101
,
1000
1010
0001
0011
,
1000
1100
0001
0101
,
1000
0010
0100
0001
1000
0010
0100
0001
,
2000
3200
0320
0032
,
1003
0000
0000
0110
,
1000
0010
1000
0000
0100
0000
0100
0000
,
0010
0001
1000
0000
0001
0100
0020
0000
,
1030
0001
1000
0000
0010
0000
0010
0000
,
0100
0000
0001
0000
1000
0001
0020
0000
,
0130
0010
0100
0000
0010
0000
0010
0000
,
0001
0000
0000
0100
0000
0000
0001
0000
1000
0000
0001
0000
0020
0000
0000
0000
,
0130
1000
0100
0000
1000
0000
1000
0000
,
0002
0000
0103
0010
1000
0100
0020
0000
,
0031
0001
1000
1000
,
0001
0100
0010
1000
0001
0000
1001
0000
,
1000
0100
0001
0100
,
1000
0100
1000
0001
1000
0000
0110
0000
,
0001
0100
1000
0000
0100
0000
0001
0000
,
1000
0100
0010
0100
1000
0000
1001
0000
,
0001
0100
1000
0100
,
0001
0000
0010
0000
0100
1000
0010
0000
,
0102
0000
1000
0000
0013
0100
1000
0000
,
2010
0000
0001
0000
3100
0010
0001
0100
,
0020
0000
1000
0000
0130
0001
1000
0001
,
0020
0100
0031
0110
,
0011
1001
1010
1001
,
0101
1001
1100
1001
,
0001
0010
0100
1000
0001
0010
0100
1000
,
0010
0100
0001
1000
,
1002
1000
1003
0110
,
1000
0100
0010
0100
2000
0000
3010
0000
,
0001
0100
0010
0100
0002
0000
0013
0000
,
1000
0100
0010
0001
2000
0000
3001
0000
,
0001
0010
0100
1000
0002
0000
1003
0000
,
2000
0000
3100
0010
0001
1000
0010
0000
,
0200
0000
0310
1000
0001
0010
0100
0000
,
2000
0100
0001
3010
,
0110
0000
1001
0000
1000
0010
0100
0001
,
2000
0100
0001
3010
,
0002
0100
1000
0013
,
1100
0110
1100
1100
,
0101
0110
0101
0101
,
0011
0110
1001
1001
,
1010
0110
1001
1001
,
1000
0100
1000
0000
0100
0010
0100
0000
,
0010
0001
0010
0000
0001
1000
0001
0000
,
1000
0100
0010
0001
1000
0100
0010
0001
,
0100
0010
0100
1001
,
0001
0010
0100
0010
0002
0000
0103
0000
,
1000
0010
0100
0010
2000
0000
3100
0000
,
0001
0010
0100
1000
0002
0000
1003
0000
,
1000
0100
0010
0001
2000
0000
3001
0000
,
0002
0000
0013
0100
1000
0001
0100
0000
,
0020
0000
0130
0001
1000
0100
0010
0000
,
0002
0010
1000
0103
,
0110
0000
1001
0000
0001
0100
0010
1000
,
0002
0010
1000
0103
,
2000
0010
0001
3100
;

//---------------dance-single - ----------------
#NOTES:
     dance-single:
     :
     Easy:
     4:
     0.282734,0.464745,0.306296,0.188490,0.000000,252.000000,213.000000,39.000000,24.000000,0.000000,0.000000,0.282734,0.464745,0.306296,0.188490,0.000000,252.000000,213.000000,39.000000,24.000000,0.000000,0.000000:
0000
0000
0000
0000
,
0000
0000
0000
0000
,
0000
0000
0000
0000
,
0000
0000
0000
0000
,
1000
1000
1000
0000
,
0001
0001
0001
0000
,
0010
0010
0010
0000
,
0100
0100
0100
0000
,
1000
0100
1000
0100
,
1000
0001
1000
0001
,
0100
0100
0010
0010
,
0200
0000
0020
0000
,
0330
0000
0000
1001
,
0001
0100
0001
0000
,
1000
0100
1000
0200
,
0310
0001
0010
0000
,
0100
1000
0100
2000
,
3001
0100
0001
0000
,
0100
0010
0100
0020
,
1030
0010
1000
0000
,
0001
1000
0001
0200
,
0310
0000
1000
0000
,
0001
0010
0100
0000
,
1000
0000
0100
0000
,
0001
0100
1000
0000
,
0001
0000
0100
0000
,
0010
1000
0100
0000
,
0010
0000
0001
0000
,
0100
0010
0100
0000
,
1001
1000
0001
0100
,
0001
0010
0100
1000
,
1001
0001
0100
0001
,
0010
0010
0100
0010
,
1001
0001
0100
0010
,
1001
1000
0100
0010
,
1001
1001
0110
0110
,
1001
0110
1001
0110
,
2002
0000
3003
0100
,
1001
0001
0200
0310
,
1001
1000
0200
0310
,
1001
0001
0020
0130
,
1001
1000
0020
0130
,
1001
1000
0001
0100
,
0110
0010
1000
0100
,
0020
0001
0100
0031
,
0011
0011
1100
1100
,
0002
0000
0000
0003
,
2000
0000
0000
3000
,
1000
0100
1000
1100
,
0001
0100
0001
0101
,
0010
0001
0010
0011
,
1000
0010
1000
1010
,
0001
0001
1000
1000
,
0010
0010
0100
0100
,
0002
0000
2000
3003
,
0001
1000
0010
0110
,
1001
1000
0020
0130
,
1001
0001
0020
0130
,
1001
1000
0200
0310
,
1001
0001
0200
0310
,
1001
0001
1000
0010
,
0110
0100
0001
0010
,
0200
1000
0010
1300
,
1100
1100
0011
0011
,
2000
0100
0100
3100
,
0002
0010
0010
0013
;
