#VERSION:0.83;
#TITLE:レトルト~華麗なる愛~;
#SUBTITLE:;
#ARTIST:虹のコンキスタドール;
#TITLETRANSLIT:Retoruto ~ kareinaru-ai ~;
#SUBTITLETRANSLIT:;
#ARTISTTRANSLIT:Niji no Conquistador;
#GENRE:;
#ORIGIN:;
#CREDIT:;
#BANNER:[Round I] - Retoruto ~ kareinaru-ai ~.png;
#BACKGROUND:[Round I] - Retoruto ~ kareinaru-ai ~-bg.png;
#PREVIEWVID:;
#JACKET:[Round I] - Retoruto ~ kareinaru-ai ~-jacket.png;
#CDIMAGE:;
#DISCIMAGE:;
#LYRICSPATH:;
#CDTITLE:cdtitle.png;
#MUSIC:[Round I] - Retoruto ~ kareinaru-ai ~.ogg;
#OFFSET:-0.990849;
#SAMPLESTART:58.132999;
#SAMPLELENGTH:11.428566;
#SELECTABLE:YES;
#BPMS:0.000=168.000;
#STOPS:207.500=0.357;
#DELAYS:;
#WARPS:;
#TIMESIGNATURES:0.000=4=4;
#TICKCOUNTS:0.000=4;
#COMBOS:0.000=1;
#SPEEDS:0.000=1.000=0.000=0;
#SCROLLS:0.000=1.000;
#FAKES:;
#LABELS:0.000=Song Start;
#BGCHANGES:;
#KEYSOUNDS:;
#ATTACKS:
;

//---------------dance-single - ----------------
#NOTEDATA:;
#CHARTNAME:;
#STEPSTYPE:dance-single;
#DESCRIPTION:;
#CHARTSTYLE:;
#DIFFICULTY:Challenge;
#METER:9;
#RADARVALUES:0.602354,0.648297,0.612564,0.826961,0.081675,413.000000,353.000000,60.000000,81.000000,43.000000,0.000000,0.000000,0.000000,0.000000,0.602354,0.648297,0.612564,0.826961,0.081675,413.000000,353.000000,60.000000,81.000000,43.000000,0.000000,0.000000,0.000000,0.000000;
#CREDIT:;
#NOTES:
0000
0000
0000
0000
,
0000
0000
0000
0000
,
0000
0000
0000
0000
,
0000
0000
0000
0000
,
2000
0000
3100
0001
2000
0000
3001
0100
,
2000
0000
3001
0100
2000
0000
3001
1000
,
0200
0000
0000
0000
0301
0000
0010
0100
0020
0000
0000
0000
0032
0000
0000
0000
,
1003
1000
0010
0010
0100
0100
0001
0001
,
0020
0000
0031
0010
2000
0000
3001
1000
,
0020
0000
0032
0000
0203
0000
0310
1000
,
0200
0000
0010
0000
1000
0000
0310
0001
,
0200
0000
2300
0000
3200
0000
0302
0023
,
0130
0100
0010
0010
0001
0001
1000
1000
,
0020
0100
0100
0100
0130
MMMM
1001
0000
,
2000
3020
0032
0023
,
2030
0000
0000
3010
1000
0000
0100
0000
0020
0000
0000
0000
0031
0000
0100
0000
,
2000
0000
3002
0000
0023
0000
1030
0010
,
1010
M0M0
1001
M00M
0011
00MM
1100
0000
,
0002
0023
2030
3020
,
0032
0000
0000
0013
0001
0000
0100
0000
0020
0000
0000
0000
1030
0000
0100
0000
,
0002
0000
2003
0000
3001
0100
1000
0001
,
0101
0M0M
1001
M00M
1100
MM00
0001
0100
,
0110
1010
1001
0011
,
1200
0000
0310
0001
0200
0000
0310
1000
,
1010
0101
0011
1100
,
0001
0100
1000
0100
0002
1000
1003
0100
,
0110
0011
1001
1010
,
0201
0000
0310
1000
0200
0000
0310
0001
,
0100
0001
0010
1000
0001
1000
0010
0001
,
0100
0000
0100
0000
0010
0000
0010
0000
2000
0000
0000
3000
MMMM
0000
0000
0000
,
0001
0100
0010
0100
1000
0100
0010
0100
,
0001
0010
0100
1000
0010
0000
1MM1
M00M
,
1000
0000
0100
0000
0001
0000
0100
0000
1000
0000
0010
0002
0000
0000
0013
0000
,
1000
0100
0010
0001
0100
0000
1MM1
M00M
,
0001
0001
0100
0100
0010
0010
1000
1000
,
0100
0001
0100
1000
0010
0000
M11M
0MM0
,
1001
1100
1001
0101
,
2000
0000
3200
0000
0301
0100
0010
0100
,
2002
0000
0000
3003
,
1000
0001
1000
0001
1000
0001
1000
0001
,
0200
0000
0000
0310
1000
0000
0001
0000
0020
0000
0000
0130
0010
0000
0001
0000
,
0100
1000
0100
0001
0020
0000
0130
1000
,
1001
0000
0110
0000
1000
0010
0001
0010
,
2000
0000
0000
0000
3100
0000
0010
0000
0002
0000
0000
0203
0000
0000
0310
0000
,
1000
0001
0010
0011
00MM
1000
0010
1010
,
M0M0
0001
0100
0101
0M0M
1000
0100
0110
,
1002
0000
0000
0000
0103
0000
0010
0000
2000
0000
0000
3200
0000
0000
0310
0000
,
0011
1100
1010
0101
,
0001
0000
0100
0000
0010
0000
1000
0000
0200
0000
0000
0302
0000
0000
0203
0000
,
1300
0000
0001
0000
0100
0000
0010
0000
0200
0000
0000
2300
0000
0000
3200
0000
,
0310
0000
1000
0000
0100
0000
0010
0000
0002
0000
0000
0203
0000
0000
0320
0000
,
2030
0000
0000
3200
0000
0000
0302
0000
1003
0000
0010
0000
0001
0000
0100
000M
,
1010
0011
1100
0101
,
1001
0000
0000
0000
1100
0000
0000
0110
0000
0000
0011
0000
2001
0000
0000
0000
,
3020
0000
0032
0000
0013
1000
0100
0100
,
0100
0100
0020
0000
0031
0100
0010
1000
,
0100
0010
0022
0000
0033
0000
0010
0001
,
0100
0010
2020
0000
3030
0000
0010
1000
,
0100
0001
1000
0010
0001
0100
0101
0000
,
0110
0000
0000
0000
1010
0000
0000
0000
0001
0010
0001
0010
0001
0000
0100
0000
,
1000
0100
0220
0000
0330
2000
0000
3100
,
0001
0100
0220
0000
0330
0000
0010
0001
,
0100
1000
0001
0010
1000
0100
1100
0000
,
0110
0011
MMMM
0000
;

//---------------dance-single - ----------------
#NOTEDATA:;
#CHARTNAME:;
#STEPSTYPE:dance-single;
#DESCRIPTION:;
#CHARTSTYLE:;
#DIFFICULTY:Hard;
#METER:7;
#RADARVALUES:0.468174,0.518637,0.245025,0.714658,0.030628,321.000000,297.000000,24.000000,70.000000,24.000000,0.000000,0.000000,0.000000,0.000000,0.468174,0.518637,0.245025,0.714658,0.030628,321.000000,297.000000,24.000000,70.000000,24.000000,0.000000,0.000000,0.000000,0.000000;
#CREDIT:;
#NOTES:
0000
0000
0000
0000
,
0000
0000
0000
0000
,
0000
0000
0000
0000
,
0000
0000
0000
0000
,
0002
0000
0003
0100
0020
0000
0130
0001
,
2000
0000
3000
0100
0020
0000
0031
0100
,
0020
0000
0030
1000
0002
0000
0023
0000
,
0130
1000
0100
1000
0001
0100
0001
0100
,
0020
0000
0030
1000
0002
0000
1003
0100
,
0020
0000
0032
0000
0203
0000
1300
0100
,
0002
0100
0103
0100
,
0020
0000
2030
0000
3002
0000
0013
0100
,
1000
0010
1000
0010
0100
0001
0100
0001
,
1000
0100
0010
0001
1000
0000
MMMM
0000
,
2000
3020
0230
0302
,
1003
0100
0010
0100
1000
0000
1000
0010
,
0200
2300
3200
0301
,
0101
0011
1100
2010
,
3002
0023
0230
2300
,
3001
0100
0010
0100
0001
0000
0001
0010
,
0200
0000
0302
0000
0103
1000
0100
0000
,
0110
0000
1001
0000
0110
0000
0001
1000
,
0002
0203
0320
2030
,
3200
0000
0310
0100
2000
0000
3001
0100
,
0002
0203
2300
3200
,
0301
0100
0010
1000
0002
0000
1003
0000
,
2000
3200
0320
0032
,
0203
0000
0310
0000
2000
0000
3001
1000
,
0100
0010
0001
1000
0001
0010
0100
1000
,
0001
0100
0001
0200
0002
0000
0303
0000
,
1000
1000
0100
0100
,
0010
0001
0010
0001
1000
0000
MMMM
0000
,
0001
0001
0100
0100
,
0010
1000
0001
0010
0100
0000
MMMM
0000
,
1000
0001
1000
0001
,
1000
0010
0100
0001
0010
0000
MMMM
0000
,
0001
0001
1000
1000
,
0110
0000
1001
0000
1000
0100
0010
0002
,
2000
0000
0000
3003
,
0220
0000
0000
0330
,
1000
0000
0001
0010
0001
0000
1000
0010
,
1000
0000
0001
0010
0100
0000
0010
0001
,
0200
0000
0320
0000
1030
0010
0100
0001
,
2000
3100
0110
1001
,
0000
0001
0100
0001
0000
1000
0100
1000
,
0000
0001
0100
0010
0000
1000
0100
0010
,
0002
0000
0000
0000
0003
0000
0010
0000
0001
0000
0000
1000
0000
0000
0010
0000
,
0100
1001
0110
1001
,
2000
0000
0000
0000
3000
0000
0010
0000
1000
0000
0000
0001
0000
0000
0010
0000
,
0002
0000
0000
0000
0003
0000
0010
0000
0001
0000
0000
1000
0000
0000
0010
0000
,
2000
0000
0000
0000
3000
0000
0001
0000
0100
0000
0000
0010
0000
0000
1000
0000
,
0001
0000
0000
1000
0000
0000
0100
0000
0020
0000
0000
0000
0002
0000
0033
0000
,
1010
1001
0011
1001
,
1010
0000
0000
0000
0001
0000
0000
0100
0000
0000
0010
0000
2000
0000
0000
0000
,
0010
0000
0001
0000
3100
0000
0010
0100
,
0010
0200
0020
0000
0330
0000
0001
0100
,
0001
0100
0002
0000
0003
0000
1000
0100
,
1000
0100
2000
0000
3000
0000
0001
0100
,
0010
1000
0010
0100
0001
1000
0100
0000
,
0110
0000
1001
0000
MMMM
0000
1000
0100
,
0010
0100
2000
0000
3000
0002
0000
0103
,
0010
0100
0002
0000
0003
0000
1000
0100
,
0010
0001
1000
0001
0010
0100
1000
0000
,
0110
1001
MMMM
0000
;

//---------------dance-single - ----------------
#NOTEDATA:;
#CHARTNAME:;
#STEPSTYPE:dance-single;
#DESCRIPTION:;
#CHARTSTYLE:;
#DIFFICULTY:Medium;
#METER:5;
#RADARVALUES:0.376289,0.551052,0.285863,0.377748,0.000000,258.000000,230.000000,28.000000,37.000000,8.000000,0.000000,0.000000,0.000000,0.000000,0.376289,0.551052,0.285863,0.377748,0.000000,258.000000,230.000000,28.000000,37.000000,8.000000,0.000000,0.000000,0.000000,0.000000;
#CREDIT:;
#NOTES:
0000
0000
0000
0000
,
0000
0000
0000
0000
,
0000
0000
0000
0000
,
0000
0000
0000
0000
,
1000
1000
0010
0100
,
0001
0001
1000
0100
,
0010
0010
0001
0100
,
0010
1000
0010
1000
,
0001
0001
0010
0100
,
1000
0010
0100
0001
,
1000
1000
0001
0001
,
1000
0100
0010
0001
,
0100
0010
0100
0010
,
1000
0001
1000
0001
1000
0000
MMMM
0000
,
1000
0100
0010
0001
,
0100
0000
0010
0000
1000
0000
0001
0100
,
0001
0010
0001
0100
,
1001
0110
1001
0000
,
0001
0100
0010
1000
,
0100
0000
0010
0000
0001
0000
1000
0100
,
1000
0010
1000
0100
,
1001
0110
1001
0001
,
1000
0010
0100
0001
,
1000
0000
0100
0010
0100
0000
1000
0001
,
1000
0010
0010
0100
,
0001
1000
0001
1000
0001
0000
1000
0000
,
0001
0010
0100
1000
,
0001
0000
0100
0010
0100
0000
0001
1000
,
0002
0023
0230
2300
,
3001
1000
0001
2000
0002
0000
3003
0000
,
1000
0010
1000
0010
,
0100
0001
2000
3000
,
0001
0010
0001
0010
,
0100
1000
0020
0030
,
0100
0001
0100
0001
,
1000
0100
0020
0030
,
0001
0001
1000
1000
,
0002
0203
0320
2030
,
0002
0000
0000
3003
,
0220
0000
0000
0330
,
1000
0100
0001
0100
,
1000
0000
0010
0000
0100
0000
0001
0100
,
0001
0000
1000
0000
0100
0010
0100
0010
,
0200
0000
0310
0001
,
0000
1000
0000
1000
0000
0001
0000
0001
,
0000
0100
0000
0100
0000
0010
0000
1000
,
0002
0003
1000
0010
,
0001
0010
1000
0100
,
0220
0330
0001
0100
,
2020
3030
1000
0100
,
0022
0033
0001
0100
,
1000
0100
0001
0010
,
1100
0011
0101
1010
,
1001
0011
0110
2200
,
0000
0000
3300
0000
0000
0001
1000
0001
,
1000
0002
2000
0000
3003
0000
0001
0000
,
0100
0220
0330
1000
,
0100
0220
0330
0001
,
0100
0010
1000
1001
,
0110
1001
0000
1000
,
0100
0000
0022
0033
0000
0002
0000
0003
,
0100
2020
3030
1000
,
0100
0010
0001
1001
,
0110
1001
MMMM
0000
;

//---------------dance-single - ----------------
#NOTEDATA:;
#CHARTNAME:;
#STEPSTYPE:dance-single;
#DESCRIPTION:;
#CHARTSTYLE:;
#DIFFICULTY:Easy;
#METER:3;
#RADARVALUES:0.250859,0.322872,0.153141,0.214397,0.000000,172.000000,157.000000,15.000000,21.000000,0.000000,0.000000,0.000000,0.000000,0.000000,0.250859,0.322872,0.153141,0.214397,0.000000,172.000000,157.000000,15.000000,21.000000,0.000000,0.000000,0.000000,0.000000,0.000000;
#CREDIT:;
#NOTES:
0000
0000
0000
0000
,
0000
0000
0000
0000
,
0000
0000
0000
0000
,
0000
0000
0000
0000
,
0002
0003
1000
1000
,
0020
0030
0100
0100
,
0002
0003
1000
0100
,
0020
0000
0030
0000
,
0200
0300
1000
1000
,
0001
0100
0010
1000
,
0002
0000
0003
0000
,
1000
0100
0010
0001
,
0200
0000
0300
0000
,
0010
1000
0001
0000
,
1000
0000
0100
0000
,
0010
0100
0010
0000
,
0001
0000
0100
0000
,
0020
1000
1030
0000
,
0001
0000
0100
0000
,
0010
0100
0010
0000
,
1000
0000
0100
0000
,
0020
0001
0031
0000
,
1000
0000
0010
0000
,
0100
0001
0100
0000
,
0001
0000
1000
0000
,
0100
0010
0001
0000
,
1000
0000
0001
0000
,
0100
0010
0100
0000
,
0001
0010
0100
1000
,
0001
1000
0001
0000
,
1000
0000
1000
0000
,
1000
1000
2000
3000
,
0010
0000
0010
0000
,
0010
0010
0020
0030
,
0100
0000
0100
0000
,
0100
0100
0200
0300
,
0001
0000
0001
0000
,
1000
0100
0010
0001
,
2000
0000
3000
0000
,
0002
0000
0003
0000
,
1000
0000
0010
0000
,
1000
0001
0010
0000
,
0100
0100
0010
0001
,
2000
3000
0001
0100
,
0010
0000
0010
0000
,
1000
0001
1000
0000
,
1001
0000
1001
0000
,
0001
0010
0100
1000
,
0020
0030
1000
0001
,
0020
0030
0001
1000
,
0020
0030
1000
0001
,
0010
0010
0010
0010
,
0001
0001
1000
1000
,
0001
0100
0010
2000
,
0000
3001
0000
1001
,
1001
2002
3003
1000
,
0000
1100
0000
0001
,
0000
0101
0000
1000
,
0000
0100
0000
1001
,
1001
1001
0000
0001
,
0000
0011
0000
1000
,
0000
1010
0000
0001
,
0000
0010
0000
1001
,
1001
1001
0000
0000
;

//---------------dance-single - ----------------
#NOTEDATA:;
#CHARTNAME:;
#STEPSTYPE:dance-single;
#DESCRIPTION:;
#CHARTSTYLE:;
#DIFFICULTY:Beginner;
#METER:2;
#RADARVALUES:0.189603,0.290585,0.061256,0.102094,0.000000,130.000000,124.000000,6.000000,10.000000,0.000000,0.000000,0.000000,0.000000,0.000000,0.189603,0.290585,0.061256,0.102094,0.000000,130.000000,124.000000,6.000000,10.000000,0.000000,0.000000,0.000000,0.000000,0.000000;
#CREDIT:;
#NOTES:
0000
0000
0000
0000
,
0000
0000
0000
0000
,
0000
0000
0000
0000
,
0000
0000
0000
0000
,
1000
0000
1000
0000
,
0100
0000
0100
0000
,
0010
0000
0001
0001
,
0002
0000
0003
0000
,
0001
0000
0100
0000
,
0010
0010
0010
0000
,
2000
0000
3000
0000
,
0001
0000
1000
0000
,
0002
0000
0003
0000
,
2002
0000
3003
0000
,
1000
0000
0001
0000
,
1000
1000
1000
0000
,
0010
0000
1000
0000
,
0001
0001
0001
0000
,
0001
0000
1000
0000
,
0001
0001
0001
0000
,
0010
0000
0001
0000
,
1000
1000
1000
0000
,
0010
0000
0010
0000
,
1000
0000
0001
0000
,
1000
0000
1000
0000
,
0100
0100
0100
0000
,
0010
0000
0010
0000
,
0001
0000
1000
0000
,
0010
0000
0100
0000
,
0001
0001
0001
0000
,
1000
0000
1000
0000
,
1000
0000
0100
0000
,
0010
0000
0010
0000
,
0010
0000
0001
0000
,
0100
0000
0100
0000
,
0100
0000
0010
0000
,
1000
0000
0001
0000
,
0010
0000
0100
0000
,
0020
0000
0030
0000
,
0000
0000
0000
0000
,
0001
0000
0001
0000
,
0100
0000
0100
0000
,
0010
0000
1000
1000
,
1000
0000
0001
0000
,
1000
0000
0001
0000
,
1000
0000
0001
0000
,
2002
0000
3003
0000
,
0001
0000
1000
0000
,
0100
0000
1000
0000
,
0001
0000
0100
0000
,
0001
0000
1000
0000
,
0100
0100
0100
0100
,
0000
1001
0000
1001
,
0000
1001
0000
2002
,
0000
3003
0000
0001
,
0001
0001
0000
1000
,
0000
1000
0000
0010
,
0000
0010
0000
1000
,
0000
0001
0000
1000
,
1000
1000
0000
0001
,
0000
0001
0000
0010
,
0000
0010
0000
0001
,
0000
1000
0000
0001
,
0001
0001
0000
0000
;
