#TITLE:Made In Heaven;
#SUBTITLE:;
#ARTIST:Kylie Minogue;
#TITLETRANSLIT:;
#SUBTITLETRANSLIT:;
#ARTISTTRANSLIT:;
#GENRE:POP;
#CREDIT:;
#BANNER:[Round I] - Made In Heaven.png;
#BACKGROUND:[Round I] - Made In Heaven-bg.png;
#LYRICSPATH:;
#CDTITLE:CDTitle.png;
#MUSIC:[Round I] - Made In Heaven.ogg;
#OFFSET:-0.000998;
#SAMPLESTART:49.973450;
#SAMPLELENGTH:15.999996;
#SELECTABLE:YES;
#BPMS:0.000000=120.000000
;
#STOPS:
;
#BGCHANGES:;
#KEYSOUNDS:;
#ATTACKS:;

//---------------dance-single - ----------------
#NOTES:
     dance-single:
     :
     Hard:
     6:
     0.390332,0.415791,0.330281,0.000000,0.145123,273.000000,240.000000,33.000000,0.000000,0.000000,0.000000,0.390332,0.415791,0.330281,0.000000,0.145123,273.000000,240.000000,33.000000,0.000000,0.000000,0.000000:
// measure 0
0000
0000
0000
0000
,  // measure 1
0000
0000
0000
0000
,  // measure 2
0000
0000
0000
0000
,  // measure 3
0000
0000
0000
0000
,  // measure 4
0000
0000
0000
0000
,  // measure 5
0001
0000
0000
1000
0000
0000
0100
0000
0000
0000
0000
0000
0010
0000
0000
0000
,  // measure 6
0100
0000
0000
1000
0000
0000
0001
0000
1001
0000
0000
0000
0110
0000
0000
0000
,  // measure 7
0100
0000
0000
0001
0000
0000
0010
0000
0000
0000
0000
0000
0100
0000
0000
0000
,  // measure 8
0010
0000
0000
0001
0000
0000
0100
0000
0000
0000
0110
0000
0000
0000
0000
0000
,  // measure 9
1000
0000
0001
1000
0100
0000
0001
0000
,  // measure 10
0100
0000
1000
0001
0100
0000
0110
0000
,  // measure 11
0100
0000
0001
1000
0010
0100
0001
0000
,  // measure 12
1000
0000
0100
0010
0001
0000
1001
0000
,  // measure 13
1000
0000
0001
0100
0010
0000
1100
0000
,  // measure 14
0001
0000
1000
0010
0100
0000
0011
0000
,  // measure 15
0010
0000
0100
1000
0010
0000
0101
0000
,  // measure 16
0100
0000
0001
0010
0100
0000
1010
0000
,  // measure 17
0010
0000
1001
0100
0010
0000
1001
0000
,  // measure 18
0010
0000
1001
0100
1000
0000
1001
0000
,  // measure 19
0001
0000
1000
0100
0010
0000
0001
0100
,  // measure 20
0010
0000
1000
0100
0001
0100
1000
0000
,  // measure 21
0001
0000
0100
0010
1000
0100
0001
0000
,  // measure 22
0100
0000
0010
0001
0100
1000
0100
0000
,  // measure 23
0001
0010
1000
0100
0001
0000
1000
0000
,  // measure 24
0001
0100
0010
1000
0100
0010
0001
0000
,  // measure 25
0010
0000
0010
0000
1001
0000
0000
0000
0001
1000
0000
0100
0000
0000
0000
0000
,  // measure 26
0001
0100
1000
0010
0000
0100
0001
0010
,  // measure 27
1000
0000
0100
0000
0001
0010
1000
0000
,  // measure 28
0100
0101
1100
0101
,  // measure 29
1100
0000
0000
1000
0100
0000
0000
0000
0001
0000
0000
0001
0100
0000
0000
0000
,  // measure 30
0110
0000
0000
1000
0001
0000
1001
0000
,  // measure 31
0001
0000
0000
0010
0000
0000
0100
0000
0000
0000
1000
0000
0001
0000
0100
0000
,  // measure 32
0010
0000
0000
1000
0000
0000
0100
0000
0000
0000
0010
0000
0001
0000
0000
0000
,  // measure 33
0100
0000
0100
0000
1001
0000
0000
0000
1000
0001
0000
0010
0000
0000
0000
0000
,  // measure 34
1000
0010
0001
0100
0000
0010
1000
0100
,  // measure 35
0001
0000
0010
0000
1000
0100
0001
0000
,  // measure 36
0010
1010
0011
1010
,  // measure 37
0011
0000
0000
0001
0010
0000
0000
0000
1000
0000
0000
1000
0010
0000
0000
0000
,  // measure 38
0110
0000
0000
0001
1000
0000
1001
0000
,  // measure 39
1000
0000
0000
0100
0000
0000
0010
0000
0000
0000
0001
0000
1000
0000
0010
0000
,  // measure 40
0100
0000
0000
0001
0000
0000
0010
0000
0000
0000
0100
0000
0000
0000
0000
0000
,  // measure 41
0010
0000
0010
0000
1001
0000
0000
0000
1000
0001
0000
1000
0000
0000
0000
0000
,  // measure 42
0001
0000
0000
0001
0000
0000
0001
0000
1000
0000
0000
0000
1100
0000
0000
0000
,  // measure 43
1001
0000
0000
0001
0100
0000
0000
0000
1000
0000
0000
1000
0100
0000
0000
0100
,  // measure 44
0010
0001
0010
0001
0100
0010
0010
0000
,  // measure 45
0100
0000
0100
0000
1001
0000
0000
0000
0001
1000
0000
0001
0000
0000
0000
0000
,  // measure 46
1000
0000
0000
1000
0000
0000
1000
0000
0001
0000
0000
0000
0101
0000
0000
0000
,  // measure 47
1001
0000
0000
1000
0100
0000
0000
0000
0001
0000
0000
0001
0100
0000
0000
0100
,  // measure 48
0010
0000
1000
0000
0010
0000
1000
0000
0001
0000
0000
0001
0000
0000
1000
0000
;

//---------------dance-single - ----------------
#NOTES:
     dance-single:
     :
     Medium:
     5:
     0.311693,0.341102,0.100085,0.000000,0.040034,218.000000,208.000000,10.000000,0.000000,0.000000,0.000000,0.311693,0.341102,0.100085,0.000000,0.040034,218.000000,208.000000,10.000000,0.000000,0.000000,0.000000:
// measure 0
0000
0000
0000
0000
,  // measure 1
0000
0000
0000
0000
,  // measure 2
0000
0000
0000
0000
,  // measure 3
0000
0000
0000
0000
,  // measure 4
0000
0000
0000
0000
,  // measure 5
1000
0000
0001
0000
0100
0010
1000
0000
,  // measure 6
0001
1000
1010
0101
,  // measure 7
1000
0000
0001
0000
0100
0001
1000
0000
,  // measure 8
0001
0000
0000
1000
0000
0000
0100
0000
0000
0000
0100
0000
0000
0000
0000
0000
,  // measure 9
0010
0001
0100
0000
0010
0000
0010
0000
,  // measure 10
1000
0100
0010
0100
1000
0000
1000
0000
,  // measure 11
0001
0010
0100
0000
1000
0000
0010
0000
,  // measure 12
0001
0000
0010
1000
0001
0000
1001
0000
,  // measure 13
0000
0000
1000
0100
0001
0000
0010
0000
,  // measure 14
0000
0000
0001
0100
1000
0000
0010
0000
,  // measure 15
0000
0000
0100
0001
1000
0000
0100
0000
,  // measure 16
0000
0000
0010
0001
1000
0000
1001
0000
,  // measure 17
1000
1000
1000
0000
0001
0100
1000
0000
,  // measure 18
0001
0001
0001
0000
1000
0100
0001
0000
,  // measure 19
1000
0010
0001
0100
,  // measure 20
1000
0000
0010
0000
0001
0100
1000
0000
,  // measure 21
0100
0100
0100
0000
0001
0010
1000
0000
,  // measure 22
0100
0100
0100
0000
1000
0010
0001
0000
,  // measure 23
0100
1000
0010
0001
,  // measure 24
0100
0000
1000
0000
0010
0001
0100
0000
,  // measure 25
0010
0000
1001
0000
1000
0001
0100
0000
,  // measure 26
0010
0000
1000
0001
0000
1000
0100
0000
,  // measure 27
0010
0000
0001
0000
0100
0010
0100
0000
,  // measure 28
0001
0010
1000
0100
,  // measure 29
0001
0000
0000
0010
0000
0000
0100
0000
0000
0000
0000
0000
0000
0000
0000
0000
,  // measure 30
1000
0000
0000
0100
0000
0000
0010
0000
0001
0000
0000
0000
1001
0000
0000
0000
,  // measure 31
0001
1000
0010
0100
,  // measure 32
0010
0000
1000
0000
0001
0010
0100
0000
,  // measure 33
0010
0000
1001
0000
0001
1000
0100
0000
,  // measure 34
0010
0000
0100
1000
0000
0010
1000
0000
,  // measure 35
0001
0000
0010
0000
0001
1000
0001
0000
,  // measure 36
0010
1000
0100
0001
,  // measure 37
0010
0000
0000
0001
0000
0000
0100
0000
0000
0000
0000
0000
0000
0000
0000
0000
,  // measure 38
0010
0000
0000
1000
0000
0000
0100
0000
0010
0000
0000
0000
0110
0000
0000
0000
,  // measure 39
0100
1000
0001
1000
,  // measure 40
0001
0000
0100
0000
0010
1000
0001
0000
,  // measure 41
0010
0000
0000
0000
1001
0000
0000
0000
1000
0000
0000
1000
0000
0000
0000
0000
,  // measure 42
0001
0000
0001
0000
1000
0100
0001
0000
,  // measure 43
0100
0100
0010
0010
,  // measure 44
0001
1000
0001
1000
0001
0001
0001
0000
,  // measure 45
0010
0000
0000
0000
1001
0000
0000
0000
0001
0000
0000
0001
0000
0000
0000
0000
,  // measure 46
1000
0000
1000
0000
0001
0010
1000
0000
,  // measure 47
0100
0100
0010
0010
,  // measure 48
1000
0000
0001
0000
1000
0000
0001
0000
1000
0000
0000
1000
0000
0000
0000
0000
;

//---------------dance-single - ----------------
#NOTES:
     dance-single:
     :
     Easy:
     3:
     0.217328,0.243957,0.120102,0.000000,0.000000,152.000000,140.000000,12.000000,0.000000,0.000000,0.000000,0.217328,0.243957,0.120102,0.000000,0.000000,152.000000,140.000000,12.000000,0.000000,0.000000,0.000000:
// measure 0
0000
0000
0000
0000
,  // measure 1
0000
0000
0000
0000
,  // measure 2
0000
0000
0000
0000
,  // measure 3
0000
0000
0000
0000
,  // measure 4
0000
0000
0000
0000
,  // measure 5
1000
0001
1000
0000
,  // measure 6
0010
0100
0010
0000
,  // measure 7
1000
0100
0010
0000
,  // measure 8
0001
0100
0010
0000
,  // measure 9
0000
1000
0001
0010
,  // measure 10
0000
0001
1000
0100
,  // measure 11
0000
0010
0010
0010
,  // measure 12
0000
0001
0001
1001
,  // measure 13
0000
1000
0010
0010
,  // measure 14
0000
0100
0001
0001
,  // measure 15
0000
0010
0100
0100
,  // measure 16
0000
1000
0001
0001
,  // measure 17
1000
1001
0000
0110
,  // measure 18
0000
1001
0000
0110
,  // measure 19
0100
0001
1000
0000
,  // measure 20
0100
0010
0001
0001
,  // measure 21
0000
1001
0000
0110
,  // measure 22
0000
1001
0000
0110
,  // measure 23
0010
0010
0010
0000
,  // measure 24
0100
0100
0100
0100
,  // measure 25
1000
1000
0001
0001
,  // measure 26
0100
1000
0100
0001
,  // measure 27
0010
0010
0100
0100
,  // measure 28
1000
0010
0001
0010
,  // measure 29
1000
1000
0000
0001
,  // measure 30
0000
0100
0010
0010
,  // measure 31
0100
0001
0000
1000
,  // measure 32
0000
0100
0010
0010
,  // measure 33
0001
0001
1000
1000
,  // measure 34
0010
0001
0010
1000
,  // measure 35
0100
0100
0010
0010
,  // measure 36
0001
0100
1000
0100
,  // measure 37
0001
0001
0000
1000
,  // measure 38
0000
0010
0100
0100
,  // measure 39
0010
1000
0000
0001
,  // measure 40
0000
0010
0100
0100
,  // measure 41
0010
1001
0001
0000
,  // measure 42
1000
0001
1000
0001
,  // measure 43
0100
0000
0100
0000
,  // measure 44
0010
0010
0010
0000
,  // measure 45
0010
1001
1000
0000
,  // measure 46
0001
1000
0001
1000
,  // measure 47
0010
0000
0010
0000
,  // measure 48
0100
0100
0100
1001
;
