#TITLE:Big Daddy Of The Rhythm;
#SUBTITLE:;
#ARTIST:Dead or Alive;
#TITLETRANSLIT:;
#SUBTITLETRANSLIT:;
#ARTISTTRANSLIT:;
#CREDIT:;
#BANNER:Big Daddy of the Rhythm.png;
#BACKGROUND:Big Daddy of the Rhythm-bg.png;
#LYRICSPATH:;
#CDTITLE:;
#MUSIC:Big Daddy of the Rhythm.ogg;
#OFFSET:-6.841;
#SAMPLESTART:36.57;
#SAMPLELENGTH:12.000;
#SELECTABLE:YES;
#BPMS:0.000=128.830;
#STOPS:;
#BGCHANGES:;

//---------------dance-single - ----------------
#NOTES:
     dance-single:
     :
     Hard:
     8:
     0.427,0.503,0.060,0.090,0.189:
0000
0000
0000
0000
,
0000
0000
0000
0000
,
0000
0000
0000
0000
,
0000
0000
0000
0000
,
0001
1000
0000
0010
0100
0000
0001
1000
0000
0010
0100
0000
0001
0000
0100
0000
,
0010
1000
0000
0010
0100
0000
0001
0100
0000
0010
0100
0000
0001
0000
0100
0000
,
0010
1000
0000
0010
0100
0000
0001
0100
0000
0010
0100
0000
0010
0000
1000
0000
,
0001
0100
0000
0001
0100
0000
0010
1000
0000
0010
1000
0000
0100
0000
0010
0000
,
0001
0100
0001
0000
1000
0000
0100
0000
0010
0000
0001
0000
0100
0000
0000
0000
,
0010
1000
0010
0000
0100
0000
0001
0000
1000
0000
0010
0000
0100
0000
0000
0000
,
0002
0000
0000
0000
2003
0000
0000
0000
3020
0000
0000
0000
0130
0000
0000
0200
,
0000
0000
0000
0000
0000
0300
0000
0000
,
0001
1000
0001
0000
1000
0000
0100
0000
0010
0000
0001
0000
0100
0000
0000
0000
,
0010
1000
0010
0000
1000
0000
0100
0000
0010
0000
0001
0000
0010
0000
0000
0000
,
0200
0000
2300
0000
3010
0010
0000
0100
,
0000
0001
0000
1000
0000
0010
0000
0000
,
0100
0000
0001
0010
0100
1000
0010
0100
,
0010
1000
0000
0001
0000
0101
0000
0000
,
0010
0000
1000
0100
0010
0001
0010
0100
,
1000
0100
0000
0001
0000
1001
0000
1100
,
0000
0000
0010
0001
0010
0100
1000
0010
,
0100
0001
0000
1000
0000
1001
0000
0000
,
0000
0000
0010
0100
0010
1000
0001
1000
,
0010
0100
0000
0001
0000
0100
0000
1010
,
0000
0000
0100
0000
0001
0000
0100
0000
0010
0000
1000
0010
1000
0000
0000
0000
,
0002
0000
0000
0000
0000
0000
0000
0100
0000
0000
0000
0100
0000
0103
0000
0000
,
0000
0000
0100
0000
0010
0000
1000
0000
0001
0000
0100
0010
0100
0000
0000
0000
,
0001
0000
1000
0000
0100
0000
1000
0000
0100
0000
0000
0010
0000
0001
0000
0000
,
0000
0000
0100
0000
0010
0000
0100
0000
0010
0000
1000
0001
1000
0000
0000
0000
,
0010
0100
0001
1000
0100
1000
0100
0000
,
0000
0000
0010
0000
0001
0000
0010
0000
0100
0000
1000
0010
1000
0000
0000
0000
,
0001
0010
0100
1000
0010
0100
0000
0000
,
0000
0000
0001
0000
0010
0000
0100
0000
1000
0000
0010
1000
0010
0000
0000
0000
,
0200
0000
0001
0301
,
0000
0000
0010
0000
1000
0000
0010
0000
0100
0000
0001
0100
0001
0000
0000
0000
,
1000
0010
0100
0010
1000
0001
1000
0000
,
0000
0000
0010
0000
0100
0000
0001
0000
1000
0000
0010
1000
0010
0000
0000
0000
,
0100
0001
0100
0010
1000
0010
0100
0000
,
0000
0000
0001
0000
0010
0000
0001
0000
0100
0000
0010
1000
0010
0000
0000
0000
,
0100
0001
0010
0100
1000
0100
0000
0000
,
0000
0000
0010
0000
0001
0000
0010
0000
0100
0000
1000
0100
1000
0000
0000
0000
,
0002
0000
0100
0103
,
0000
0000
0010
0000
0100
0000
1000
0000
0010
0000
0100
0001
0100
0000
0000
0000
,
0001
0010
0100
1000
0010
0100
0010
0000
,
0000
0000
1000
0000
0100
0000
1000
0000
0001
0000
0100
0001
0100
0000
0000
0000
,
0010
1000
0100
1000
0001
0100
0001
0000
,
0000
0000
1000
0000
0010
0000
1000
0000
0001
0000
0100
0001
0100
0000
0000
0000
,
0010
1000
0100
1000
0100
0010
0001
0000
,
1001
0000
0000
0000
;

//---------------dance-single - ----------------
#NOTES:
     dance-single:
     :
     Medium:
     7:
     0.323,0.311,0.010,0.090,0.015:
0000
0000
0000
0000
,
0000
0000
0000
0000
,
0000
0000
0000
0000
,
0000
0000
0000
0000
,
0001
0000
0100
0000
0010
1000
0010
0000
,
0100
0000
0001
0000
1000
0010
1000
0000
,
0001
0000
1000
0000
0010
0100
0010
0000
,
1000
0000
0001
0000
0100
0010
0100
0000
,
1000
0010
1000
0010
0100
0000
0100
0000
,
0001
1000
0001
0000
0100
0000
0010
0000
,
2000
0000
0000
0000
3020
0000
0000
0000
0230
0000
0000
0000
0301
0000
0000
0002
,
0000
0000
0000
0000
0000
0003
0000
0000
,
1000
1000
0010
0100
0010
0000
0100
0000
,
0001
0001
1000
0010
1000
0000
0001
0000
,
0200
0000
0302
0000
1003
1000
0000
0001
,
0000
0010
0000
0100
0000
1000
0000
0000
,
0100
0000
0001
0000
1000
0000
0010
0100
,
0010
1000
0000
0001
0000
0100
0000
0000
,
0010
0000
1000
0000
0001
0000
0100
0010
,
1000
0001
0000
0100
0000
0010
0000
1000
,
0000
0000
0010
0001
0010
0100
1000
0010
,
0100
0001
0000
1000
0000
0001
0000
0000
,
0000
0000
0100
0010
1000
0001
0100
0010
,
1000
0001
0000
0100
0000
0010
0000
1000
,
0000
0001
0010
0100
0010
1000
1000
0000
,
0002
0000
0000
0000
0000
0000
0000
0000
0000
0000
0000
0000
0000
0003
0000
0000
,
0000
0100
0010
0100
0010
1000
1000
0000
,
0001
0000
0000
0000
0100
0000
0000
0000
0001
0000
0000
1000
0000
1000
0000
0000
,
0000
0010
0100
0010
1000
0001
0001
0000
,
0100
0010
1000
0100
0010
0001
0100
0000
,
0000
0010
1000
0010
0100
0001
0001
0000
,
1000
0010
0100
0001
,
0000
0010
0100
1000
0100
0010
0010
0000
,
0002
0000
0000
0003
,
0000
1000
0100
1000
0010
0100
0100
0000
,
0001
0000
0010
0000
0100
1000
0100
0000
,
0000
0010
0001
0010
0100
1000
1000
0000
,
0001
0000
0001
0010
0100
1000
0100
0000
,
0000
0010
0001
0010
0100
1000
1000
0000
,
0010
0000
0100
0000
0001
0010
0000
0000
,
0000
0100
1000
0100
0010
0001
0001
0000
,
0200
0000
0000
0300
,
0000
0010
1000
0010
0100
0001
0001
0000
,
0010
0100
1000
0010
,
0000
0100
0001
0100
0010
1000
1000
0000
,
0010
0000
0100
0000
0001
1000
0001
0000
,
0000
0100
0010
0100
0001
1000
1000
0000
,
0100
0000
0010
0000
1000
0100
0010
0000
,
0011
0000
0000
0000
;

//---------------dance-single - ----------------
#NOTES:
     dance-single:
     :
     Easy:
     3:
     0.222,0.215,0.050,0.050,0.005: // measure 1
0000
0000
0000
0000
,  // measure 2
0000
0000
0000
0000
,  // measure 3
0000
0000
0000
0000
,  // measure 4
0000
0000
0000
0000
,  // measure 5
0001
0010
0100
1000
,  // measure 6
0001
0010
0100
1000
,  // measure 7
0001
0010
0100
1000
,  // measure 8
0010
0010
0010
0010
,  // measure 9
0100
0001
1000
0010
,  // measure 10
0100
0001
1000
0010
,  // measure 11
0100
0000
0000
0000
0100
0000
0000
0000
0010
0000
0000
0000
0010
0000
0000
2000
,  // measure 12
0000
0000
0000
0000
0000
3000
0000
0000
,  // measure 13
0001
0001
0100
0100
,  // measure 14
0010
0010
1000
1000
,  // measure 15
0001
0100
0001
1000
,  // measure 16
0010
0100
0001
1000
,  // measure 17
0000
0010
0100
1000
,  // measure 18
0001
0000
0000
0100
0000
0110
0000
0000
,  // measure 19
0000
1000
0001
0100
,  // measure 20
0010
0000
0000
1000
0000
0001
0000
1001
,  // measure 21
0000
0010
0100
1000
,  // measure 22
0010
0000
0000
0101
0000
0101
0000
0000
,  // measure 23
0000
1000
0010
0100
,  // measure 24
0001
0000
0000
1000
0000
0010
0000
1000
,  // measure 25
0000
0001
0001
0100
,  // measure 26
0020
0000
0000
0000
0000
0000
0000
0030
,  // measure 27
0000
1000
0010
0100
,  // measure 28
0001
0010
0100
1000
,  // measure 29
0010
0100
1000
0001
,  // measure 30
0200
0000
0000
0300
,  // measure 31
0000
0010
0100
0001
,  // measure 32
1000
0010
0100
0001
,  // measure 33
0000
1000
0010
0100
,  // measure 34
0002
0000
0000
0000
0000
0000
0000
0003
,  // measure 35
0000
1000
0010
0100
,  // measure 36
0001
0001
1000
1000
,  // measure 37
0010
0100
1000
0001
,  // measure 38
0100
0010
0100
0001
,  // measure 39
0000
1000
1000
0010
,  // measure 40
0100
0001
0010
0100
,  // measure 41
0000
1000
1000
0001
,  // measure 42
0200
0000
0000
0000
0000
0000
0000
0300
,  // measure 43
0000
0010
0010
1000
,  // measure 44
0001
0100
0001
1000
,  // measure 45
0000
0010
0100
0010
,  // measure 46
1000
0001
0010
0100
,  // measure 47
0000
1000
1000
0010
,  // measure 48
0100
0010
0100
0001
,  // measure 49
1001
0000
0000
0000
;
