#VERSION:0.83;
#TITLE:ACTIVATION;
#SUBTITLE:;
#ARTIST:jun feat. Kathy Sledge;
#TITLETRANSLIT:;
#SUBTITLETRANSLIT:;
#ARTISTTRANSLIT:;
#GENRE:Techno;
#ORIGIN:;
#CREDIT:My guess is SupremeX.;
#BANNER:[Round I] - ACTIVATION.png;
#BACKGROUND:[Round I] - ACTIVATION-bg.png;
#PREVIEWVID:;
#JACKET:[Round I] - ACTIVATION-jacket.png;
#CDIMAGE:;
#DISCIMAGE:;
#LYRICSPATH:;
#CDTITLE:cdtitle.png;
#MUSIC:[Round I] - ACTIVATION.ogg;
#OFFSET:0.000000;
#SAMPLESTART:34.374001;
#SAMPLELENGTH:12.000000;
#SELECTABLE:YES;
#BPMS:0.000=135.990;
#STOPS:141.500=0.441;
#DELAYS:;
#WARPS:;
#TIMESIGNATURES:0.000=4=4,
140.000=3=4,
143.000=4=4;
#TICKCOUNTS:0.000=4;
#COMBOS:0.000=1;
#SPEEDS:0.000=1.000=0.000=0;
#SCROLLS:0.000=1.000;
#FAKES:;
#LABELS:0.000=Song Start,
80.000=;
#BGCHANGES:;
#KEYSOUNDS:;
#ATTACKS:
;

//---------------dance-single - EASIEST CHART OF ALL TIME----------------
#NOTEDATA:;
#CHARTNAME:C 1 X 1;
#STEPSTYPE:dance-single;
#DESCRIPTION:EASIEST CHART OF ALL TIME;
#CHARTSTYLE:Pad;
#DIFFICULTY:Beginner;
#METER:1;
#RADARVALUES:0.087668,0.134242,0.061368,0.000000,0.000000,50.000000,45.000000,5.000000,0.000000,0.000000,0.000000,0.000000,0.000000,0.000000,0.087668,0.134242,0.061368,0.000000,0.000000,50.000000,45.000000,5.000000,0.000000,0.000000,0.000000,0.000000,0.000000,0.000000;
#CREDIT:CuzcoBlocko;
#NOTES:
0000
0000
0000
0000
,
0000
0000
0000
0000
,
0000
0000
0000
0000
,
0000
0000
0000
0000
,
1000
0000
0000
0000
,
0000
0000
0000
0000
,
0001
0000
0000
0000
,
0000
0000
0000
0000
,
1000
0000
0000
0000
,
1000
0000
0000
0000
,
0001
0000
0000
0000
,
0001
0000
0000
0000
,
0110
0000
0000
0000
,
0010
0000
0000
0000
,
0010
0000
0100
0000
,
0100
0000
0000
0000
,
1001
0000
0000
0000
,
0010
0000
0000
0000
,
0010
0000
0100
0000
,
0100
0000
0000
0000
,
1001
0000
0000
0000
,
0001
0000
0000
0000
,
0010
0000
0000
0000
,
0100
0000
0000
0000
,
1000
0000
0000
0000
,
0010
0000
0000
0000
,
0100
0000
0000
0000
,
0001
0000
0000
0000
,
1001
0000
0000
0000
,
1000
0000
0000
0000
,
0010
0000
0000
0000
,
0100
0000
0000
0000
,
0001
0000
0000
0000
,
0010
0000
0000
0000
,
0100
0000
0000
0000
,
1000
0000
0000
1000
,
0000
0100
0000
0001
,
0000
0000
0000
0001
,
0000
0100
0000
1000
,
0000
0000
0000
0001
,
0000
0100
0000
1000
,
0000
0000
0000
1000
,
0000
0100
0000
0001
,
0000
0000
0000
1001
;

//---------------dance-single - Simplicity is key.----------------
#NOTEDATA:;
#CHARTNAME:C 3 X 4;
#STEPSTYPE:dance-single;
#DESCRIPTION:Simplicity is key.;
#CHARTSTYLE:Pad;
#DIFFICULTY:Easy;
#METER:3;
#RADARVALUES:0.219171,0.268484,0.159556,0.171830,0.000000,125.000000,112.000000,13.000000,14.000000,0.000000,0.000000,0.000000,0.000000,0.000000,0.219171,0.268484,0.159556,0.171830,0.000000,125.000000,112.000000,13.000000,14.000000,0.000000,0.000000,0.000000,0.000000,0.000000;
#CREDIT:CuzcoBlocko;
#NOTES:
0000
0000
0000
0000
,
0000
0000
0000
0000
,
0000
0000
0000
0000
,
0000
0000
0000
0000
,
0001
0001
0001
0000
,
1000
0000
0001
0000
,
0100
0100
0100
0000
,
0010
0000
0010
0000
,
1000
1000
1000
0000
,
0001
0000
1000
0000
,
0100
0100
0100
0000
,
0220
0000
0000
0330
,
1001
0000
1000
0010
,
1000
0000
0001
0010
,
0002
0003
2000
3000
,
0001
0100
0010
1000
,
1001
0000
0001
0100
,
0001
0000
1000
0100
,
2000
0000
3002
0003
,
1001
0000
0010
0010
,
1001
0000
1000
0100
,
0011
0000
0001
0100
,
1010
0000
1000
0001
,
0010
0000
0100
0100
,
0002
0003
0100
0000
,
2000
3000
0100
0000
,
0010
0001
1000
0010
,
1000
0001
0100
0100
,
1001
0000
1000
0010
,
0101
0000
0001
0010
,
1100
0000
1000
0001
,
0100
0000
0010
0010
,
0002
0003
0010
0000
,
2000
3000
0010
0000
,
0100
0001
1000
0100
,
0220
0000
0330
0001
,
0001
0001
0010
0100
,
0000
0001
0100
1000
,
1000
1000
0010
0100
,
0000
1000
0100
0001
,
0001
1000
0010
0001
,
0000
1000
0100
0001
,
0000
1000
0000
2002
,
0000
0000
3003
0110
;

//---------------dance-single - It's there.----------------
#NOTEDATA:;
#CHARTNAME:C 5 X 8;
#STEPSTYPE:dance-single;
#DESCRIPTION:It's there.;
#CHARTSTYLE:Pad;
#DIFFICULTY:Medium;
#METER:5;
#RADARVALUES:0.347166,0.375878,0.355933,0.355933,0.000000,198.000000,169.000000,29.000000,29.000000,10.000000,0.000000,0.000000,0.000000,0.000000,0.347166,0.375878,0.355933,0.355933,0.000000,198.000000,169.000000,29.000000,29.000000,10.000000,0.000000,0.000000,0.000000,0.000000;
#CREDIT:CuzcoBlocko;
#NOTES:
0000
0000
0000
0000
,
0000
0000
0000
0000
,
0000
0000
0000
0000
,
0000
0000
0000
0000
,
1002
0000
0100
0000
1003
0000
0000
1000
,
0100
0010
0100
0000
,
2001
0000
0100
0000
3001
0000
0000
0001
,
0100
1000
0100
0010
,
0210
0000
0001
0000
0310
0000
0000
0010
,
1000
0001
0010
0000
,
0210
1000
0310
0100
,
1001
0000
1000
0100
,
0021
0031
1000
0020
,
2030
3001
0100
2000
,
3200
0000
0310
0200
0001
0000
0301
0000
,
1000
0100
0001
0010
,
1020
1030
0001
0002
,
0023
0130
0100
0002
,
0203
0000
0310
0200
1000
0000
1300
0001
,
0200
0000
1000
0301
,
1010
0000
M0M0
1000
0001
1000
0100
0000
,
0011
0000
00MM
0001
1000
0010
0100
0000
,
0110
0000
1000
0001
0000
0010
0000
1000
,
0000
0100
0000
0001
0000
0100
0010
0000
,
1002
0000
0000
0013
0100
0000
0100
0000
,
2001
0000
3010
0100
0010
0000
0001
0000
,
0010
0000
1000
0001
1000
0000
0001
1000
,
0200
0000
0001
1300
,
0011
0000
00MM
0100
1000
0001
0100
0000
,
1010
0000
M0M0
0100
0001
1000
0100
0000
,
0110
0000
0001
1000
0000
0010
0000
0001
,
0000
0100
0000
1000
0000
0100
0010
0000
,
1002
0000
1000
1003
0010
0000
0100
0000
,
2001
0000
0001
3001
0010
0000
1000
0000
,
0010
0000
0001
1000
0001
0000
1000
0000
,
2002
0000
0000
3003
0000
M00M
0011
0000
,
1010
0000
1100
0000
0001
1000
0010
0000
,
0000
0200
1000
0000
0310
0000
1010
0000
,
0011
0000
0101
0000
1000
0001
0010
0000
,
0000
0200
0001
0000
0310
0000
1100
0000
,
0101
0000
0011
0000
1000
0001
0100
0000
,
0000
0020
0001
0000
0130
0000
0101
0000
,
1000
0000
0100
0000
0010
0020
0200
0000
,
0000
0000
0330
1001
;

//---------------dance-single - ...I'll get points somehow, right?----------------
#NOTEDATA:;
#CHARTNAME:C 7 X 11;
#STEPSTYPE:dance-single;
#DESCRIPTION:...I'll get points somehow, right?;
#CHARTSTYLE:Pad;
#DIFFICULTY:Hard;
#METER:7;
#RADARVALUES:0.529516,0.592352,0.515489,0.638225,0.165693,302.000000,260.000000,42.000000,52.000000,24.000000,0.000000,0.000000,0.000000,0.000000,0.529516,0.592352,0.515489,0.638225,0.165693,302.000000,260.000000,42.000000,52.000000,24.000000,0.000000,0.000000,0.000000,0.000000;
#CREDIT:CuzcoBlocko;
#NOTES:
// measure 0
0000
0000
0000
0000
,  // measure 1
0000
0000
0000
0000
,  // measure 2
0000
0000
0000
0000
,  // measure 3
0000
0000
0000
0000
,  // measure 4
1100
0100
0010
0100
0010
0020
0000
2030
,  // measure 5
3010
0001
1000
0001
0201
0000
1000
0000
,  // measure 6
0310
1000
0001
1000
0010
0010
0100
2000
,  // measure 7
0000
3100
0100
0010
0100
0000
1001
0001
,  // measure 8
0010
0100
0010
0001
1000
1000
0010
0002
,  // measure 9
0000
0013
1000
0001
0021
0000
1000
0000
,  // measure 10
0130
1000
0001
0100
0001
0001
0010
1000
,  // measure 11
1020
M000
000M
0M00
0130
0000
1001
0010
,  // measure 12
1002
0000
1003
0000
0000
0100
0000
0000
M01M
0000
0000
0100
0002
0000
0103
0000
,  // measure 13
0020
0000
0130
0000
000M
1000
0000
0000
00M1
0000
0000
0100
2000
0000
3100
0000
,  // measure 14
0020
0000
0100
0000
0000
0130
0002
0000
2003
0000
0000
0001
3000
0000
0001
0000
,  // measure 15
0010
0100
0001
0100
0010
0010
0100
1000
,  // measure 16
2020
0000
3030
0000
0101
0000
0000
0000
1001
0000
0000
0000
2100
0000
3100
0010
,  // measure 17
0200
0000
0300
0000
MM11
0000
0000
0000
0M01
1000
0001
0000
0200
0000
0000
0000
,  // measure 18
0320
1000
1030
0001
0020
0001
0031
1000
,  // measure 19
1020
0000
0M00
000M
M000
0000
000M
M000
0M01
0000
0000
0000
0130
0000
0000
0000
,  // measure 20
2010
0000
0001
3100
0000
0010
0010
0000
,  // measure 21
0012
0000
1000
0103
0000
0010
0010
0000
,  // measure 22
1002
0000
1000
0103
0000
1010
0000
0011
,  // measure 23
0000
0101
0000
2100
0000
0010
3001
0000
,  // measure 24
0021
0000
0000
0000
0100
0000
1030
0000
0010
0000
0000
0010
0001
0000
2000
0000
,  // measure 25
0001
0000
3010
0000
0001
0000
0010
0000
0100
0000
0000
0100
1000
0000
0200
0000
,  // measure 26
0010
0301
1000
0100
0020
0000
1030
0001
,  // measure 27
0100
1000
0001
0000
0101
0000
1100
0000
,  // measure 28
0102
0000
1000
0013
0000
0001
0001
0000
,  // measure 29
2100
0000
0001
3010
0000
1000
1000
0000
,  // measure 30
2001
0000
0001
3100
0000
0011
0000
1010
,  // measure 31
0000
1100
0000
0102
0000
1000
0013
0100
,  // measure 32
1200
0000
0000
0000
0010
0000
0301
0000
0100
0000
0000
0100
0010
0000
0002
0000
,  // measure 33
1000
0000
0103
0000
1000
0000
0100
0000
0010
0000
0000
0010
1000
0000
0200
0000
,  // measure 34
0010
1300
0001
0100
0020
0000
0031
1000
,  // measure 35
0200
0001
0000
0310
MMMM
0100
2001
0000
,  // measure 36
3001
0000
0100
0000
2100
0000
0000
3100
0010
0000
1001
0000
0001
0000
0010
0000
,  // measure 37
0001
1000
0020
0000
0001
0000
0031
0000
1000
0000
0100
0000
0102
0000
0000
0000
,  // measure 38
1003
0000
0100
0000
0102
0000
0000
0103
0010
0000
1001
0000
1000
0000
0010
0000
,  // measure 39
1000
0001
0200
0000
1000
0000
1300
0000
0001
0000
0010
0000
2010
0000
0000
3001
,  // measure 40
1000
0000
0100
0000
0102
0000
0000
0103
0010
0000
1001
0000
0001
0000
0100
0000
,  // measure 41
0001
1000
0200
0000
0301
0000
1000
0000
0010
0000
0001
0000
2001
0000
3010
0000
,  // measure 42
1000
0001
0000
0000
0011
0000
0000
0010
2000
0000
3002
0000
0200
0000
0000
0000
,  // measure 43
M000
0000
0000
M000
0003
00M0
M000
0000
0010
0000
0310
0001
1000
0010
0100
0000
;
