#TITLE:It's Always Better (When I'm With You);
#SUBTITLE:;
#ARTIST:I Hate Kate;
#TITLETRANSLIT:;
#SUBTITLETRANSLIT:;
#ARTISTTRANSLIT:;
#CREDIT:;
#BANNER:It's Always Better (When I'm With You).png;
#BACKGROUND:It's Always Better (When I'm With You)-bg.png;
#LYRICSPATH:;
#CDTITLE:;
#MUSIC:It's Always Better (When I'm With You).ogg;
#OFFSET:-0.039;
#SAMPLESTART:69.738;
#SAMPLELENGTH:19.636;
#SELECTABLE:YES;
#BPMS:0.000=220.000;
#STOPS:;
#BGCHANGES:;

//---------------dance-single - ----------------
#NOTES:
     dance-single:
     :
     Hard:
     8:
     0.422,0.475,0.101,0.193,0.000:
0000
0000
0000
0000
,
0000
0000
0000
0000
,
0000
0000
0000
0000
,
0000
0000
0000
0000
,
1000
0100
1000
0010
,
0100
0000
0001
0010
0000
0100
1000
0000
,
0100
0010
0100
0001
,
0010
0000
0001
1000
0000
0010
0100
0000
,
0001
1000
0010
0100
,
1000
0000
0001
0010
0000
0100
1000
0000
,
0010
0100
1000
0100
,
0010
0000
0001
0100
0000
0010
1000
0000
,
0001
0000
0100
0010
,
0100
0000
0001
1000
0000
0000
0000
0010
,
0100
0001
1000
0100
,
1000
0000
0010
0100
0000
0101
0000
0000
,
0000
1000
0100
0001
,
0100
0000
1000
0100
0000
1100
0000
0000
,
0000
0010
0001
0010
,
1000
0000
0010
0100
0000
0001
0100
0001
,
0000
0000
1000
0000
1000
0000
0010
0100
,
0010
0000
1000
0001
0000
0000
0000
0000
,
0100
0001
0100
0000
0010
0000
1000
0001
,
1000
0000
0010
0100
0000
0110
0000
0000
,
0000
1000
0010
1000
,
0001
0000
0100
0010
0000
0000
0000
0000
,
0000
1000
0100
1000
,
0010
0100
0000
0001
1000
0000
0000
0000
,
0010
0100
0001
1000
,
0100
0000
0010
1000
0000
0001
0100
0000
,
0010
1000
0100
0010
,
0002
0000
0203
0000
,
0320
0000
0000
0000
,
1030
0000
0000
0000
1000
0000
0010
0100
,
0002
0100
0100
0100
,
0100
0100
0100
0103
,
0000
0000
0001
0000
0100
0010
1000
0010
,
0000
0100
0001
0000
1000
0000
0010
0000
,
0200
0000
0300
0020
,
0000
0000
0000
0000
0000
0000
0000
0030
,
0000
0000
1000
0000
0100
0000
1000
0001
,
0000
0000
0100
0000
0010
1000
0000
0000
,
1001
0000
1000
2000
,
0000
0000
3000
0000
,
0100
0000
0010
0002
,
0000
0000
0003
0100
,
0010
0000
1000
0100
,
0000
0000
0010
0001
,
0000
0000
0000
1000
,
0001
0000
0110
0000
,
1020
0000
0000
0000
,
0000
0000
0000
0030
0000
0000
0000
0000
,
1000
0100
0001
0100
,
1000
0000
0001
0100
0000
0010
1000
0000
,
0001
1000
0010
0100
,
0010
0000
1000
0100
0000
1000
0001
0000
,
0100
0001
1000
0010
,
1000
0010
0100
0010
,
1000
0000
0001
0000
,
0100
0000
0010
0100
0000
0001
1000
0000
,
0001
0100
0010
1000
,
0001
0000
0100
0001
0000
1000
0010
0000
,
0100
0010
1000
0001
,
1000
0000
0010
0100
0000
0001
0100
0000
,
0010
0000
1001
0000
,
0101
0000
1010
0000
,
0002
0000
0000
0003
,
0020
0000
0130
0000
,
0000
0000
1000
0000
0010
0100
0000
0010
,
0000
0000
1000
0000
0100
1000
0000
0000
,
1001
0000
0100
0020
,
0000
0000
0000
0000
0000
0030
0000
0000
,
0000
0000
1000
0000
0001
0100
0000
0100
,
0000
0010
1000
0010
,
0100
0000
0001
0100
,
2000
0000
0000
3000
0000
0000
0000
0000
,
0110
0000
0001
0002
,
0000
0003
0000
0000
0010
0000
0200
0000
,
0000
0300
0000
0000
1000
0000
0020
0000
,
0000
0030
0000
0000
1000
0000
0200
0000
,
0000
0300
0000
0000
0010
0000
0001
0000
,
0000
0100
0001
2000
,
0000
0010
0000
0010
,
0000
0010
0000
3010
,
0100
0001
0100
0010
,
1000
0000
0010
0100
0000
0001
0100
0000
,
0010
0010
1000
1000
,
0001
0000
0010
0100
0000
0010
1000
0000
,
0100
0010
0001
0010
,
0100
0000
1000
0001
0000
0100
0001
0000
,
1000
0100
1000
0010
,
0200
0000
0000
0302
,
0000
0000
2003
0000
,
0000
0000
0000
0000
,
0000
3000
0000
0000
0000
0000
0000
0000
;

//---------------dance-single - ----------------
#NOTES:
     dance-single:
     :
     Medium:
     6:
     0.350,0.432,0.009,0.183,0.000:
0000
0000
0000
0000
,
0000
0000
0000
0000
,
0000
0000
0000
0000
,
0000
0000
0000
0000
,
1000
0010
1000
0010
,
0100
0001
0000
1000
,
0010
0100
0010
1000
,
0100
0010
0000
0001
,
0010
0100
1000
0100
,
1000
0010
0000
0100
,
0001
0010
0100
1000
,
0010
1000
0000
0100
,
0010
0000
0001
0100
,
0001
0000
1000
0010
0000
0000
0000
0000
,
0100
0001
1000
0010
,
1000
0000
0001
0100
0000
0000
0010
0000
,
0000
1000
0010
0100
,
0010
0000
1000
0001
0000
1000
0000
0000
,
0000
0010
0100
0001
,
0010
0001
0100
0010
,
0100
0001
1000
0010
,
1000
0000
0010
0100
0000
0000
0000
0000
,
0001
0010
0100
1000
,
0010
0100
0010
0000
,
0000
1000
0001
1000
,
0010
0000
0100
0010
0000
0000
0000
0000
,
0000
1000
0100
1000
,
0010
0100
0000
0001
1000
0000
0000
0000
,
0010
0100
0010
1000
,
0001
1000
0010
0100
,
0001
1000
0100
0010
,
0001
0000
2000
0000
,
3020
0000
0000
0000
,
1030
0000
1000
0001
,
0200
0000
0000
0000
,
0000
0000
0000
0300
,
0000
0010
1000
0001
,
0000
0100
0010
1000
,
0200
0000
0300
0020
,
0000
0000
0000
0000
0000
0000
0000
0030
,
0000
0000
0001
0000
0100
0000
0001
1000
,
0000
0010
0100
0010
,
1000
0000
0001
2000
,
0000
0000
3000
0000
,
0100
0000
0010
0002
,
0000
0000
0003
0100
,
0010
0000
1000
0001
,
0000
0000
0100
0010
,
0000
0000
0000
1000
,
0001
0000
0100
0000
,
0020
0000
0000
0000
,
0000
0000
0000
0030
0000
0000
0000
0000
,
1000
0001
0100
0001
,
1000
0000
0010
0100
0000
0001
1000
0000
,
0010
0100
0001
0100
,
0001
0000
1000
0010
0000
0100
0001
0000
,
1000
0001
0100
0010
,
1000
0100
0010
0001
,
0100
0000
0010
0000
,
1000
0001
0000
0100
,
0010
1000
0010
0100
,
0010
1000
0000
0001
,
0100
0001
1000
0010
,
1000
0001
0000
0100
,
0010
0000
1000
0000
,
0110
0000
0001
0000
,
0200
0000
0000
0300
,
0020
0000
1030
0000
,
0000
0000
1000
0000
0010
0000
0000
0100
,
0000
0001
0010
0000
,
0100
0000
1000
0002
,
0000
0000
0000
0000
0000
0003
0000
0000
,
0000
0000
0100
0000
0010
1000
0000
0000
,
0001
0010
1000
0010
,
0001
0000
0100
0010
,
2000
0000
0000
3000
0000
0000
0000
0000
,
0010
0000
0100
0002
,
0000
0003
0000
0000
0010
0000
0200
0000
,
0000
0300
0000
0000
1000
0000
0020
0000
,
0000
0030
0000
0000
0100
0000
0002
0000
,
0000
0003
0000
0000
0010
0000
0100
0000
,
0000
1000
0010
2000
,
0000
0000
0000
0000
,
0000
0000
0000
3000
,
0010
0100
0001
1000
,
0010
0100
0000
0001
,
0010
0100
1000
0010
,
0100
0001
0000
1000
,
0100
0001
0100
1000
,
0010
0100
0000
0001
,
1000
0010
1000
0100
,
0020
0000
0000
0032
,
0000
0000
2003
0000
,
0000
0000
0000
0000
,
0000
3000
0000
0000
0000
0000
0000
0000
;

//---------------dance-single - ----------------
#NOTES:
     dance-single:
     :
     Easy:
     3:
     0.210,0.259,0.000,0.073,0.000: // measure 1
0000
0000
0000
0000
,  // measure 2
0000
0000
0000
0000
,  // measure 3
0000
0000
0000
0000
,  // measure 4
0000
0000
0000
0000
,  // measure 5
1000
0010
1000
0000
,  // measure 6
0010
0000
0100
0000
,  // measure 7
0001
0100
0001
0000
,  // measure 8
0100
0000
0010
0000
,  // measure 9
1000
0100
1000
0000
,  // measure 10
0010
0000
0100
0000
,  // measure 11
0001
1000
0001
0000
,  // measure 12
0100
0000
0010
0000
,  // measure 13
1000
0000
0000
0010
,  // measure 14
0000
0100
0000
0001
,  // measure 15
0000
1000
0000
0010
,  // measure 16
0000
0100
0001
1000
,  // measure 17
0000
0010
0000
0100
,  // measure 18
0000
0001
0000
1000
,  // measure 19
0000
0010
0000
0100
,  // measure 20
0000
0001
0000
1000
,  // measure 21
0000
0010
0000
0100
,  // measure 22
0000
0010
0000
1000
,  // measure 23
0000
0001
0100
0000
,  // measure 24
0010
0000
1000
0000
,  // measure 25
0001
0100
0001
0000
,  // measure 26
0010
0000
0100
0000
,  // measure 27
1000
0100
1000
0000
,  // measure 28
0100
0000
0010
0000
,  // measure 29
0001
0000
0100
0000
,  // measure 30
0010
0000
1000
0000
,  // measure 31
0001
0000
0010
0000
,  // measure 32
0100
0000
1000
0000
,  // measure 33
0020
0000
0000
0000
0000
0000
0000
0030
,  // measure 34
0000
0000
0100
0000
,  // measure 35
0002
0000
0000
0000
,  // measure 36
0000
0000
0000
0000
0000
0003
0000
0000
,  // measure 37
0000
0000
0100
0000
,  // measure 38
0010
0000
1000
0000
,  // measure 39
0100
0000
1000
0000
,  // measure 40
0010
0000
0000
0000
,  // measure 41
0000
0000
0100
0000
,  // measure 42
0001
0000
0100
0000
,  // measure 43
0010
0000
0000
1000
,  // measure 44
0000
0000
0000
0000
,  // measure 45
0001
0000
0000
0100
,  // measure 46
0000
0000
0000
0000
,  // measure 47
0010
0000
0000
1000
,  // measure 48
0000
0000
0000
0001
,  // measure 49
0000
0000
0000
0100
,  // measure 50
0010
0000
0100
0000
,  // measure 51
0002
0000
0000
0000
,  // measure 52
0000
0000
0003
0000
,  // measure 53
0100
0000
0010
0000
,  // measure 54
0000
1000
0000
0100
,  // measure 55
0000
1000
0000
0010
,  // measure 56
0000
0100
0000
0001
,  // measure 57
0000
0010
0000
0001
,  // measure 58
0000
0100
0000
0010
,  // measure 59
0000
1000
0000
0100
,  // measure 60
0000
0010
0000
0001
,  // measure 61
0000
0100
0000
0010
,  // measure 62
0000
1000
0000
0100
,  // measure 63
0000
0010
0000
0001
,  // measure 64
0000
1000
0000
0010
,  // measure 65
0100
0000
0000
0000
,  // measure 66
0000
0000
0000
0000
,  // measure 67
0020
0000
0000
0000
,  // measure 68
0000
0000
0000
0030
0000
0000
0000
0000
,  // measure 69
0000
0000
0000
0100
,  // measure 70
0000
0001
0000
0100
,  // measure 71
0000
0010
0000
1000
,  // measure 72
0000
0010
0000
0100
,  // measure 73
0000
0010
0000
1000
,  // measure 74
0000
0001
0000
1000
,  // measure 75
0000
0010
0000
0100
,  // measure 76
0000
0010
0000
1000
,  // measure 77
0000
0100
0000
1000
,  // measure 78
0000
0010
0100
0001
,  // measure 79
0000
0000
1000
1000
,  // measure 80
0000
0000
0010
0010
,  // measure 81
0000
0100
0000
0001
,  // measure 82
0000
1000
0000
0200
,  // measure 83
0000
0000
0000
0000
,  // measure 84
0000
0000
0000
0000
0000
0300
0000
0000
,  // measure 85
0020
0000
0000
0000
,  // measure 86
0000
0000
0000
0000
0000
0030
0000
0000
,  // measure 87
0002
0000
0000
0000
,  // measure 88
0000
0000
0003
0000
,  // measure 89
0010
0000
0100
0000
,  // measure 90
1000
0000
0010
0000
,  // measure 91
0100
0000
0010
0000
,  // measure 92
1000
0000
0001
0000
,  // measure 93
0100
0000
0000
0000
0000
0020
0000
0000
,  // measure 94
0000
0000
0000
0000
,  // measure 95
0030
0000
0000
0000
;
