#TITLE:I'm Just a DJ;
#SUBTITLE:(Eko's Bootleg Mix);
#ARTIST:Ekowraith feat. Kyrn;
#TITLETRANSLIT:;
#SUBTITLETRANSLIT:;
#ARTISTTRANSLIT:;
#GENRE:;
#CREDIT:;
#BANNER:[Round H] - I'm Just a DJ.png;
#BACKGROUND:[Round H] - I'm Just a DJ-bg.png;
#LYRICSPATH:;
#CDTITLE:;
#MUSIC:[Round H] - I'm Just a DJ.mp3;
#OFFSET:-0.050000;
#SAMPLESTART:1.690000;
#SAMPLELENGTH:12.000000;
#SELECTABLE:YES;
#BPMS:0.000000=142.000000
,96.000000=35.500000
,97.000000=71.000000
,99.000000=142.000000
;
#STOPS:
;
#BGCHANGES:;
#KEYSOUNDS:;
#ATTACKS:;

//---------------dance-single - ----------------
#NOTES:
     dance-single:
     :
     Hard:
     9:
     0.582448,0.714059,0.098568,0.116490,0.255381,455.000000,444.000000,11.000000,13.000000,0.000000,0.000000,0.582448,0.714059,0.098568,0.116490,0.255381,455.000000,444.000000,11.000000,13.000000,0.000000,0.000000:
// measure 0
0000
0000
0000
0000
,  // measure 1
0000
0000
0000
0000
,  // measure 2
0000
0000
0000
0000
,  // measure 3
0000
0000
0000
0000
,  // measure 4
0000
0000
0000
0000
,  // measure 5
1000
0100
0000
0001
0000
0100
0000
1000
,  // measure 6
0010
0100
0000
1000
0000
0100
0000
0001
,  // measure 7
0010
1000
0000
0010
0000
0001
0000
0100
,  // measure 8
0010
0001
0000
0010
0000
1000
0000
0001
,  // measure 9
1000
0100
0010
0100
1000
0010
0100
0001
,  // measure 10
0010
1000
0010
0001
0100
0010
0001
0010
,  // measure 11
1000
0100
1000
0001
1000
0010
0100
0001
,  // measure 12
0010
0100
0010
0001
0100
0010
1000
0000
,  // measure 13
0001
0010
0100
0010
0001
0100
0010
1000
,  // measure 14
0100
0001
0100
1000
0010
0100
1000
0100
,  // measure 15
0010
0100
0010
0100
0001
1000
0001
1000
0100
1000
0100
1000
0100
0010
0100
0010
,  // measure 16
0002
0000
0000
1003
,  // measure 17
0001
0010
0001
0010
0001
0010
0001
0010
,  // measure 18
1000
0010
1000
0010
1000
0010
1000
0010
,  // measure 19
0100
0001
0100
0001
0100
0001
0100
0001
,  // measure 20
0100
1000
0100
1000
0100
1000
0100
1000
,  // measure 21
0010
0001
0010
1000
0100
0010
0001
0000
,  // measure 22
0010
1000
0010
0001
0100
0010
1000
0000
,  // measure 23
0100
0001
0100
1000
0010
0001
0010
1000
,  // measure 24
0002
0000
0000
0000
0010
0013
1000
0100
,  // measure 25
0010
0100
1000
0010
0100
0010
1000
0100
,  // measure 26
0010
0001
1000
0010
0100
0001
0010
1000
,  // measure 27
0010
0001
0100
1000
0100
0001
0010
0100
,  // measure 28
1000
0001
0100
0010
1000
0000
0001
0010
,  // measure 29
0100
0010
0001
0100
0010
0100
0001
0010
,  // measure 30
0100
1000
0001
0100
0010
1000
0100
0001
,  // measure 31
0100
1000
0010
0001
0010
1000
0200
0000
,  // measure 32
0000
0000
0000
0000
0310
0000
0001
0100
,  // measure 33
1000
0000
0100
0000
0010
0000
1000
0000
0100
0000
1000
0002
0000
0000
0013
0000
,  // measure 34
1000
0000
0010
0000
0100
0000
0010
0000
0001
0000
0100
0002
0000
0000
0013
0000
,  // measure 35
1000
0000
0010
0001
0000
0000
0001
0000
0100
0000
0001
0000
1000
0000
0010
0000
,  // measure 36
0001
0000
0010
0000
1000
0000
0100
0000
0010
0000
0100
2000
0000
0000
3010
0000
,  // measure 37
0001
0000
0010
0000
0100
0000
0001
0000
0010
0000
0001
2000
0000
0000
3100
0000
,  // measure 38
0010
0000
0100
0000
1000
0000
0010
0000
0100
0000
0001
2000
0000
0000
3100
0000
,  // measure 39
0001
0000
0100
1000
0000
0000
0010
0000
1000
0000
0001
0000
0100
0000
1000
0000
,  // measure 40
0100
0000
0001
0000
0010
0000
0100
0000
0010
0000
0001
1000
0000
0001
0100
0000
,  // measure 41
0010
0000
0100
0000
0010
0000
1000
0000
0001
0000
0010
0001
0000
1000
0100
0000
,  // measure 42
0010
0000
0001
0000
0010
0000
0100
0000
1000
0000
0010
1000
0000
0001
1000
0000
,  // measure 43
0100
0000
0010
0001
0000
1000
0100
0000
0010
0000
0100
0000
1000
0000
0010
0000
,  // measure 44
0001
0000
1000
0000
0100
0000
0001
0000
0010
0000
0100
1000
0000
0010
1000
0000
,  // measure 45
0100
0000
0010
0000
0001
0000
1000
0000
0010
0000
0100
0001
0000
0010
0001
0000
,  // measure 46
0100
1000
0001
0010
1000
0100
1001
0000
,  // measure 47
0010
1100
0010
0101
0000
0220
0000
0000
,  // measure 48
0000
0000
0330
1000
,  // measure 49
0100
0000
0010
0000
0000
0001
1000
0000
0010
0000
0010
0000
0100
0000
0000
1010
,  // measure 50
0000
0000
0001
0000
0000
0000
0010
0000
0100
0000
1000
0000
0100
0000
0000
0011
,  // measure 51
0000
0000
1000
0000
0000
0010
1000
0000
0100
0000
0100
0000
0010
0000
0001
1000
,  // measure 52
0000
0000
0001
0000
0100
0000
0010
1000
0020
0000
0000
0000
0130
0000
0000
0100
,  // measure 53
0001
0000
0000
1000
0000
1000
0100
0000
0010
0000
0010
0000
0001
0000
1000
0010
,  // measure 54
0000
0000
0010
0000
0000
0000
0100
0000
0001
0000
0010
0000
0100
0000
0010
0001
,  // measure 55
0000
0000
1000
0000
0000
1000
0010
0000
0100
0000
0100
0000
0101
0000
0010
0000
,  // measure 56
1010
1000
1100
0010
2001
0000
3001
0010
,  // measure 57
1000
0000
0010
0001
0000
0001
1000
0000
0010
0000
0010
0000
0100
0000
1000
0100
,  // measure 58
0000
0100
0001
0000
0000
0000
1000
0000
0100
0000
0010
0000
0001
0000
1000
0010
,  // measure 59
0000
0010
0100
0000
0000
0001
0010
0000
0100
0000
0100
0000
1000
0000
0010
0001
,  // measure 60
0000
0010
1000
0000
0100
0000
0010
0100
2000
0000
0000
0000
3001
0000
0000
0001
,  // measure 61
0100
0000
0010
1000
0000
1000
0100
0000
0010
0000
0010
0000
0001
0000
1000
0010
,  // measure 62
0000
0010
0100
0000
0000
0000
0001
0000
1000
0000
0100
0000
0010
0000
0001
1000
,  // measure 63
0000
1000
0100
0000
0010
0100
1000
0000
0010
0000
0100
0000
1001
0000
0000
0000
;

//---------------dance-single - ----------------
#NOTES:
     dance-single:
     :
     Medium:
     6:
     0.403233,0.428435,0.080647,0.206097,0.004480,315.000000,306.000000,9.000000,23.000000,0.000000,0.000000,0.403233,0.428435,0.080647,0.206097,0.004480,315.000000,306.000000,9.000000,23.000000,0.000000,0.000000:
// measure 0
0000
0000
0000
0000
,  // measure 1
0000
0000
0000
0000
,  // measure 2
0000
0000
0000
0000
,  // measure 3
0000
0000
0000
0000
,  // measure 4
0000
0000
0000
1000
0010
1000
0001
1000
,  // measure 5
0000
0100
0000
0000
0010
0001
1000
0000
,  // measure 6
0001
0000
0100
0010
0000
0000
0100
0000
,  // measure 7
0001
0000
1000
0010
0000
0100
0010
0100
,  // measure 8
0000
0001
0000
1000
0001
0010
0001
0010
,  // measure 9
0000
0100
0000
0000
1000
0100
0010
0000
,  // measure 10
0001
0000
1000
0010
0000
0000
0100
0001
,  // measure 11
1000
0000
0001
0010
0000
0100
0010
0100
,  // measure 12
0000
1000
0000
0001
0100
0010
0100
0001
,  // measure 13
0000
0010
0000
0000
0100
1000
0100
0000
,  // measure 14
0010
0000
0100
1000
0001
0000
0100
0000
,  // measure 15
0010
0000
1000
0010
0000
0100
0000
0002
,  // measure 16
0000
0000
0000
0003
,  // measure 17
2000
0100
0001
3010
,  // measure 18
0002
0010
1000
0103
,  // measure 19
0200
1000
0010
0310
,  // measure 20
0020
0001
0100
0130
,  // measure 21
0001
0000
0010
0000
0100
1000
0100
1000
,  // measure 22
0001
0000
0100
0000
0010
1000
0010
1000
,  // measure 23
0001
0010
0001
0000
1000
0010
1000
0000
,  // measure 24
0220
0000
0000
0000
0000
0330
0001
0000
,  // measure 25
1000
0000
0001
0100
0010
0100
0001
0000
,  // measure 26
0010
0000
0100
1000
0100
0010
0001
0000
,  // measure 27
1000
0000
0010
0000
0100
0001
1000
0000
,  // measure 28
0100
0000
0010
0100
1000
0100
0010
0000
,  // measure 29
0001
0000
0100
1000
0100
0001
0100
0000
,  // measure 30
0010
0000
1000
0100
0001
0100
1000
0000
,  // measure 31
0001
0000
0010
0100
0010
0001
1000
0000
,  // measure 32
0000
0000
0000
0000
0000
0000
0001
0100
,  // measure 33
0010
0100
0010
0000
1000
0000
0100
0010
,  // measure 34
0001
0010
0001
0000
1000
0000
0001
0100
,  // measure 35
0001
0000
1000
0010
1000
0000
0100
0010
,  // measure 36
0100
0010
0001
1000
0001
0000
1000
0010
,  // measure 37
0100
0010
0100
0000
0001
0000
0010
0100
,  // measure 38
1000
0100
1000
0000
0010
0000
0100
0001
,  // measure 39
1000
0000
0001
0010
0100
0000
1000
0000
,  // measure 40
0010
0000
0100
0001
1000
0002
0000
0023
,  // measure 41
0000
0130
1000
0100
0010
0000
0002
0000
,  // measure 42
0103
0020
0000
0100
0000
1030
0002
0000
,  // measure 43
0013
0200
0000
2300
0000
3002
0000
0203
,  // measure 44
0000
0310
1000
0010
0100
0002
0000
2003
,  // measure 45
0000
3100
0010
0001
1000
0000
0020
0000
,  // measure 46
0130
0002
0000
1003
0000
0001
0010
0000
,  // measure 47
0000
1100
0000
0110
0000
0022
0000
0000
,  // measure 48
0000
0000
0033
1000
,  // measure 49
0001
0100
0000
0001
0010
0100
1000
0000
,  // measure 50
0100
0010
0000
0100
1000
0010
0100
0000
,  // measure 51
0001
1000
0000
0100
0010
0001
1000
0000
,  // measure 52
0001
0100
0020
0000
1030
0000
0100
0000
,  // measure 53
0010
0100
0000
1000
0100
0010
0001
0000
,  // measure 54
1000
0010
0000
0100
0001
0100
0010
0000
,  // measure 55
1000
0001
0000
0010
0100
1000
0001
0000
,  // measure 56
1000
0000
0001
1000
0001
0000
1000
0000
0100
0000
1000
0000
0001
0000
0000
0000
,  // measure 57
0100
0010
1000
0000
1000
0000
0001
0000
,  // measure 58
0010
0100
1000
0000
1000
0000
0100
0000
,  // measure 59
0010
0001
1000
0000
1000
0000
0001
0000
,  // measure 60
0100
0010
1000
0000
1001
0000
1000
0000
,  // measure 61
0100
0010
0001
0000
0001
0000
0100
0000
,  // measure 62
0010
1000
0001
0000
0001
0010
0100
0000
,  // measure 63
1100
0101
0110
1001
;

//---------------dance-single - ----------------
#NOTES:
     dance-single:
     :
     Easy:
     4:
     0.247060,0.371310,0.107529,0.089607,0.000000,193.000000,181.000000,12.000000,10.000000,0.000000,0.000000,0.247060,0.371310,0.107529,0.089607,0.000000,193.000000,181.000000,12.000000,10.000000,0.000000,0.000000:
// measure 0
0000
0000
0000
0000
,  // measure 1
0000
0000
0000
0000
,  // measure 2
0000
0000
0000
0000
,  // measure 3
0000
0000
0000
0000
,  // measure 4
0000
0000
0000
0000
,  // measure 5
1000
0100
1000
0000
,  // measure 6
0001
0010
0001
0000
,  // measure 7
0100
0010
1000
0000
,  // measure 8
0001
0000
1000
1000
,  // measure 9
0001
0010
0100
0000
,  // measure 10
1000
0001
0100
0000
,  // measure 11
0010
1000
0001
0000
,  // measure 12
0010
0000
0001
0001
,  // measure 13
1000
0010
0100
0000
,  // measure 14
0001
1000
0100
0000
,  // measure 15
0010
0001
0100
0001
,  // measure 16
2000
0000
0000
3000
,  // measure 17
0002
0000
0000
0003
,  // measure 18
0020
0000
0000
0030
,  // measure 19
0200
0000
0000
0300
,  // measure 20
2000
0000
0000
3000
,  // measure 21
0010
0010
0010
0000
,  // measure 22
0100
0100
0100
0000
,  // measure 23
0001
1000
0001
1000
,  // measure 24
1001
0000
0000
1000
,  // measure 25
0100
1000
0000
0001
,  // measure 26
0010
0001
0000
1000
,  // measure 27
0010
0100
0100
0001
,  // measure 28
0010
0100
0000
0010
,  // measure 29
0001
0100
0000
0010
,  // measure 30
1000
0100
0000
0010
,  // measure 31
0001
0010
0100
2000
,  // measure 32
0000
0000
3000
0001
,  // measure 33
0100
0010
0010
1000
,  // measure 34
0100
0010
0010
0001
,  // measure 35
1000
0001
0100
0010
,  // measure 36
1000
0001
0000
0010
,  // measure 37
0100
1000
0010
1000
,  // measure 38
0100
0010
0001
0100
,  // measure 39
0100
0010
0010
1000
,  // measure 40
0001
1000
0000
0001
,  // measure 41
0000
1000
0100
0010
,  // measure 42
0010
0010
0000
0001
,  // measure 43
0000
1000
0000
0001
,  // measure 44
0100
0010
0010
0010
,  // measure 45
0000
1000
0001
0010
,  // measure 46
0010
0010
0000
0110
,  // measure 47
0000
1001
0000
1001
0000
0220
0000
0000
,  // measure 48
0000
0000
0330
1000
,  // measure 49
0001
1000
0100
0000
,  // measure 50
0010
0100
1000
0000
,  // measure 51
0001
0100
0001
0001
,  // measure 52
0010
0100
0020
0031
,  // measure 53
0100
0001
1000
0000
,  // measure 54
0100
0010
0100
0000
,  // measure 55
1000
0001
0100
0110
,  // measure 56
1001
0110
0000
0001
,  // measure 57
0010
0100
1000
0001
,  // measure 58
0010
0100
1000
0010
,  // measure 59
0100
0001
1000
0010
,  // measure 60
0100
0002
0003
1000
,  // measure 61
0100
0001
0100
1000
,  // measure 62
0100
0001
0100
1000
,  // measure 63
1001
0110
1001
0110
;
