#TITLE:Candy Drop;
#SUBTITLE:;
#ARTIST:SAYA;
#TITLETRANSLIT:;
#SUBTITLETRANSLIT:;
#ARTISTTRANSLIT:;
#CREDIT:;
#BANNER:Candy Drop.png;
#BACKGROUND:Candy Drop-bg.png;
#LYRICSPATH:;
#CDTITLE:;
#MUSIC:Candy Drop.ogg;
#OFFSET:-0.500;
#SAMPLESTART:1.900;
#SAMPLELENGTH:11.660;
#SELECTABLE:YES;
#BPMS:0.000=167.000,164.000=83.500,172.000=167.000,256.000=83.500,264.000=167.000;
#STOPS:;
#BGCHANGES:;

//---------------dance-single - ----------------
#NOTES:
     dance-single:
     :
     Hard:
     9:
     0.687,0.757,0.794,0.152,0.223: // measure 1
0000
0000
0000
0000
,  // measure 2
0000
0000
0000
0000
,  // measure 3
0000
0000
0000
0000
,  // measure 4
0000
0000
0000
0000
,  // measure 5
0000
0000
0000
0000
,  // measure 6
1100
0000
0000
0000
0000
0101
0000
0000
,  // measure 7
1001
0000
0000
0000
0000
1001
1001
0000
,  // measure 8
1010
1100
0011
0101
,  // measure 9
0000
0110
0000
1001
,  // measure 10
1100
0000
1100
0000
1100
1000
0100
0010
,  // measure 11
0000
0010
0001
0100
1000
0100
0001
0100
,  // measure 12
0101
0000
0101
0000
0101
0001
0100
0010
,  // measure 13
0000
0010
1000
0100
0001
0100
0010
0001
,  // measure 14
1001
0000
1001
0000
1001
1000
0100
0010
,  // measure 15
0000
0010
0001
0100
1000
0100
0010
0000
,  // measure 16
1010
0000
0011
0000
1001
0110
0000
1001
,  // measure 17
0000
0000
1000
0001
1000
0000
2200
0000
0000
0000
0300
0000
3001
1000
0001
1000
,  // measure 18
0100
0000
1100
1000
0001
1000
0000
1010
,  // measure 19
0000
0010
1000
0000
1100
0000
1001
0000
,  // measure 20
0101
0000
0100
0010
0000
0010
1000
0100
,  // measure 21
0001
0100
0010
0001
1000
0010
0100
0001
,  // measure 22
0101
1000
1100
0000
1100
1000
0001
1001
,  // measure 23
0000
0001
1000
0000
1100
0000
1001
0000
,  // measure 24
1010
0000
0000
0010
0100
0000
0001
0000
0000
0000
0010
0000
0100
0000
1000
0000
,  // measure 25
1100
0000
1000
0000
1001
0000
0001
0000
0100
0000
0010
0000
1000
0001
1000
0001
,  // measure 26
0100
0000
0101
0001
1000
0001
0100
0010
,  // measure 27
0000
0010
1000
0000
1000
0100
0010
0000
,  // measure 28
0012
0000
0000
0000
0103
0000
0000
0000
0101
0000
0000
0110
0000
0000
1010
0000
,  // measure 29
1010
0000
0010
0100
0001
0010
0001
0100
,  // measure 30
0101
0001
1001
1000
0100
0001
0100
1000
,  // measure 31
1010
0000
0000
0000
0000
0000
0000
0000
1010
0000
0000
1001
0000
0000
0101
0000
,  // measure 32
0002
0100
0103
2000
0100
3100
0001
1000
,  // measure 33
0002
0010
0013
2000
0010
3010
0001
1000
,  // measure 34
1001
0000
1000
0010
0100
0001
1000
0000
,  // measure 35
1001
0000
1000
0000
1100
0000
0000
0000
1100
0000
0100
0000
1000
0000
0001
1000
,  // measure 36
0010
0000
0110
0000
0100
0010
1000
0100
,  // measure 37
0010
0000
0011
0001
1000
0100
0100
0010
,  // measure 38
0001
0000
0001
1000
2010
0000
3001
0000
,  // measure 39
0001
0001
0010
0010
0100
0100
1000
1000
,  // measure 40
1001
0000
0010
1000
1001
0000
0010
0001
,  // measure 41
1001
0000
0000
0000
1000
0000
0010
0000
0100
0000
0001
0000
1000
0001
1000
0001
,  // measure 42
0020
0000
0230
0000
,  // measure 43
2300
0000
3000
0000
2000
0000
3000
0000
0001
0000
0001
0000
1000
0001
1000
0001
,  // measure 44
0101
0000
0000
0000
0000
1100
0000
0000
,  // measure 45
1001
0000
0000
0000
0000
1001
1001
0000
,  // measure 46
1010
1100
0011
0101
,  // measure 47
0000
0000
0110
0000
0010
1000
0100
0010
,  // measure 48
0001
0100
0001
0010
0001
0100
0010
1000
,  // measure 49
0100
0010
0100
1000
0100
0010
0001
0100
,  // measure 50
0010
1000
0100
0010
0001
0100
0010
1000
,  // measure 51
0100
0001
0100
1000
0001
1000
0010
0100
,  // measure 52
0101
0000
1100
0000
1000
0001
0000
0010
,  // measure 53
0000
0100
1000
0100
0001
0100
0010
0001
,  // measure 54
1001
1001
0000
1000
1001
0000
0001
1001
,  // measure 55
1000
0100
0001
0100
1000
0100
0001
0100
,  // measure 56
1000
0100
1000
0000
0100
1000
0100
0000
1000
0100
1000
0100
0010
0000
0001
0000
,  // measure 57
1000
0000
0001
0000
0010
0000
0100
1000
0000
1000
0001
0000
1000
0000
0001
1000
,  // measure 58
0001
0000
1000
0001
1000
0000
0001
1000
0001
0100
0001
0100
0001
0000
0100
0001
,  // measure 59
1000
0000
0100
0000
1000
0001
1000
0010
1000
0000
0010
0000
0100
0000
0000
0000
,  // measure 60
0001
0100
0001
0000
0100
0001
0100
0000
0001
0100
0001
0100
0010
0000
1000
0000
,  // measure 61
0001
0000
0010
0000
0100
0000
1000
0010
0000
0010
1000
0000
0001
0000
1000
0001
,  // measure 62
1000
0000
0001
1000
0001
0000
1000
0001
1000
0100
1000
0100
1000
0000
0100
1000
,  // measure 63
0001
0000
0010
0000
0100
0000
1000
0010
0000
0100
0010
0000
1000
0000
0001
0010
,  // measure 64
0000
0100
0010
0000
0001
0000
1000
0000
0002
0000
0000
0000
1003
0000
0001
0100
,  // measure 65
0002
0000
2003
0000
,  // measure 66
3020
0000
0030
0000
0020
0000
0030
0000
1000
0000
1000
0000
0001
1000
0001
1000
,  // measure 67
1100
0000
0000
0000
0000
0101
0000
0000
,  // measure 68
1001
0000
0000
0000
0000
1001
1001
0000
,  // measure 69
1010
0000
0000
0000
1100
0000
0000
0000
0011
0000
0000
0000
0001
0100
0000
0100
,  // measure 70
0010
1000
0001
1001
0001
0100
0101
0000
,  // measure 71
0000
0000
0000
0000
0001
0100
0010
1000
0000
0000
0000
0000
1001
0000
0000
0000
;

//---------------dance-single - ----------------
#NOTES:
     dance-single:
     :
     Medium:
     7:
     0.567,0.568,0.428,0.134,0.107: // measure 1
0000
0000
0000
0000
,  // measure 2
0000
0000
0000
0000
,  // measure 3
0000
0000
0000
0000
,  // measure 4
0000
0000
0000
0000
,  // measure 5
0000
0000
0000
0000
,  // measure 6
1100
0000
0000
0000
0000
1100
0000
0000
,  // measure 7
1001
0000
0000
0000
0000
1000
0001
0000
,  // measure 8
0011
0000
1001
0000
1000
0001
1000
0010
,  // measure 9
0000
0010
0100
0000
0100
0001
1000
0000
,  // measure 10
1001
0000
1001
0000
1000
0100
1000
0010
,  // measure 11
0000
0010
0001
0010
1000
0001
0100
0001
,  // measure 12
1001
0000
1001
0000
0001
0100
0001
0010
,  // measure 13
0000
0010
1000
0010
0001
1000
0100
1000
,  // measure 14
1001
0000
1001
0000
1000
0100
0010
1000
,  // measure 15
0000
1000
0001
1000
0010
0001
0100
0001
,  // measure 16
1001
0000
0110
0000
1000
0001
0000
1001
,  // measure 17
0000
0000
0001
1000
0001
0000
2002
0000
0000
0000
0000
3000
1003
0001
1000
0001
,  // measure 18
1000
0000
0001
0001
0100
0010
0000
1010
,  // measure 19
0000
0010
1000
0000
0100
0001
1000
0000
,  // measure 20
0002
0000
0103
1000
0000
0001
0100
1000
,  // measure 21
0000
1000
0100
0000
0010
1000
0100
0010
,  // measure 22
0001
0001
1001
0000
1000
1000
1001
0000
,  // measure 23
1000
0010
0001
0000
0010
1000
0100
0000
,  // measure 24
0001
0000
0000
0100
0010
0000
0001
0000
0000
0000
0100
0000
1000
0000
0100
0000
,  // measure 25
0010
1000
0010
0001
0010
0100
0001
0010
,  // measure 26
0100
0000
1000
1000
0100
0010
0000
0001
,  // measure 27
0000
0001
1000
0000
1100
0000
0101
0000
,  // measure 28
1001
0000
0000
0000
0000
0000
0000
0000
1001
0000
0000
0001
0000
0000
0010
0000
,  // measure 29
0010
0000
0001
1000
0000
0000
1000
0001
,  // measure 30
0010
1000
0010
0001
0100
1000
0100
0010
,  // measure 31
1000
0000
0000
0000
0000
0000
0000
0000
1010
0000
0000
1000
0000
0000
0001
0000
,  // measure 32
1000
0100
0100
0010
0001
0001
0100
0010
,  // measure 33
1000
0001
0001
0010
0100
0100
1000
0001
,  // measure 34
1000
0000
0100
0000
0001
0100
1000
0000
,  // measure 35
0001
0000
0100
0000
1000
0100
0001
0000
,  // measure 36
0010
0000
0100
0000
1000
0010
0001
0000
,  // measure 37
0010
0000
0100
0000
0001
0010
1000
0010
,  // measure 38
0001
0000
1000
0001
0100
0000
0110
0000
,  // measure 39
0100
0100
0001
0001
1000
1000
0010
0010
,  // measure 40
1000
0000
1000
0100
0001
0000
1000
0010
,  // measure 41
0001
1000
0001
0010
0001
0100
0010
1000
,  // measure 42
2001
0000
3200
0000
,  // measure 43
0320
0000
0030
0000
0020
0000
0030
0000
0001
0000
1000
0000
0001
1000
0001
0000
,  // measure 44
0101
0000
0000
0000
0000
0101
0000
0000
,  // measure 45
1001
0000
0000
0000
0000
0001
1000
0000
,  // measure 46
1001
0000
1001
0000
1000
0100
1000
0010
,  // measure 47
0000
0010
0100
0000
0100
0001
1000
0100
,  // measure 48
0010
0000
0011
0000
0001
0100
0010
1000
,  // measure 49
0001
0000
1001
0000
0001
0100
1000
0100
,  // measure 50
0010
0000
1000
0010
0000
1010
0000
0001
,  // measure 51
0000
0011
0000
1001
0000
1000
0010
0100
,  // measure 52
0101
0000
1100
0000
1000
0001
0000
0010
,  // measure 53
0000
0001
0100
1000
0100
0010
1000
0001
,  // measure 54
0010
0010
0000
0100
0010
0000
0001
0010
,  // measure 55
0110
1100
1001
1000
,  // measure 56
0100
1000
0100
0000
1000
0100
1000
0000
0001
0000
0000
0000
0100
0000
0000
0000
,  // measure 57
0001
0000
0100
0000
0010
0000
1000
0010
0000
0010
1000
0000
0001
0000
1000
0000
,  // measure 58
0001
0100
0001
0100
1000
0100
1000
0100
,  // measure 59
0001
0010
0100
1000
1001
0000
1001
0000
,  // measure 60
0001
0010
0001
0000
0010
0001
0010
0000
0001
0000
0000
0000
1000
0000
0000
0000
,  // measure 61
0010
0000
1000
0000
0010
0000
0100
0001
0000
0001
0100
0000
0010
0000
1000
0000
,  // measure 62
0001
0010
0001
0010
1000
0010
1000
0010
,  // measure 63
0001
0000
0100
0000
0200
0000
0000
0010
0000
0010
0000
0000
0320
0000
0000
1000
,  // measure 64
0000
1000
0000
0000
2030
0000
0000
0000
3001
0000
0000
0000
1000
0000
0001
0100
,  // measure 65
0020
0000
2030
0000
,  // measure 66
3002
0000
0003
0000
0002
0000
0003
0000
1000
0000
0001
0000
1000
0001
1000
0000
,  // measure 67
1100
0000
0000
0000
0000
1100
0000
0000
,  // measure 68
1001
0000
0000
0000
0000
1000
0001
0000
,  // measure 69
1001
0000
0000
0000
1010
0000
0000
0000
1000
0000
0100
0000
1000
0100
0000
1000
,  // measure 70
0001
0000
0100
0010
0000
1000
0002
0000
,  // measure 71
0000
0000
0003
0000
0010
0000
0001
1000
0000
0000
0000
0000
1001
0000
0000
0000
;

//---------------dance-single - ----------------
#NOTES:
     dance-single:
     :
     Beginner:
     1:
     0.000,0.000,0.000,0.000,0.000: // measure 1
0000
0000
0000
0000
;

//---------------dance-double - ----------------
#NOTES:
     dance-double:
     :
     Easy:
     1:
     0.000,0.000,0.000,0.000,0.000:
00000000
00000000
00000000
00000000
;

//---------------dance-double - ----------------
#NOTES:
     dance-double:
     :
     Medium:
     1:
     0.000,0.000,0.000,0.000,0.000:
00000000
00000000
00000000
00000000
;

//---------------dance-double - ----------------
#NOTES:
     dance-double:
     :
     Hard:
     1:
     0.000,0.000,0.000,0.000,0.000:
00000000
00000000
00000000
00000000
;

//---------------dance-single - ----------------
#NOTES:
     dance-single:
     :
     Easy:
     6:
     0.523,0.537,0.455,0.143,0.147: // measure 1
0000
0000
0000
0000
,  // measure 2
0000
0000
0000
0000
,  // measure 3
0000
0000
0000
0000
,  // measure 4
0000
0000
0000
0000
,  // measure 5
0000
0000
0000
0000
,  // measure 6
1100
0000
0000
0000
0000
1100
0000
0000
,  // measure 7
1001
0000
0000
0000
0000
1000
0001
0000
,  // measure 8
0011
1001
1010
1001
,  // measure 9
0000
0110
0000
1001
,  // measure 10
1100
0000
1100
0000
1000
0100
0010
0001
,  // measure 11
0000
0000
0000
0001
0000
0000
0010
0000
0000
0001
0000
0000
1000
0000
0001
0000
0010
0000
0001
0000
1000
0000
0010
0000
,  // measure 12
1000
0000
1001
0000
1000
0100
0010
0001
,  // measure 13
0000
0000
0000
0001
0000
0000
1000
0000
0000
0001
0000
0000
1000
0000
0001
0000
0010
0000
0001
0000
1000
0000
0010
0000
,  // measure 14
1000
0000
1010
0000
1000
0010
0100
0001
,  // measure 15
0000
0000
0000
0001
0000
0000
1000
0000
0000
0001
0000
0000
0100
0000
0001
0000
1000
0000
0100
0000
1000
0000
0001
0000
,  // measure 16
1000
0000
1010
0000
1000
0001
0000
1001
,  // measure 17
0000
0000
0000
0110
0000
0000
0001
0000
,  // measure 18
0101
0000
0001
0100
0010
1000
0001
0000
,  // measure 19
1001
0000
1000
0010
0100
0001
1000
0000
,  // measure 20
1001
0000
1000
0100
0000
1100
0000
0001
,  // measure 21
0100
0101
1000
1100
,  // measure 22
1000
0100
0001
0000
1000
0010
0001
0000
,  // measure 23
0001
0100
1000
0000
0001
0010
1000
0000
,  // measure 24
1000
0000
0000
1000
0001
0000
0000
0000
0001
0000
0000
0000
0101
0000
0000
0000
,  // measure 25
0001
0100
1000
0100
0001
0000
1000
0000
,  // measure 26
1001
0000
1000
0010
0000
0100
0001
0000
,  // measure 27
0110
0000
0001
0010
0100
1000
0001
0000
,  // measure 28
1002
0000
0000
0000
0013
0000
0000
0000
0001
0000
0000
0100
0000
0000
0010
0000
,  // measure 29
1000
0000
1000
0001
0100
0000
0100
0001
,  // measure 30
1000
0100
0001
0000
0001
0100
1000
0000
,  // measure 31
0001
0000
0000
0000
0000
0000
0000
0000
0001
0000
0000
1000
0000
0000
0100
0000
,  // measure 32
1000
0100
0100
0001
0100
0100
1000
0100
,  // measure 33
1000
0100
0100
0001
0100
0100
1000
0100
,  // measure 34
0020
0001
1000
0031
,  // measure 35
0200
1000
0001
1300
,  // measure 36
0200
0010
1000
0310
,  // measure 37
2000
0100
0010
0100
,  // measure 38
3020
0001
0100
1000
,  // measure 39
1030
1000
0010
0010
0100
0100
0001
1000
,  // measure 40
0100
0000
0010
0001
0100
0000
0010
1000
,  // measure 41
0100
0000
0010
0001
0100
1000
0100
0001
,  // measure 42
2000
0000
3200
0000
,  // measure 43
0320
0030
0020
0030
0001
1000
0001
1000
,  // measure 44
0101
0000
0000
0000
0000
0101
0000
0000
,  // measure 45
1001
0000
0000
0000
0000
1000
0001
0000
,  // measure 46
0110
0110
1001
1001
,  // measure 47
0001
0000
0010
0000
0100
1000
0100
0010
,  // measure 48
0001
0000
0011
0000
0001
1000
0001
0100
,  // measure 49
0010
0000
0010
1000
0000
1000
0001
0000
,  // measure 50
0010
0000
0001
0010
0000
0100
1000
0000
,  // measure 51
0001
0000
1000
0000
0010
0000
1000
0001
,  // measure 52
0010
0000
0011
0000
1000
0100
0000
1000
,  // measure 53
0000
0100
0001
0100
1000
0001
1000
0001
,  // measure 54
0010
1000
0000
0010
0001
0000
1000
0001
,  // measure 55
0101
0101
1100
1100
,  // measure 56
1000
0100
0000
0000
0100
0010
0000
0000
0010
0001
0000
0000
0001
1000
0000
0000
,  // measure 57
1000
0000
0000
0000
0010
0000
0000
0000
0100
0000
0000
0000
0001
0000
0000
0001
,  // measure 58
0010
0000
0000
0010
0100
0000
0000
0100
1000
0000
0000
1000
0001
0000
0000
0001
,  // measure 59
0100
0000
1000
0000
0100
0010
1000
0000
,  // measure 60
1000
0100
0000
0000
0100
0010
0000
0000
0010
0001
0000
0000
0001
1000
0000
0000
,  // measure 61
1000
0000
0000
0000
0010
0000
0000
0000
0100
0000
0000
0000
0001
0000
0000
0001
,  // measure 62
0010
0000
0000
0010
0100
0000
0000
0100
1000
0000
0000
1000
0001
0000
0000
0000
,  // measure 63
2001
3100
1002
0013
,  // measure 64
1001
0000
1000
0100
0010
0000
0001
0000
,  // measure 65
2000
0000
3200
0000
,  // measure 66
0320
0030
0020
0030
0001
1000
0001
0000
,  // measure 67
1001
0000
0000
1001
0000
0000
1010
0000
,  // measure 68
0000
0000
0000
0000
0000
1000
0010
0000
,  // measure 69
0110
0110
1001
0110
,  // measure 70
1001
0000
1000
0100
0000
0010
0001
0000
,  // measure 71
0100
0000
0000
0000
0010
0000
1000
0001
0000
0000
0000
0000
1001
0000
0000
0000
;
