#TITLE:BANG!;
#SUBTITLE:;
#ARTIST:Shoichiro Hirata feat.Sana;
#TITLETRANSLIT:;
#SUBTITLETRANSLIT:;
#ARTISTTRANSLIT:;
#GENRE:J-Club;
#CREDIT:;
#BANNER:[Round H] - BANG!.png;
#BACKGROUND:[Round H] - BANG!-bg.png;
#LYRICSPATH:;
#CDTITLE:cdtitle.png;
#MUSIC:[Round H] - BANG!.ogg;
#OFFSET:0.000000;
#SAMPLESTART:59.530998;
#SAMPLELENGTH:14.999996;
#SELECTABLE:YES;
#BPMS:0.000000=128.000000
;
#STOPS:
;
#BGCHANGES:;
#KEYSOUNDS:;
#ATTACKS:;

//---------------dance-single - ----------------
#NOTES:
     dance-single:
     :
     Hard:
     6:
     0.367851,0.431684,0.204927,0.632601,0.044549,289.000000,266.000000,23.000000,71.000000,0.000000,0.000000,0.367851,0.431684,0.204927,0.632601,0.044549,289.000000,266.000000,23.000000,71.000000,0.000000,0.000000:
0000
0000
0000
0000
,
0000
0000
0000
0000
,
0000
0000
0000
0000
,
0000
0000
0000
0000
,
1010
0000
0000
0000
0000
0000
1010
0000
0000
0000
0000
0000
0001
0000
0000
0000
0000
0100
0000
0000
0000
0001
0000
0000
,
0000
0000
0000
0100
0000
0000
0001
0000
0000
1000
0000
0000
0000
0000
1000
0000
0000
0000
0100
0000
0000
0010
0000
0000
,
0011
0000
0000
0000
0000
0000
0011
0000
0000
0000
0000
0000
1000
0000
0000
0000
0000
0100
0000
0000
0000
1000
0000
0000
,
0000
0000
0001
0000
0000
0000
0100
0000
0000
0010
0000
0000
2000
0000
0000
0000
0000
0000
0000
0000
0000
0000
0000
0000
,
3002
0000
0013
0100
0010
0100
1000
0002
,
0000
0203
0000
0320
0000
0130
0010
2000
,
3000
0000
1000
0010
0100
0001
1000
0100
,
0000
0020
0000
0032
0000
1003
0001
0100
,
0000
0000
0010
0100
0010
0100
0001
2000
,
0000
3200
0000
0320
0000
0130
0010
0001
,
2000
0000
0000
3020
0000
0000
1000
0000
,
0000
0001
0000
1030
,
1001
0000
0001
0010
0001
0010
0100
2000
,
0000
3002
0000
0203
0000
0310
0100
0001
,
1000
0000
0100
0010
0100
0010
0001
0200
,
0000
2300
0000
3200
0000
0310
0100
0100
,
0001
0000
1000
0010
1000
0010
0100
0002
,
0000
2003
0000
3200
0000
0310
0100
1000
,
0001
0000
1000
0010
0100
0001
0010
0200
,
0000
0020
0000
0000
,
0330
0002
0203
2300
,
3000
2000
3200
0302
,
0003
0000
1000
0100
1000
0100
0020
0000
,
0030
0001
0100
0001
0100
0010
2000
0000
,
3001
2000
3200
0302
,
0103
0002
0203
2300
,
3001
0000
0200
0000
0310
0100
0002
0000
,
1003
0100
0010
0001
2000
0000
3001
0100
,
0101
0000
1001
0000
1100
0000
0001
0100
,
0020
0000
0000
2030
0000
0000
3100
0010
,
0001
0000
0000
0001
0000
0000
0001
0000
0100
0000
0010
0000
1000
0000
0001
0000
,
0100
0000
0110
0000
1001
0000
1000
0100
,
1100
0000
1001
0000
0101
0000
1000
0100
,
0020
0000
0000
0032
0000
0000
0103
0010
,
1000
0000
0000
1000
0000
0000
1000
0000
0100
0000
0010
0000
0002
0000
0000
0000
,
0013
0001
0100
0010
2000
0000
3001
0010
,
0011
0000
0110
0000
1100
0000
0001
0100
,
2000
0000
0000
3200
0000
0000
0310
0100
,
0001
0000
0000
0001
0000
0000
0010
0000
0100
0000
1000
0000
0001
0000
0100
0000
,
0010
1000
0100
0010
0002
0000
1003
0010
,
1010
0000
0110
0000
0101
0000
1000
0100
,
0002
0000
0000
0203
0000
0000
0310
0100
,
1000
0000
0000
1000
0000
0000
1000
0000
0010
0000
0100
0000
0002
0000
0000
0000
,
1003
0100
0010
0001
0100
0010
2000
0000
,
3001
2000
3200
0302
,
0103
0000
0002
0000
0203
0000
1300
0100
,
0010
0000
0000
0001
0000
0000
1000
0000
0010
0000
0100
0000
0001
0000
0000
0000
,
0101
1010
1100
0011
,
1000
0002
0203
2300
,
3000
2000
3200
0302
,
1003
0000
0000
0100
0000
0000
0010
0000
0001
0000
1000
0000
0010
0000
0200
0300
,
0002
0023
0230
2300
,
3002
0000
0000
0000
,
0003
0000
0000
0000
;

//---------------dance-single - ----------------
#NOTES:
     dance-single:
     :
     Challenge:
     7:
     0.425128,0.431684,0.356395,0.552412,0.053459,334.000000,294.000000,40.000000,62.000000,21.000000,0.000000,0.425128,0.431684,0.356395,0.552412,0.053459,334.000000,294.000000,40.000000,62.000000,21.000000,0.000000:
// measure 0
0000
0000
0000
0000
,  // measure 1
0000
0000
0000
0000
,  // measure 2
0000
0000
0000
0000
,  // measure 3
0000
0000
0000
0000
,  // measure 4
1000
0000
0000
0000
0000
0000
0010
0000
0000
0000
0000
0000
0001
0000
0000
0000
0000
0010
0000
0000
0000
1000
0000
0000
,  // measure 5
0000
0000
0000
0100
0000
0000
0010
0000
0000
0100
0000
0000
0000
0000
1000
0000
0000
0000
0010
0000
0000
0100
0000
0000
,  // measure 6
0001
0000
0000
0000
0000
0000
0010
0000
0000
0000
0000
0000
1000
0000
0000
0000
0000
0010
0000
0000
0000
0001
0000
0000
,  // measure 7
0000
0000
0001
0000
0000
0000
0100
0000
0000
0010
0000
0000
2000
0000
0000
0000
0000
0000
0000
0000
0000
0000
0000
0000
,  // measure 8
3200
0000
0310
0001
0010
0001
0100
0020
,  // measure 9
0000
0230
0000
2300
0000
3100
0010
0100
,  // measure 10
0001
0000
0010
0100
1000
0010
0100
0002
,  // measure 11
0000
2003
0000
3200
0000
0310
0001
0001
,  // measure 12
0100
0000
0010
1000
0010
1000
0100
0020
,  // measure 13
0000
0230
0000
0302
0000
0103
0010
0100
,  // measure 14
2000
0000
0000
0000
0000
0000
3010
0000
0000
0200
0000
0000
0001
0000
0000
0000
0000
0001
0000
0000
0000
0010
0000
0000
,  // measure 15
0000
0000
0010
0000
0000
0000
1300
0000
0000
0100
0000
0000
0001
0000
0000
0000
0000
0000
0100
0000
0000
0100
0000
0000
,  // measure 16
1001
0000
1000
0100
0010
0100
1000
0002
,  // measure 17
0000
0203
0000
2300
0000
3100
0010
1000
,  // measure 18
0001
0000
0100
0010
1000
0100
0010
2000
,  // measure 19
0000
3002
0000
0203
0000
0310
0001
0001
,  // measure 20
1000
0000
0001
0100
0010
0100
0001
2000
,  // measure 21
0000
3200
0000
0302
0000
0103
0010
0001
,  // measure 22
1000
0000
0001
0100
1000
0001
0010
2000
,  // measure 23
0000
0100
3200
0000
0310
0001
0100
0010
,  // measure 24
1000
1010
0101
1010
,  // measure 25
MMMM
0011
1100
0011
,  // measure 26
MMMM
0000
1000
0100
1000
0100
0002
0000
,  // measure 27
0003
0001
0100
0001
0100
1000
0002
0000
,  // measure 28
0103
1010
0110
0101
,  // measure 29
1MMM
0011
0110
1100
,  // measure 30
MMM1
0000
1001
0000
0001
0100
2000
0000
,  // measure 31
3100
1000
0100
0001
0020
0000
0130
0010
,  // measure 32
0011
0000
1001
0000
1010
0000
0010
1000
,  // measure 33
0200
0000
0301
0200
1000
0000
0310
0001
,  // measure 34
0200
0000
0000
2300
0000
0000
3100
0000
0010
0000
1000
0000
0001
0000
0010
0000
,  // measure 35
0100
0000
0110
0000
1001
0000
1000
0010
,  // measure 36
1010
0000
1001
0000
0011
0000
0010
0001
,  // measure 37
0200
0000
1300
0200
0001
0000
0310
1000
,  // measure 38
0200
0000
0000
0302
0000
0000
0103
0000
0010
0000
0001
0000
0200
0000
0000
0000
,  // measure 39
1300
0100
0010
1000
0200
0000
0310
0001
,  // measure 40
1001
0000
0101
0000
0110
0000
0100
0001
,  // measure 41
0020
0000
1030
0020
0001
0000
0130
1000
,  // measure 42
0020
0000
0000
0230
0000
0000
0310
0000
1000
0000
0010
0000
0001
0000
0010
0000
,  // measure 43
1000
0100
0001
0100
2000
0000
3010
1000
,  // measure 44
1001
0000
1100
0000
0110
0000
0100
1000
,  // measure 45
0020
0000
0031
0020
1000
0000
0130
0001
,  // measure 46
0020
0000
0000
2030
0000
0000
3010
0000
0001
0000
0100
0000
0020
0000
0000
0000
,  // measure 47
1030
0100
0001
0010
1000
0100
0020
0000
,  // measure 48
0031
0101
0110
1010
,  // measure 49
MMM1
0000
1100
0000
0110
0000
0011
0001
,  // measure 50
2000
0000
0000
3020
0000
0000
0130
0000
1000
0000
0100
0000
0002
0000
0010
0000
,  // measure 51
0023
0100
0230
1000
2300
0001
3002
0100
,  // measure 52
0103
1010
0110
0101
,  // measure 53
MMMM
0011
0110
1100
,  // measure 54
0001
0000
0000
0010
0000
0000
0100
0000
1000
0000
0001
0000
0100
0000
0020
0030
,  // measure 55
2000
3200
0302
0023
,  // measure 56
2030
0000
0000
0000
,  // measure 57
3000
0000
0000
0000
;

//---------------dance-single - ----------------
#NOTES:
     dance-single:
     :
     Medium:
     4:
     0.273660,0.355504,0.106919,0.588052,0.000000,215.000000,203.000000,12.000000,66.000000,0.000000,0.000000,0.273660,0.355504,0.106919,0.588052,0.000000,215.000000,203.000000,12.000000,66.000000,0.000000,0.000000:
0000
0000
0000
0000
,
0000
0000
0000
0000
,
0000
0000
0000
0000
,
0000
0000
0000
0000
,
0001
0001
0010
0100
,
1000
0000
0001
0001
,
1000
1000
0010
0100
,
0002
0000
0000
0000
,
1003
0000
0100
0000
0100
0000
0010
0200
,
0000
2300
0000
3002
0000
0000
0200
0000
,
0303
0000
0001
0000
0100
0000
0010
2000
,
0000
3200
0000
0320
0000
0000
0002
0000
,
0033
0000
0001
0000
0100
0000
0010
0200
,
0000
0302
0000
2003
0000
0000
3002
0000
,
0023
0000
0000
0200
0000
0000
0000
0000
,
0000
0000
0330
0000
,
1000
0000
0001
0000
0100
0000
0010
2000
,
0000
3002
0000
2003
0000
3100
0010
0000
,
0001
0000
1000
0000
0010
0000
0100
0002
,
0000
0023
0000
0032
0000
1003
0010
0000
,
0100
0000
0010
0000
1000
0000
0001
0020
,
0000
0230
0000
0320
0000
0031
1000
0000
,
0001
0000
0100
0000
1000
0000
0100
0002
,
0000
2000
0000
0000
,
3003
2000
3020
2030
,
3000
0002
0023
0032
,
0003
1000
0001
0200
,
0300
1000
0100
0002
,
1003
0002
0023
0032
,
1003
2000
3020
2030
,
3001
0001
0100
0020
,
1030
1000
0100
0010
,
0011
0000
1100
0000
0011
0000
1000
0010
,
2000
0000
0000
3002
0000
0000
1003
0010
,
1000
0001
0010
1000
,
0010
0001
0100
0010
,
1010
0000
0101
0000
1010
0000
0001
0010
,
0002
0000
0000
2003
0000
0000
3001
0010
,
0001
0000
1000
0000
0001
0100
0002
0000
,
1003
0000
1000
0100
2000
0000
3001
0000
,
0101
0000
1010
0000
0101
0000
1000
0100
,
2000
0000
0000
3020
0000
0000
1030
0001
,
1000
0010
1000
0100
,
0001
0010
2000
3100
,
1100
0000
0011
0000
1100
0000
0001
0100
,
0002
0000
0000
0023
0000
0000
0031
1000
,
0001
0000
1000
0000
0010
0100
0020
0000
,
0030
0000
0010
0000
1000
0001
2000
0000
,
3100
0020
0032
0203
,
0310
0000
0020
0000
2030
0000
3100
0010
,
0100
0000
1000
0000
0010
0100
0010
0000
,
1000
1000
0001
0001
,
1000
0002
0023
0032
,
0003
2000
3020
2030
,
3001
0000
0001
0000
0010
0100
0010
0000
,
0001
0100
0010
1000
,
0002
0000
0000
0000
,
0003
0000
0000
0000
;

//---------------dance-single - ----------------
#NOTES:
     dance-single:
     :
     Easy:
     2:
     0.166742,0.203145,0.008910,0.356395,0.000000,131.000000,130.000000,1.000000,40.000000,0.000000,0.000000,0.166742,0.203145,0.008910,0.356395,0.000000,131.000000,130.000000,1.000000,40.000000,0.000000,0.000000:
0000
0000
0000
0000
,
0000
0000
0000
0000
,
0000
0000
0000
0000
,
0000
0000
0000
0000
,
0001
0000
0100
0000
,
0010
0000
0100
0010
,
1000
0000
0001
0000
,
1000
0100
0010
0000
,
0002
0000
0000
0000
,
0203
0000
0000
0000
,
0320
0000
0000
0000
,
2030
0000
0000
0000
,
3001
0000
1000
0000
,
0001
0000
1000
0000
,
0200
0000
0020
0000
,
0000
0000
0330
0000
,
0001
0010
0001
0000
,
0100
0000
0010
0000
,
1000
0010
1000
0000
,
0100
0000
0010
0000
,
0001
1000
0010
0000
,
0100
0000
0001
0000
,
1000
0100
0010
0000
,
0220
0000
0000
0330
,
0000
2000
3002
2003
,
3000
0002
2003
3002
,
0003
0010
0010
0200
,
0300
0010
0001
2000
,
3000
0002
2003
3002
,
0003
2000
3002
2003
,
3000
0010
0010
0200
,
0300
0001
1000
0000
,
0010
0010
0010
1000
,
0200
0300
0100
0000
,
1000
0000
0010
0000
,
0100
0000
0001
0000
,
0010
0010
0010
0001
,
0200
0300
0100
0000
,
0010
0000
0010
0000
,
1000
0001
1000
0000
,
0100
0100
0100
1000
,
0020
0030
0010
0000
,
1000
0000
0100
0000
,
0010
0000
0001
0000
,
0100
0100
0100
0001
,
0020
0030
0010
0000
,
0001
0000
1000
0000
,
0100
0010
0100
0010
,
0000
0002
2003
3002
,
0003
2000
3002
2003
,
3010
0000
0010
0000
,
0010
0010
0010
0010
,
0000
2000
3002
2003
,
3000
0002
2003
3002
,
0013
0000
0010
0000
,
0010
0010
0010
0010
,
0020
0000
0000
0000
,
0030
0000
0000
0000
;

//---------------dance-single - ----------------
#NOTES:
     dance-single:
     :
     Beginner:
     1:
     0.071279,0.098009,0.008910,0.062369,0.000000,56.000000,55.000000,1.000000,7.000000,0.000000,0.000000,0.071279,0.098009,0.008910,0.062369,0.000000,56.000000,55.000000,1.000000,7.000000,0.000000,0.000000:
0000
0000
0000
0000
,
0000
0000
0000
0000
,
0000
0000
0000
0000
,
0000
0000
0000
0000
,
1000
0000
0000
0000
,
0001
0000
0000
0000
,
1000
0000
0000
0000
,
0001
0000
0000
0000
,
0010
0000
0000
0000
,
0100
0000
0000
0000
,
1000
0000
0000
0000
,
0001
0000
0000
0000
,
1000
0000
0000
0000
,
0010
0000
0000
0000
,
0200
0000
0000
0000
,
0000
0000
0300
0000
,
0001
0000
0000
0000
,
0010
0000
0000
0000
,
0100
0000
0000
0000
,
1000
0000
0000
0000
,
0010
0000
0000
0000
,
0100
0000
0000
0000
,
0001
0000
0000
0000
,
2002
0000
3003
0000
,
0100
0000
0000
0000
,
0100
0000
0000
0000
,
1000
0000
0000
0000
,
0001
0000
0000
0000
,
0100
0000
0000
0000
,
0100
0000
0000
0000
,
0001
0000
0000
0000
,
1000
0000
0000
0000
,
0001
0000
0001
0000
,
0002
0000
0003
0000
,
0010
0000
0000
0000
,
0100
0000
0000
0000
,
1000
0000
1000
0000
,
2000
0000
3000
0000
,
0010
0000
0000
0000
,
0100
0000
0000
0000
,
0010
0000
0010
0000
,
0020
0000
0030
0000
,
1000
0000
0000
0000
,
0001
0000
0000
0000
,
0010
0000
0010
0000
,
0020
0000
0030
0000
,
0001
0000
0000
0000
,
1000
0000
0000
0000
,
0010
0000
0000
0000
,
0010
0000
0000
0000
,
1000
0000
0000
0000
,
0001
0000
0000
0000
,
0010
0000
0000
0000
,
0010
0000
0000
0000
,
0001
0000
0000
0000
,
1000
0000
0000
0000
;
