#TITLE:ノイズキャンセル;
#SUBTITLE:;
#ARTIST:八王子P feat. 初音ミク;
#TITLETRANSLIT:Noise Cancel;
#SUBTITLETRANSLIT:;
#ARTISTTRANSLIT:8#Prince feat. Hatsune Miku;
#GENRE:;
#CREDIT:;
#BANNER:[Round G] - Noise Cancel-bn.png;
#BACKGROUND:[Round G] - Noise Cancel-bg.png;
#LYRICSPATH:;
#CDTITLE:cdtitle.png;
#MUSIC:[Round G] - Noise Cancel.ogg;
#OFFSET:-0.984000;
#SAMPLESTART:57.446999;
#SAMPLELENGTH:15.000000;
#SELECTABLE:YES;
#BPMS:0.000000=85.000000
,16.000000=170.000000
;
#STOPS:40.500000=0.353000,
41.500000=0.353000
;
#BGCHANGES:;
#KEYSOUNDS:;
#ATTACKS:;

//---------------dance-single - ----------------
#NOTES:
     dance-single:
     :
     Hard:
     9:
     0.587840,0.693344,0.176087,0.240962,0.069508,444.000000,425.000000,19.000000,26.000000,28.000000,0.000000,0.587840,0.693344,0.176087,0.240962,0.069508,444.000000,425.000000,19.000000,26.000000,28.000000,0.000000:
0000
0000
0000
0000
,
0000
0000
0000
0000
,
0010
0010
0000
0000
0100
0100
0000
0000
0001
0001
0000
0000
1000
1000
0001
0001
,
0010
0010
0000
0000
0100
0100
0000
0000
1000
1000
0000
0000
0001
0001
1000
1000
,
0010
0000
0001
0000
0010
0000
1000
0000
0001
0000
0100
0000
0000
1000
0000
0000
,
0100
0001
0010
0100
0010
0100
1000
0001
,
0100
0000
0010
0000
0100
0000
0001
0000
0010
0000
1000
0000
0000
0010
0000
0000
,
0001
1000
0100
0010
0001
0010
0100
1000
,
0001
0000
0100
0000
1000
0000
0100
0000
0001
0000
0010
0000
0000
0100
0000
0000
,
1000
0001
0100
0010
0100
0001
0010
0100
,
1000
1000
0001
0001
0100
0100
0010
0010
,
1000
0000
1001
0000
1000
0100
1000
0001
,
0100
0010
0100
0001
0010
1000
0010
0001
,
0010
0100
1000
0010
0100
0001
0010
0001
,
0100
0010
0001
0010
0100
0001
0010
0100
,
1000
0100
0010
0001
1000
0010
1000
0100
,
0001
0100
1000
0010
0001
0010
0100
1000
,
0100
0100
0010
0010
2020
0000
3030
0000
,
0202
0303
0022
0000
,
0033
0000
MMMM
0000
0001
0002
0000
0003
,
1000
2000
0000
3000
0010
0020
0000
0030
,
0100
0000
0000
0000
0000
0000
0000
0000
0000
0000
0000
0000
0000
0000
0000
0000
0000
0000
0000
0000
0000
0000
0000
0000
0000
0000
0000
0000
0000
0000
0000
0000
0000
0000
0000
0000
0000
0000
0000
0000
0000
0000
0000
0000
0000
0000
0000
0000
0220
0330
0000
0000
0000
0000
0000
0000
0000
0000
0000
0000
0000
0000
0000
0000
0000
0000
0000
0000
0000
0000
0000
0000
0000
0000
0000
0000
0000
0000
0000
0000
0000
0000
0000
0000
0000
0000
0000
0000
0000
0000
0000
0000
0000
0000
0000
0000
000F
0000
0000
0000
0000
0000
0000
0000
0000
0000
0000
0000
0000
0000
0000
0000
0000
0000
0000
0000
0000
0000
0000
0000
0F00
0000
0000
0000
0000
0000
0000
0000
0000
0000
0000
0000
0000
0000
0000
0000
0000
0000
0000
0000
0000
0000
0000
0000
F000
0000
0000
0000
0000
0000
0000
0000
0000
0000
0000
0000
0000
0000
0000
0000
0000
0000
0000
0000
0000
0000
0000
0000
0F00
0000
0000
0000
0000
0000
0000
0000
0000
0000
0000
0000
0000
0000
0000
0000
0000
0000
0000
0000
0000
0000
0000
0000
,
000F
00F0
F000
000F
0F00
F000
00F0
0000
,
0000
0000
0MM0
0000
0010
1000
0100
0001
,
1000
0010
0100
1000
0001
1000
0010
0200
,
0000
0000
0301
1000
0001
0010
1000
0001
,
0100
1000
0100
0010
0001
0100
0010
2000
,
0000
3001
0010
0100
0020
0000
0031
2000
,
0000
3001
0100
0010
0000
0100
0100
0100
,
0100
0000
MMMM
0000
0001
0002
0000
0003
,
1000
2000
0000
3000
0100
0200
0000
0300
,
0010
0000
0000
0000
0000
0000
0000
0000
0000
0000
0000
0000
0000
0000
0000
0000
0000
0000
0000
0000
0000
0000
0000
0000
0000
0000
0000
0000
0000
0000
0000
0000
0000
0000
0000
0000
0000
0000
0000
0000
0000
0000
0000
0000
0000
0000
0000
0000
0220
0330
0000
0000
0000
0000
0000
0000
0000
0000
0000
0000
0000
0000
0000
0000
0000
0000
0000
0000
0000
0000
0000
0000
0000
0000
0000
0000
0000
0000
0000
0000
0000
0000
0000
0000
0000
0000
0000
0000
0000
0000
0000
0000
0000
0000
0000
0000
F000
0000
0000
0000
0000
0000
0000
0000
0000
0000
0000
0000
0000
0000
0000
0000
0000
0000
0000
0000
0000
0000
0000
0000
000F
0000
0000
0000
0000
0000
0000
0000
0000
0000
0000
0000
0000
0000
0000
0000
0000
0000
0000
0000
0000
0000
0000
0000
0F00
0000
0000
0000
0000
0000
0000
0000
0000
0000
0000
0000
0000
0000
0000
0000
0000
0000
0000
0000
0000
0000
0000
0000
F000
0000
0000
0000
0000
0000
0000
0000
0000
0000
0000
0000
0000
0000
0000
0000
0000
0000
0000
0000
0000
0000
0000
0000
,
0F00
00F0
F000
00F0
0F00
000F
F000
0000
,
0000
0000
0MM0
0000
0100
1000
0010
0001
,
1000
0100
0001
1000
0001
0100
0010
2000
,
0000
0000
3001
0100
0001
0010
1000
0010
,
0001
0100
0010
1000
0001
1000
0100
0001
,
0100
1000
0010
0100
0010
1000
0100
0010
,
0001
0100
0010
1000
0000
0001
0001
0001
,
0001
0000
MMMM
0000
1100
0000
1000
0001
,
1000
0010
0100
1000
0100
0001
0100
0020
,
0000
1030
0100
1000
0001
0010
0100
0010
,
0001
0000
0100
0000
1000
0000
0100
0000
0001
0000
0010
0000
0100
0000
1000
0002
,
0000
1003
0100
0010
0001
0100
0001
0010
,
1000
0010
0001
0200
0000
0310
0100
0010
,
1000
1000
0001
0001
0011
0000
0000
0000
,
1100
0000
1010
1010
,
1010
0000
MMMM
0000
0101
0000
0001
0100
,
0001
0010
0100
1000
0010
0001
0010
0100
,
0001
0100
0020
0030
1001
0000
1000
0100
,
1000
0000
0010
0000
0100
0000
1000
0000
0100
0000
0001
0000
0010
0000
0100
2000
,
0000
3100
0010
0001
1000
0010
1000
0010
,
0100
0001
0100
0001
0010
0001
0010
0001
,
0010
0010
0100
0100
1100
0000
0000
0000
,
0101
0000
0000
2002
0000
0000
0000
0000
,
3003
0000
MMMM
0000
0100
0001
0100
0000
,
0001
0010
0001
0000
1000
0100
0001
0100
,
0010
1000
0010
0001
0100
0010
0100
0000
,
0010
1000
0010
0000
1000
0100
0001
0001
,
1000
0010
0001
0010
0100
1000
0100
0000
,
1000
0001
1000
0000
0001
0010
1000
0010
,
0100
1000
0100
0010
0001
1000
0001
0000
,
1000
0010
1000
0000
0001
0100
1000
1000
,
0001
0010
1000
0010
0100
0001
1000
0001
,
0010
0100
0010
0100
1000
0010
0001
0010
,
1000
0001
1001
0000
0010
0100
1000
0100
,
0010
0001
0010
0001
0100
1000
0100
0001
,
0100
0010
1000
0010
0100
0001
0100
0001
,
0010
0001
0010
0001
1000
0100
1000
0100
,
1000
1000
0010
0010
1010
0000
0000
0000
,
0101
0000
2002
0000
,
3003
MMMM
0000
0000
;

//---------------dance-single - ----------------
#NOTES:
     dance-single:
     :
     Medium:
     7:
     0.525614,0.594295,0.463388,0.240962,0.000000,397.000000,347.000000,50.000000,26.000000,10.000000,0.000000,0.525614,0.594295,0.463388,0.240962,0.000000,397.000000,347.000000,50.000000,26.000000,10.000000,0.000000:
// measure 0
0000
0000
0000
0000
,  // measure 1
0000
0000
0000
0000
,  // measure 2
2000
0000
3200
0000
0320
0000
0031
0001
,  // measure 3
0200
0000
0320
0000
2030
0000
3001
0001
,  // measure 4
1000
0100
1000
0000
1100
0000
0011
0000
,  // measure 5
0001
0100
0020
0000
0130
0001
1000
0000
,  // measure 6
0100
0010
0100
0000
0110
0000
1001
0000
,  // measure 7
0001
0100
1000
0100
0001
0100
0010
1000
,  // measure 8
0001
0010
0001
0000
0011
0000
1100
0000
,  // measure 9
1000
0010
0200
0000
0310
1000
0001
0000
,  // measure 10
0010
0010
0100
0100
0010
0010
0001
0001
,  // measure 11
1000
1001
0101
0101
,  // measure 12
0010
0100
0001
0000
1000
0100
0001
0100
,  // measure 13
1000
0100
1000
0000
1010
0000
1010
0000
,  // measure 14
0010
1000
0001
1000
0001
0010
1000
0010
,  // measure 15
0001
0010
0100
1000
0010
1000
0010
1000
,  // measure 16
0010
0100
0010
0100
0001
0100
0001
0100
,  // measure 17
0001
0001
1000
1000
2200
0000
3300
0000
,  // measure 18
0022
0033
2002
0000
,  // measure 19
0000
3003
2000
3000
,  // measure 20
0020
0030
0200
0300
,  // measure 21
0001
0000
0000
0000
0000
0000
0000
0000
0000
0000
0000
0000
0000
0000
0000
0000
0000
0000
0000
0000
0000
0000
0000
0000
0000
0000
0000
0000
0000
0000
0000
0000
0000
0000
0000
0000
0000
0000
0000
0000
0000
0000
0000
0000
0000
0000
0000
0000
2002
3003
0000
0000
0000
0000
0000
0000
0000
0000
0000
0000
0000
0000
0000
0000
0000
0000
0000
0000
0000
0000
0000
0000
0000
0000
0000
0000
0000
0000
0000
0000
0000
0000
0000
0000
0000
0000
0000
0000
0000
0000
0000
0000
0000
0000
0000
0000
F000
0000
0000
0000
0000
0000
0000
0000
0000
0000
0000
0000
0000
0000
0000
0000
0000
0000
0000
0000
0000
0000
0000
0000
0F00
0000
0000
0000
0000
0000
0000
0000
0000
0000
0000
0000
0000
0000
0000
0000
0000
0000
0000
0000
0000
0000
0000
0000
F000
0000
0000
0000
0000
0000
0000
0000
0000
0000
0000
0000
0000
0000
0000
0000
0000
0000
0000
0000
0000
0000
0000
0000
0000
0000
0000
0000
0000
0000
0000
0000
0000
0000
0000
0000
0000
0000
0000
0000
0000
0000
0000
0000
0000
0000
0000
0000
,  // measure 22
0F00
0000
00F0
0000
000F
0F00
F000
0000
,  // measure 23
0000
0000
M00M
0000
0001
0100
0001
0000
,  // measure 24
1000
0100
1000
0000
0010
0000
0100
0000
,  // measure 25
0110
0000
0000
0000
0010
1000
0010
0000
,  // measure 26
0100
0001
0100
0000
0001
0010
0100
1000
,  // measure 27
0000
1000
0100
0010
0001
0000
1000
0001
,  // measure 28
0000
1000
0010
1000
0000
0010
0100
0010
,  // measure 29
0100
0110
0002
0003
,  // measure 30
0020
0030
0200
0300
,  // measure 31
1000
0000
0000
0000
0000
0000
0000
0000
0000
0000
0000
0000
0000
0000
0000
0000
0000
0000
0000
0000
0000
0000
0000
0000
0000
0000
0000
0000
0000
0000
0000
0000
0000
0000
0000
0000
0000
0000
0000
0000
0000
0000
0000
0000
0000
0000
0000
0000
2002
3003
0000
0000
0000
0000
0000
0000
0000
0000
0000
0000
0000
0000
0000
0000
0000
0000
0000
0000
0000
0000
0000
0000
0000
0000
0000
0000
0000
0000
0000
0000
0000
0000
0000
0000
0000
0000
0000
0000
0000
0000
0000
0000
0000
0000
0000
0000
00F0
0000
0000
0000
0000
0000
0000
0000
0000
0000
0000
0000
0000
0000
0000
0000
0000
0000
0000
0000
0000
0000
0000
0000
F000
0000
0000
0000
0000
0000
0000
0000
0000
0000
0000
0000
0000
0000
0000
0000
0000
0000
0000
0000
0000
0000
0000
0000
00F0
0000
0000
0000
0000
0000
0000
0000
0000
0000
0000
0000
0000
0000
0000
0000
0000
0000
0000
0000
0000
0000
0000
0000
0000
0000
0000
0000
0000
0000
0000
0000
0000
0000
0000
0000
0000
0000
0000
0000
0000
0000
0000
0000
0000
0000
0000
0000
,  // measure 32
0F00
000F
0F00
0000
000F
0000
00F0
0000
,  // measure 33
0000
0000
M00M
0000
0001
0100
0001
0000
,  // measure 34
1000
0010
1000
0000
0001
0000
0010
0000
,  // measure 35
0011
0000
0000
0000
0001
0010
0100
0000
,  // measure 36
0100
1000
0010
0000
0010
1000
0001
0000
,  // measure 37
0001
0010
1000
0010
0001
0100
0010
1000
,  // measure 38
0100
0010
0001
1000
0000
0001
1000
0001
,  // measure 39
1000
M00M
1010
0101
,  // measure 40
1000
0001
1000
0000
0010
0100
0001
0000
,  // measure 41
0010
0100
1000
0000
1100
0000
0011
0000
,  // measure 42
0001
1000
0001
0000
1000
0010
0100
0010
,  // measure 43
0000
1000
0100
0010
1001
0000
0101
0000
,  // measure 44
0010
0100
0001
0000
1000
0100
0001
0100
,  // measure 45
1000
0010
1000
0100
1100
0000
0000
0000
,  // measure 46
1100
0000
0101
0101
,  // measure 47
0202
0303
0011
1100
,  // measure 48
0010
1000
0100
0000
0010
0001
0100
0000
,  // measure 49
0010
0100
0010
0000
0110
0000
1001
0000
,  // measure 50
0100
1000
0010
0000
0100
0001
1000
0001
,  // measure 51
0000
1000
0100
0010
0001
0100
0001
0100
,  // measure 52
1000
0100
1000
0100
0001
0010
0001
0010
,  // measure 53
0100
0100
1000
1000
1010
0000
0000
0000
,  // measure 54
0101
0000
0000
2002
0000
0000
0000
0000
,  // measure 55
3003
M00M
0011
0011
,  // measure 56
0001
1000
0001
0000
1000
0010
0100
0000
,  // measure 57
0010
1000
0100
0000
1100
0000
1100
0000
,  // measure 58
1000
0010
1000
0000
0001
0100
1000
0100
,  // measure 59
0001
0100
0010
1000
1010
0000
1010
0000
,  // measure 60
1000
0001
0010
0000
0100
1000
0001
0000
,  // measure 61
1000
0010
0100
0000
0101
0000
0101
0000
,  // measure 62
0010
0100
0001
0000
0010
0100
1000
0100
,  // measure 63
0010
0001
1000
0010
0110
0000
1001
0000
,  // measure 64
0010
0100
0001
0000
1000
0100
0010
0000
,  // measure 65
0001
1000
0010
0000
1010
0000
0101
0000
,  // measure 66
0001
1000
0100
0000
1000
0010
0100
0001
,  // measure 67
1000
0100
0010
0100
1000
0010
1000
0000
,  // measure 68
0001
0100
0001
0000
0010
0001
0010
0100
,  // measure 69
1000
1000
0001
0001
0101
0000
0000
0000
,  // measure 70
1100
0000
2002
0000
,  // measure 71
3003
M00M
0000
0000
;

//---------------dance-single - ----------------
#NOTES:
     dance-single:
     :
     Easy:
     4:
     0.293920,0.429213,0.203891,0.148284,0.000000,222.000000,200.000000,22.000000,16.000000,4.000000,0.000000,0.293920,0.429213,0.203891,0.148284,0.000000,222.000000,200.000000,22.000000,16.000000,4.000000,0.000000:
0000
0000
0000
0000
,
0000
0000
0000
0000
,
1000
1000
0001
0001
,
1000
1000
0001
0001
,
1000
0000
1000
0000
,
0100
0000
0100
0000
,
0001
0000
0001
0000
,
0010
0000
0010
0000
,
1000
0000
1000
0000
,
0001
0000
0001
0001
,
0011
1100
0011
0011
,
2002
3003
1000
0010
,
1000
0010
0100
0000
,
0100
0000
0001
0010
,
0001
0010
0100
1000
,
0100
0010
0001
0100
,
0001
0100
0010
0000
,
0010
0000
1010
0000
,
1010
0000
2002
0000
,
3003
0000
0002
0000
,
0023
0000
0230
0000
,
1300
000M
0000
0000
,
0000
0000
0000
0000
,
0000
000M
0001
0001
,
0100
0100
0001
0010
,
0200
0000
1300
1000
,
0001
0001
1000
1001
,
0000
1000
0010
1000
,
0001
1000
0000
1000
,
0001
1001
2000
0000
,
3200
0000
0320
0000
,
0031
M000
0000
0000
,
0000
0000
0000
0000
,
0000
M000
1000
1000
,
0010
0010
1000
0100
,
0020
0000
0031
0100
,
0001
0100
0010
1000
,
0010
1000
0100
0010
,
0001
1000
0000
1000
,
0001
M00M
0001
0100
,
0001
1000
0100
0010
,
0100
1000
1000
0010
,
1000
0100
0010
0001
,
1001
0000
1000
0010
,
1000
0010
0100
0001
,
0100
0001
1001
0000
,
0110
0000
1001
1001
,
1001
0000
0001
0010
,
0100
0010
0001
0001
,
1000
0000
1000
0010
,
0100
0010
1000
1000
,
0001
1000
0100
0010
,
0100
0010
0001
0010
,
0001
0010
0011
0000
,
0011
0000
2002
0000
,
0000
3003
1000
0000
,
1000
0000
0010
0100
,
0010
0100
0001
0000
,
0001
0000
1000
0100
,
1000
0100
0010
0000
,
0010
0000
0001
0100
,
0001
0100
0010
0000
,
0010
0000
1000
0001
,
1000
0100
0010
0001
,
0010
0001
0100
0000
,
0100
0000
0010
1000
,
0010
1000
0100
0000
,
0100
0000
0010
0001
,
0010
0001
0100
0001
,
0100
0001
0101
0000
,
0101
0000
2002
0000
,
0000
3003
0000
0000
;
