#TITLE:I Will Fly;
#SUBTITLE:(Delaction Remix);
#ARTIST:Cat;
#TITLETRANSLIT:;
#SUBTITLETRANSLIT:;
#ARTISTTRANSLIT:;
#GENRE:;
#CREDIT:;
#BANNER:[Round G] - I Will Fly (Delaction Remix).png;
#BACKGROUND:[Round G] - I Will Fly (Delaction Remix)-bg.png;
#LYRICSPATH:;
#CDTITLE:;
#MUSIC:[Round G] - I Will Fly (Delaction Remix).mp3;
#OFFSET:-0.020000;
#SAMPLESTART:73.180000;
#SAMPLELENGTH:12.000000;
#SELECTABLE:YES;
#BPMS:0.000000=150.000000
,48.000000=75.000031
,52.000000=150.000000
;
#STOPS:
;
#BGCHANGES:;
#KEYSOUNDS:;
#ATTACKS:;

//---------------dance-single - ----------------
#NOTES:
     dance-single:
     :
     Challenge:
     10:
     0.775711,0.967305,0.124938,0.192212,0.965863,565.000000,552.000000,13.000000,20.000000,0.000000,0.000000,0.775711,0.967305,0.124938,0.192212,0.965863,565.000000,552.000000,13.000000,20.000000,0.000000,0.000000:
// measure 0
0000
0000
0000
0000
,  // measure 1
0000
0000
0000
0000
,  // measure 2
0001
0000
0001
1000
0000
1000
0010
0000
0010
0100
0000
0100
0001
0000
0010
0000
,  // measure 3
0001
0100
0000
0010
0000
1000
0001
0000
2000
0000
0000
0000
3001
0000
0000
0000
,  // measure 4
1200
0000
0000
0010
0000
0310
0000
0001
,  // measure 5
2000
0000
0000
0000
0000
0000
0100
0000
0000
0000
3001
0000
0010
0000
0100
0010
,  // measure 6
0200
0000
0000
0001
0000
0010
0000
1300
,  // measure 7
2000
0000
0000
0000
0000
0000
0010
0000
0000
0000
3001
0000
0100
0000
0010
0100
,  // measure 8
0020
0000
0000
0001
0000
1030
0000
0100
,  // measure 9
0020
0000
0000
0000
0000
0000
0001
0000
0000
0000
1030
0000
0010
0000
0100
0010
,  // measure 10
0100
0000
0100
1000
0000
1000
0010
0000
0010
0100
0000
0100
0001
0000
1000
0000
,  // measure 11
0001
0010
0000
0100
0000
1000
0001
0000
0200
0000
0000
0000
0310
0000
0000
0000
,  // measure 12
1100
0000
0000
0010
0001
0000
0000
1000
0100
0010
0200
0000
1300
0010
1001
0000
,  // measure 13
0001
0100
0000
0010
0000
1000
0100
0000
0020
0000
0000
0000
0000
0000
0031
0100
,  // measure 14
0001
0000
0010
0100
0000
0100
1000
0000
0010
0100
0000
0001
0000
0010
0001
0000
,  // measure 15
0010
0100
0000
1000
0000
0001
0100
0000
0010
1000
0000
0100
0000
0010
0001
0000
,  // measure 16
1000
0000
0001
0100
0000
0100
0010
0000
2000
0000
0000
3010
1000
0100
1000
0001
,  // measure 17
1000
0010
0000
0100
0000
0001
0010
0000
2000
0000
0000
0000
0000
0000
3010
0100
,  // measure 18
0010
0000
0001
1000
0000
1000
0010
0000
0001
0010
0000
0100
0000
0001
0010
0000
,  // measure 19
0100
0000
0100
1000
0000
1000
0001
0000
0001
0100
0000
0100
0010
0000
1000
0000
,  // measure 20
0100
0010
0000
0100
0000
0010
0001
0000
1002
0000
0000
0000
0103
0000
0000
0000
,  // measure 21
0001
0100
0000
0010
0000
0100
0001
0000
0020
0000
0000
0000
0130
0000
1000
0100
,  // measure 22
1000
0000
0100
0010
0000
0100
0010
0000
0001
0100
0000
0010
0000
1000
0001
0000
,  // measure 23
0010
0100
0000
1000
0000
0010
1000
0000
0001
0100
0000
0010
0000
1000
0001
0000
,  // measure 24
0010
0000
0100
1000
0000
1000
0001
0000
0200
0000
0000
0310
1000
0010
0100
0010
,  // measure 25
1000
0001
0000
0010
0000
0100
0010
0000
0002
0000
0000
0000
1003
0000
0001
0100
,  // measure 26
0010
0000
1000
0100
0000
0100
0010
0000
0001
0100
0000
0010
0000
0010
1000
0000
,  // measure 27
0001
0000
0001
0010
0000
0010
1000
0000
1000
0010
0000
0010
0001
0000
1000
0000
,  // measure 28
0001
0100
0000
1000
0000
0100
0001
0000
1002
0000
0000
0000
0013
0000
0000
0000
,  // measure 29
1000
0100
1000
0000
0100
0000
1000
0000
0001
0010
0001
0000
0010
0000
0001
0000
,  // measure 30
1000
0010
1000
0000
0010
0100
0010
0000
1000
0100
1000
0000
0001
0000
0000
0000
,  // measure 31
0010
0001
0010
0000
0100
0000
1000
0000
0010
1000
0010
0000
0100
0000
0001
0000
,  // measure 32
1000
0100
1000
0000
0100
0010
0100
0000
1000
0010
1000
0000
0001
0000
0000
0000
,  // measure 33
0100
0001
0100
0000
0001
0000
0010
0000
0100
1000
0100
0000
1000
0000
0010
0000
,  // measure 34
0100
1000
0100
0000
0001
0100
0001
0000
0010
0100
0010
0000
0110
0000
0000
0000
,  // measure 35
1000
0010
1000
0010
0100
0001
0100
0001
0010
0000
1000
0000
0010
0000
0001
0000
,  // measure 36
0100
1000
0100
1000
0100
0001
0100
0001
0010
0000
1000
0000
0010
0000
0000
0000
,  // measure 37
0001
0010
0100
0000
0010
0000
0001
0000
1000
0100
0010
0000
0100
0000
1000
0000
,  // measure 38
0001
0100
0010
0000
0100
1000
0100
0000
0001
0100
0001
0000
0101
0000
0000
0000
,  // measure 39
1000
0100
0010
0000
0100
0000
1000
0000
0010
1000
0001
0000
0100
0000
0001
0000
,  // measure 40
0010
0100
0010
0000
0001
0010
0100
0000
1000
0010
0100
0000
0110
0000
0000
0000
,  // measure 41
0010
0100
1000
0000
0100
0000
0010
0000
1000
0100
0010
0000
0100
0000
1000
0000
,  // measure 42
0001
0010
0100
0000
0010
0100
1000
0000
0010
1000
0100
0000
1100
0000
0000
0000
,  // measure 43
1000
0010
1000
0010
0100
0001
0100
0001
0010
0000
0100
0000
1000
0000
0010
0000
,  // measure 44
0001
0010
0001
0010
1000
0010
1000
0010
0100
0001
0010
0100
1000
0000
0000
0000
,  // measure 45
0001
0000
1000
0000
0001
0100
0000
0010
1000
0000
0100
1000
0000
0001
0010
0000
,  // measure 46
0100
0000
0001
0000
0100
1000
0000
0010
1000
0100
1000
0000
0100
0010
0100
0000
,  // measure 47
0010
0000
0001
0000
1000
0010
0000
1000
0100
0000
0010
0001
0000
0001
0100
0000
,  // measure 48
0010
1000
0010
0100
0000
0001
1000
0000
0100
0010
0001
0010
0000
0100
1000
0001
,  // measure 49
1000
0000
0001
0000
0100
0010
0000
1000
0001
0000
0010
0100
0000
1000
0010
0000
,  // measure 50
1000
0000
0100
0000
0010
0001
0000
0100
0010
1000
0010
0100
0000
0001
1000
0000
,  // measure 51
2002
0000
0000
3003
,  // measure 52
0001
0100
0001
0100
0010
1000
0010
1000
0001
0010
0100
1000
0001
0000
0000
0000
,  // measure 53
1000
0000
0100
0000
0010
0000
0100
1000
0100
0000
0010
0000
0001
0000
1000
0001
,  // measure 54
0100
0000
0010
1000
0100
0000
1000
0000
0001
0000
1000
0000
0110
0000
1000
0000
,  // measure 55
0100
0000
1000
0000
0001
0000
0010
0100
1000
0000
0010
0000
1000
0000
0001
0010
,  // measure 56
0100
0000
0001
0100
0010
0000
0001
0000
0100
0000
0010
0000
1001
0000
0000
0000
,  // measure 57
1000
0010
1000
0010
1000
0010
1000
0010
0100
0001
0100
0001
0100
0001
0100
0001
,  // measure 58
0010
0100
0010
0100
1000
0001
1000
0001
0100
0010
1000
0100
0010
0001
1000
0010
,  // measure 59
0200
0000
0000
0300
,  // measure 60
1000
0000
0100
0000
0001
0010
0000
0010
0100
0000
0100
1000
0000
1000
0001
0000
,  // measure 61
0110
0000
0000
0000
;

//---------------dance-single - ----------------
#NOTES:
     dance-single:
     :
     Hard:
     8:
     0.499750,0.586245,0.115327,0.240264,0.235459,364.000000,352.000000,12.000000,25.000000,0.000000,0.000000,0.499750,0.586245,0.115327,0.240264,0.235459,364.000000,352.000000,12.000000,25.000000,0.000000,0.000000:
// measure 0
0000
0000
0000
0000
,  // measure 1
0000
0000
0000
0000
,  // measure 2
1000
0000
0000
0100
0000
0000
0010
0000
0000
0001
0000
0000
0100
0000
0010
0000
,  // measure 3
1000
0000
0000
0100
0000
0000
1000
0000
0002
0000
0000
0000
0003
0000
0000
0000
,  // measure 4
0200
0000
0000
0010
0000
0310
0000
1000
,  // measure 5
0002
0000
0000
0000
0000
0000
0010
0000
0000
0000
0013
0000
0100
0000
1000
0100
,  // measure 6
2000
0000
0000
0001
0000
3001
0000
0100
,  // measure 7
0020
0000
0000
0000
0000
0000
1000
0000
0000
0000
1030
0000
0100
0000
0010
0001
,  // measure 8
0020
0000
0000
0100
0000
0130
0000
1000
,  // measure 9
0002
0000
0000
0000
0000
0000
0010
0000
0000
0000
0013
0000
0001
0000
0100
0001
,  // measure 10
0100
0000
0010
1000
0000
0010
1000
0000
0001
0100
0000
0001
0100
0000
0010
0000
,  // measure 11
1000
0100
0000
1000
0000
0100
1000
0000
0002
0000
0000
0000
1003
0000
0000
0000
,  // measure 12
0001
0000
0000
0000
0100
0000
0000
0000
1000
0000
0100
0000
0001
1000
0100
0000
,  // measure 13
1000
0000
0000
0010
0000
0000
0100
0000
0002
0000
0000
0000
0003
0000
0010
0000
,  // measure 14
0100
0000
0000
1000
0000
0000
0010
0000
1000
0000
0000
0100
0000
0000
0010
0000
,  // measure 15
0001
0000
0000
0100
0000
0000
0001
0000
1000
0000
0000
0010
0000
0000
1000
0000
,  // measure 16
0100
0000
0000
0010
0000
0000
0001
0000
0200
0000
0000
0000
0310
0000
0100
0000
,  // measure 17
0001
0000
0000
1000
0000
0000
0100
0000
0020
0000
0000
0000
0030
0000
0100
0000
,  // measure 18
1000
0000
0000
0010
0000
0000
0001
0000
0010
0000
0000
0100
0000
0000
0001
0000
,  // measure 19
0010
0000
0000
0100
0000
0000
1000
0000
0000
0010
0000
0000
1000
0000
0100
0000
,  // measure 20
0010
0000
0000
0010
0000
0000
0001
0000
1000
0000
0000
0000
0110
0000
0000
0000
,  // measure 21
0001
0000
0000
1000
0000
0000
0100
0000
0002
0000
0000
0000
0103
0000
1000
0000
,  // measure 22
0010
0000
0000
0010
0000
0000
0100
0000
0001
0000
0000
1000
0000
0000
0001
0000
,  // measure 23
0010
0000
0000
0001
0000
0000
0100
0000
1000
0000
0000
0100
0000
0000
0001
0000
,  // measure 24
1000
0000
0000
1000
0000
0000
0100
0000
0020
0000
0000
0000
0031
0000
1000
0000
,  // measure 25
0100
0000
0000
0001
0000
0000
0100
0000
2000
0000
0000
0000
3010
0000
0100
0000
,  // measure 26
0001
0000
0000
1000
0000
0000
0100
0000
0001
0000
0000
0100
0000
0000
1000
0000
,  // measure 27
0020
0000
0000
0030
,  // measure 28
0100
0001
0000
0100
0000
0010
1000
0000
0002
0000
0000
0000
1003
0000
0000
0000
,  // measure 29
0002
0000
0013
0100
1000
0000
0001
0100
,  // measure 30
1000
0100
0001
1000
0100
0010
0110
0000
,  // measure 31
1000
0100
0001
0000
0001
0100
1000
0000
,  // measure 32
0001
0100
0001
1000
0100
0010
0110
0000
,  // measure 33
2000
0000
3001
0010
0100
0000
1000
0010
,  // measure 34
1000
0100
0001
0100
1000
0010
0110
0000
,  // measure 35
0001
0010
1000
0001
0100
1000
0010
0100
,  // measure 36
1000
0100
0001
0010
0100
1000
0010
0000
,  // measure 37
0200
0000
0301
1000
0200
0000
0310
0001
,  // measure 38
0100
0010
0100
0001
0010
0100
2000
0000
,  // measure 39
3001
0100
1000
0000
1000
0100
0001
0000
,  // measure 40
0010
0001
0100
1000
0100
0001
0011
0000
,  // measure 41
1000
0100
0001
0000
0001
0100
1000
0000
,  // measure 42
0010
1000
0100
0001
0100
1000
1100
0000
,  // measure 43
1000
0010
0001
1000
0100
0001
0010
0100
,  // measure 44
2000
0000
0000
3001
,  // measure 45
1000
0000
0001
0000
0000
0001
0000
0000
0100
0000
0000
0010
0000
0000
1000
0000
,  // measure 46
0100
0000
0010
0000
0000
0010
0000
0000
0001
0000
0100
0000
1000
0000
0100
0000
,  // measure 47
0001
0000
1000
0000
0000
1000
0000
0000
0100
0000
0000
0010
0000
0000
0100
0000
,  // measure 48
1000
0000
0000
0010
0000
0000
0100
0000
0001
0000
0001
0000
1000
0000
1000
0000
,  // measure 49
0001
0000
1000
0000
0000
1000
0000
0000
0100
0000
0000
1000
0000
0000
0010
0000
,  // measure 50
0100
0000
0001
0000
0000
0001
0000
0000
1000
0000
0100
0000
0001
0000
0100
0000
,  // measure 51
2000
0000
0000
0000
,  // measure 52
0002
0000
3003
0110
,  // measure 53
1000
0001
0100
0001
1000
0100
0010
0001
,  // measure 54
1000
0010
0001
0010
1000
0001
0011
0000
,  // measure 55
0100
1000
0010
0100
0010
1000
0001
0010
,  // measure 56
0001
0100
1000
0100
0001
1000
0110
0000
,  // measure 57
1000
0100
0001
0100
0010
0001
0100
0010
,  // measure 58
0001
1000
0100
0001
1000
0001
0010
0100
,  // measure 59
2000
0000
0000
3000
,  // measure 60
0001
0000
0010
0000
0000
1100
0000
0000
0010
0000
0000
0101
0000
0000
1000
0000
,  // measure 61
1001
0000
0000
0000
;

//---------------dance-single - ----------------
#NOTES:
     dance-single:
     :
     Medium:
     7:
     0.407763,0.410372,0.086495,0.249875,0.067274,297.000000,288.000000,9.000000,26.000000,0.000000,0.000000,0.407763,0.410372,0.086495,0.249875,0.067274,297.000000,288.000000,9.000000,26.000000,0.000000,0.000000:
// measure 0
0000
0000
0000
0000
,  // measure 1
0000
0000
0000
0000
,  // measure 2
1000
0000
0000
0100
0000
0000
0010
0000
0000
0001
0000
0000
0010
0000
0100
0000
,  // measure 3
1000
0000
0000
0010
0000
0000
1000
0000
0002
0000
0000
0000
0003
0000
0000
0000
,  // measure 4
2000
0000
0000
0100
0000
3100
0000
0100
,  // measure 5
0020
0000
0000
0001
0000
0031
0100
0001
,  // measure 6
0200
0000
0000
0010
0000
0010
0000
0310
,  // measure 7
2000
0000
0000
0001
0000
3001
1000
0001
,  // measure 8
2000
0000
0000
0100
0000
3100
0000
0100
,  // measure 9
0020
0000
0000
0001
0000
0031
1000
0001
,  // measure 10
1000
0000
0000
0100
0000
0000
0010
0000
0000
0001
0000
0000
1000
0000
0001
0000
,  // measure 11
0100
0000
0000
0100
0000
0000
0010
0000
0200
0000
0000
0000
0300
0000
0000
0000
,  // measure 12
0002
0000
0000
0000
0000
0000
0000
1003
,  // measure 13
0100
0000
1000
0010
0200
0000
0310
0000
,  // measure 14
1000
0000
0100
0010
0100
0000
1000
0001
,  // measure 15
0100
0000
0001
0010
0100
0000
0010
0001
,  // measure 16
0100
0000
0000
0010
0000
0000
1000
0000
0002
0000
0000
0000
1003
0000
0000
0000
,  // measure 17
1000
0000
0100
1000
0002
0000
0013
0000
,  // measure 18
0001
0000
0100
0010
1000
0000
0100
1000
,  // measure 19
0010
0000
0000
0010
0000
0000
0100
0000
0000
0100
0000
0000
0001
0000
1000
0000
,  // measure 20
0001
0000
0000
0001
0000
0000
1000
0000
0002
0000
0000
0000
1003
0000
0000
0000
,  // measure 21
0001
0000
0010
0100
2000
0000
3001
0000
,  // measure 22
1000
0000
0010
0100
0001
0000
0010
0100
,  // measure 23
1000
0000
0001
0100
0010
0000
1000
0100
,  // measure 24
0010
0000
0000
0001
0000
0000
1000
0000
0020
0000
0000
0000
0100
0000
0000
0000
,  // measure 25
1030
0000
0001
1000
0200
0000
0010
0000
,  // measure 26
1300
0000
0010
0100
0001
0000
1000
0100
,  // measure 27
0020
0000
0000
0030
,  // measure 28
0001
0000
0000
0100
0000
0000
0001
0000
1000
0000
0000
0000
0000
0000
0000
0000
,  // measure 29
0001
0100
1000
0100
,  // measure 30
0001
0010
0100
1000
0001
0000
1000
0000
,  // measure 31
1000
0010
0001
0010
,  // measure 32
1000
0100
0010
0000
0001
0000
0100
0010
,  // measure 33
1000
0100
0001
0100
,  // measure 34
1000
0100
0010
0001
1000
0000
1000
0000
,  // measure 35
0001
0100
0001
0000
0010
0000
0100
0000
,  // measure 36
1000
0100
1000
0010
0100
0000
1001
0000
,  // measure 37
1000
0010
0001
0010
,  // measure 38
1000
0010
0100
0001
1000
0000
1100
0000
,  // measure 39
0001
0010
0100
1100
,  // measure 40
0001
0100
0010
0000
1000
0000
0001
1000
,  // measure 41
0100
0001
0100
1000
,  // measure 42
0001
0100
0010
1000
0001
0000
0010
0000
,  // measure 43
0100
1000
0100
0010
0002
0000
1003
0000
,  // measure 44
0120
0000
0000
1030
,  // measure 45
0100
0000
1000
0000
0001
0010
0100
0000
,  // measure 46
0010
0000
0001
0000
0100
0001
0100
0010
,  // measure 47
1000
0000
0001
0000
0010
0100
0010
0000
,  // measure 48
0001
0000
0100
0000
0010
1000
0010
1000
,  // measure 49
0001
0000
0010
0000
0010
0100
1000
0000
,  // measure 50
0010
0000
1000
0000
0100
1000
0100
1000
,  // measure 51
0002
0000
0000
0003
,  // measure 52
0200
0000
0310
1001
,  // measure 53
0001
0000
0100
0010
0100
0000
0010
1000
,  // measure 54
0001
0010
0200
0000
1300
0000
1001
0000
,  // measure 55
1000
0000
0001
0010
0100
0000
1000
0010
,  // measure 56
1000
0001
0200
0000
0310
0000
1001
0000
,  // measure 57
1000
0000
0001
1000
0100
0000
0010
0100
,  // measure 58
1000
0001
0200
0000
0310
0000
1001
0000
,  // measure 59
0220
0000
0000
0330
,  // measure 60
1000
0000
0001
0000
0000
0001
0000
0000
1000
0000
0000
1000
0000
0000
0010
0000
,  // measure 61
0100
0000
0000
0000
;

//---------------dance-single - ----------------
#NOTES:
     dance-single:
     :
     Easy:
     5:
     0.273215,0.322435,0.086495,0.326760,0.000000,199.000000,190.000000,9.000000,34.000000,0.000000,0.000000,0.273215,0.322435,0.086495,0.326760,0.000000,199.000000,190.000000,9.000000,34.000000,0.000000,0.000000:
// measure 0
0000
0000
0000
0000
,  // measure 1
0000
0000
0000
0000
,  // measure 2
1000
0010
0100
0001
,  // measure 3
1000
0001
1001
0000
,  // measure 4
0002
0000
0000
0003
,  // measure 5
0020
0000
0000
0000
0000
0000
0030
0100
,  // measure 6
2000
0000
0000
3000
,  // measure 7
0020
0000
0000
0000
0000
0000
0030
0100
,  // measure 8
0002
0000
0000
0003
,  // measure 9
2000
0000
0000
3000
,  // measure 10
0001
0010
0100
1000
,  // measure 11
0001
1000
1001
0000
,  // measure 12
0110
0000
0000
0000
,  // measure 13
1000
0100
2000
0000
,  // measure 14
3001
0010
0001
0001
,  // measure 15
0100
0010
0100
0100
,  // measure 16
0001
1000
0200
0300
,  // measure 17
0010
0100
2000
3000
,  // measure 18
0010
0010
1000
1000
,  // measure 19
0001
0100
0001
0010
,  // measure 20
0100
0010
1001
0000
,  // measure 21
0001
1000
0020
0030
,  // measure 22
1000
0100
1000
1000
,  // measure 23
0001
0100
0010
0100
,  // measure 24
0001
1000
0002
0003
,  // measure 25
0001
0010
0200
0000
,  // measure 26
0310
0001
1000
0001
,  // measure 27
2002
0000
0000
3003
,  // measure 28
0100
0010
1001
0000
,  // measure 29
1000
0100
1000
1000
,  // measure 30
0001
0010
0100
0000
,  // measure 31
0010
0001
0100
0100
,  // measure 32
0010
1000
0001
0000
,  // measure 33
0100
0100
0010
0010
,  // measure 34
1000
0001
0010
0000
,  // measure 35
0200
2300
3020
0230
,  // measure 36
0302
0000
2003
0000
3001
1000
1000
0000
,  // measure 37
0001
0010
0001
0001
,  // measure 38
1000
0100
0010
0000
,  // measure 39
0100
1000
0010
0010
,  // measure 40
0100
0001
1000
0000
,  // measure 41
0010
0010
0100
0100
,  // measure 42
0001
1000
0100
0000
,  // measure 43
0020
0032
0203
0320
,  // measure 44
2030
0000
0000
3001
,  // measure 45
0010
0010
0100
0010
,  // measure 46
0001
1000
0001
0000
1000
0000
0000
0000
,  // measure 47
0001
0100
0001
1000
,  // measure 48
0010
1000
0010
0000
0100
0000
0000
0000
,  // measure 49
0001
1000
0100
0010
,  // measure 50
0100
0010
0100
0000
0010
0000
0010
0000
,  // measure 51
2002
0000
0000
3003
,  // measure 52
0200
0000
0000
0310
,  // measure 53
1001
0001
0010
0100
,  // measure 54
1000
0010
2000
0000
3010
0000
0000
0000
,  // measure 55
1000
0010
0100
0001
,  // measure 56
1000
0001
2000
0000
3001
0000
0000
0000
,  // measure 57
0001
0010
0100
1000
,  // measure 58
0001
1000
0002
0000
0103
0000
0010
0000
,  // measure 59
0220
0000
0000
0330
,  // measure 60
2000
0000
0000
0000
0000
0000
0000
0001
,  // measure 61
3001
0000
0000
0000
;
