#TITLE:ULTRA B+K;
#SUBTITLE:;
#ARTIST:nora2r;
#TITLETRANSLIT:;
#SUBTITLETRANSLIT:;
#ARTISTTRANSLIT:;
#GENRE:UK Hardcore;
#CREDIT:;
#BANNER:[Round F] - ULTRA B+K.png;
#BACKGROUND:[Round F] - ULTRA B+k-bg.png;
#LYRICSPATH:;
#CDTITLE:;
#MUSIC:[Round F] - ULTRA B+K.ogg;
#OFFSET:-0.097000;
#SAMPLESTART:98.839996;
#SAMPLELENGTH:10.971428;
#SELECTABLE:YES;
#BPMS:0.000000=175.000000
;
#STOPS:
;
#BGCHANGES:;
#KEYSOUNDS:;
#ATTACKS:;

//---------------dance-single - ----------------
#NOTES:
     dance-single:
     :
     Medium:
     8:
     0.585384,0.647407,0.138766,0.016325,0.163255,502.000000,485.000000,17.000000,2.000000,0.000000,0.000000,0.585384,0.647407,0.138766,0.016325,0.163255,502.000000,485.000000,17.000000,2.000000,0.000000,0.000000:
0000
0000
0000
0000
,
0000
0000
0000
0000
,
0000
0000
0000
0000
,
0000
0000
0000
0000
,
1000
1000
0001
0001
,
0100
0100
0010
0010
,
0100
0100
0010
0010
,
1001
0000
0000
0000
,
1000
0100
0010
0100
1000
0000
1000
0100
,
0010
0100
1000
0000
1000
0001
1000
0000
,
0001
0100
0010
0100
0001
0000
0001
0100
,
0010
0100
0001
0000
0001
1000
0001
0000
,
1000
0100
0010
0100
1000
0100
1000
0100
,
1000
0010
0100
0010
1000
0010
1000
0010
,
1000
0100
0010
0100
1000
0010
1000
0001
,
1001
0000
0000
0000
,
0001
0000
1000
0000
0010
0000
1000
0000
0000
0010
0000
0000
1000
0000
0010
0000
,
0100
0000
0000
0010
0000
0000
0100
0000
0010
0000
1000
0000
0100
0000
0010
0000
,
0001
0000
0000
0100
0000
0000
0001
0000
0000
1000
0000
0000
0001
0000
0000
0000
,
1000
0000
0000
0010
0000
0000
1000
0000
0001
0000
0000
0000
1001
0000
0000
0000
,
0001
0000
0000
0000
0100
0000
0010
0000
0000
0100
0000
0000
0010
0000
0000
0000
,
1000
0000
0000
0001
0000
0000
1000
0000
0100
0000
0010
0000
0100
0000
1000
0000
,
0001
0000
0000
0100
0000
0000
0001
0000
0000
1000
0000
0000
0001
0000
0000
0000
,
1001
0000
0000
0000
,
0001
1000
0010
0100
0001
0100
0010
1000
,
0100
0010
0100
1000
0001
0100
0010
0100
,
0001
0010
0100
0010
0001
0010
0100
0010
,
0001
0000
0000
1000
0000
0000
0001
0000
1000
0000
0000
0000
1001
0000
0000
0000
,
0001
0000
0000
0100
0000
0000
0010
0000
0100
0000
0000
0000
0110
0000
0000
0000
,
0010
0000
0000
1000
0000
0000
0001
0000
1000
0000
0000
0000
1001
0000
0000
0000
,
1000
0100
0010
0100
1000
0100
0010
0001
,
1000
0001
1000
0001
0100
0000
0101
0000
,
0001
0000
0001
0100
0000
0100
0010
0100
,
0001
1000
0100
0010
0000
0100
0010
0000
,
0001
0000
0001
0100
0000
0100
0010
0100
,
0001
0010
0100
1000
0000
0100
1000
0000
,
0001
0000
0001
0100
0000
0100
0010
0100
,
0001
1000
0100
0010
0000
0100
0010
0000
,
0001
0000
0001
0100
0000
0100
0010
0100
,
0001
0010
0100
0010
0000
0100
0010
0000
,
0100
0100
0010
0010
,
0001
0000
0001
0000
1000
0001
1000
0000
,
0001
0001
1000
1000
,
0010
0000
0010
0000
0100
0010
0100
0000
,
0010
0010
0100
0100
,
0001
0000
0001
0000
1000
0001
1000
0000
,
0001
0001
1000
1000
,
0100
0000
0100
0000
0010
0100
0010
0000
,
0001
0000
0001
0000
0100
0001
0100
0001
,
1000
0000
0001
1000
0001
0100
0010
0000
,
0100
0000
0100
0000
0010
0100
0010
0100
,
0001
0000
0001
0000
0100
0001
0100
0001
,
1000
0001
0010
0100
0010
0001
0010
0100
,
1000
0001
0100
0010
0100
0001
0100
0010
,
1000
0001
0010
0100
1000
0001
0100
0010
,
0100
0000
0000
0000
,
0010
0000
1000
0000
0001
0000
1000
0000
0000
0100
0000
0000
1000
0000
0100
0000
,
0010
0000
0000
0100
0000
0000
0010
0000
0100
0000
0010
0000
0001
0000
1000
0000
,
0010
0000
0000
0100
0000
0000
0010
0000
0000
1000
0000
0000
0010
0000
0000
0000
,
1000
0000
0000
0001
0000
0000
1000
0000
0001
0000
0000
0000
1001
0000
0000
0000
,
1000
0000
0000
0100
0000
0000
1000
0000
0000
0001
0000
0000
1000
0000
0000
0000
,
0001
0000
0000
0100
0000
0000
0001
0000
1000
0000
0010
0000
0100
0000
0010
0000
,
1000
0000
0000
0100
0000
0000
1000
0000
0000
0001
0000
0000
1000
0000
0100
0000
,
0010
0000
0000
0100
0000
0000
0010
0000
0001
0000
1000
0000
0010
0000
0010
0000
,
0100
0000
0000
0010
0000
0000
0100
0000
0000
0001
0000
0000
0100
0000
0010
0000
,
1000
0000
0000
0100
0000
0000
1000
0000
0100
0000
0010
0000
0100
0000
1000
0000
,
0001
0000
0000
0100
0000
0000
0001
0000
0000
1000
0000
0000
0001
0000
0100
0000
,
0010
0000
0000
0100
0000
0000
0010
0000
0100
0000
0000
0000
0110
0000
0000
0000
,
0010
0000
0000
1000
0000
0000
0010
0000
0000
0100
0000
0000
0010
0000
1000
0000
,
0001
0000
0000
1000
0000
0000
0001
0000
0010
0000
0100
0000
0010
0000
0001
0000
,
0100
0000
0000
0001
0000
0000
0100
0000
0000
0010
0000
0000
0100
0000
0001
0000
,
1000
0000
0000
0000
,
0001
1000
0100
0010
0000
0010
0001
1000
,
0001
0100
0010
0100
0001
0010
0100
1000
,
0001
1000
0010
0100
0000
0100
0001
0010
,
0100
0010
0001
1000
0010
0100
0010
1000
,
0001
1000
0100
0010
0000
0010
0001
1000
,
0001
0100
0010
0100
0001
0010
0100
1000
,
0001
1000
0010
0100
0000
0100
0001
1000
,
0100
1100
0100
0110
,
0010
0001
0100
0010
0100
0001
0010
0100
,
0010
0000
0000
0001
0000
0000
0100
0000
0010
0000
0000
0000
0110
0000
0000
0000
,
0010
1000
0100
0010
0100
1000
0010
0100
,
0010
0000
0000
1000
0000
0000
0100
0000
0010
0000
0000
0000
0110
0000
0000
0000
,
0010
0000
0000
0001
0000
0000
0100
0000
0010
0000
0000
0000
0110
0000
0000
0000
,
0010
0000
0000
1000
0000
0000
0100
0000
0010
0000
0000
0000
0110
0000
0000
0000
,
0010
0000
0000
0001
0000
0000
0010
0000
0001
0000
0000
0100
0000
0000
0001
0000
,
1000
0000
0000
0000
,
2002
3003
0000
0000
0000
0000
0000
0000
;

//---------------dance-single - ----------------
#NOTES:
     dance-single:
     :
     Hard:
     10:
     0.914226,1.007077,0.816273,0.179580,0.644856,784.000000,684.000000,100.000000,22.000000,0.000000,0.000000,0.914226,1.007077,0.816273,0.179580,0.644856,784.000000,684.000000,100.000000,22.000000,0.000000,0.000000:
// measure 0
0000
0000
0000
0000
,  // measure 1
0000
0000
0000
0000
,  // measure 2
0000
0000
0000
0000
,  // measure 3
0000
0000
0000
0000
,  // measure 4
0001
0000
0000
0001
0000
0000
0100
0001
0100
0010
0000
0000
,  // measure 5
0100
0000
0000
0010
0000
0000
0100
0000
0000
0000
0000
0000
0010
0000
0100
0000
0010
0000
1000
0000
0000
0000
0000
0000
,  // measure 6
0010
0000
0010
0000
1010
1000
0001
0000
,  // measure 7
1001
0000
0000
0000
,  // measure 8
1000
0100
0001
0100
1000
0000
1000
0100
,  // measure 9
0001
0100
1000
0000
0100
1000
0001
0000
,  // measure 10
0001
0100
1000
0100
0001
0000
0001
0100
,  // measure 11
1000
0100
0001
0000
0100
0001
1000
0000
,  // measure 12
0001
1000
0100
0010
1000
0010
0100
1000
,  // measure 13
0001
1000
0010
0100
1000
0100
0010
1000
,  // measure 14
0010
1000
0010
1000
0001
1000
0001
1000
0001
0010
0001
0010
0100
0010
0100
0010
,  // measure 15
0100
0000
0000
0000
,  // measure 16
0110
0000
0010
0100
1000
0000
1100
0000
1000
0001
0000
0000
0001
0100
0010
0000
,  // measure 17
0110
0000
0000
0110
0000
0000
0110
0000
0010
0000
2000
0000
3001
0000
1001
0000
,  // measure 18
0001
0000
1000
0100
0020
0030
0110
0000
0000
0110
0000
0000
0100
0010
0001
1000
,  // measure 19
0001
0000
0000
1001
0000
0000
0001
0100
0010
0000
0000
0000
0110
0000
0000
0000
,  // measure 20
0110
0000
0010
0100
0001
0000
0101
0000
0001
1000
0000
0000
1000
0100
0010
0000
,  // measure 21
0110
0000
0000
0110
0000
0000
0110
0000
0010
0000
0002
0000
1003
0000
1001
0000
,  // measure 22
1000
0000
0001
0100
0020
0030
0110
0000
0000
0110
0000
0000
0100
0010
1000
0001
,  // measure 23
1000
0100
0010
0100
1000
0001
0100
0001
1000
0000
0000
0000
1001
0000
0000
0000
,  // measure 24
0001
0000
1000
0010
0100
0000
0010
0000
0100
0010
1000
0000
1000
0100
0010
0100
,  // measure 25
1000
0000
0100
1000
0001
0000
0100
0000
0100
0000
0001
0100
0000
0010
0100
0000
,  // measure 26
0010
1000
1100
0100
0010
0001
0101
0100
,  // measure 27
0010
0000
0000
0100
0000
0000
0001
0000
1000
0100
1000
0100
0010
0000
0000
0000
,  // measure 28
0110
0000
0000
0110
0000
0000
0110
0000
0010
0001
0010
0001
1000
0000
0000
0000
,  // measure 29
1001
0000
0000
1001
0000
0000
1001
0000
0001
0100
0001
0100
0010
0000
0000
0000
,  // measure 30
0100
0010
0100
0010
1000
0010
1000
0010
1000
0001
1000
0001
0010
0001
0010
0001
,  // measure 31
2000
3002
0023
0230
1300
0000
1100
0000
,  // measure 32
1000
0000
1000
0001
0000
0001
0100
0010
,  // measure 33
0001
0010
0100
0001
0000
1000
0001
0000
,  // measure 34
1000
0000
1000
0100
0000
0100
0010
1000
,  // measure 35
0010
0001
1000
0010
0000
0100
0010
0000
,  // measure 36
1000
0000
1000
0001
0000
0001
0010
0100
,  // measure 37
0001
0100
0010
0001
0000
1000
0001
0000
,  // measure 38
1000
0000
1000
0010
0000
0010
0100
1000
,  // measure 39
0100
0001
0010
0001
0000
1000
0001
0000
,  // measure 40
1000
0100
0010
1000
0000
1000
0010
0100
,  // measure 41
1000
0010
0001
1000
0100
0001
1000
1000
,  // measure 42
0001
0010
0100
0001
0000
0001
0100
0010
,  // measure 43
0001
0100
1000
0001
1000
0100
0010
0010
,  // measure 44
1000
0100
0010
1000
0000
1000
0010
0100
,  // measure 45
1000
0010
0001
1000
0100
0001
1000
1000
,  // measure 46
0001
0010
0100
0001
0000
0001
0100
0010
,  // measure 47
0001
0100
1000
0001
0010
1000
0001
0001
,  // measure 48
1001
0000
1001
0000
1001
0001
0011
0010
,  // measure 49
0110
0000
0110
0100
1100
1000
0001
0000
,  // measure 50
1001
0000
1001
0000
1001
1000
1010
0010
,  // measure 51
0110
0000
0110
0000
0110
0100
0101
0001
,  // measure 52
1000
0001
0010
0100
0001
0100
0010
0001
,  // measure 53
1000
0001
0100
0010
0001
0010
0100
0001
,  // measure 54
0100
0001
0100
0001
1000
0001
1000
0001
1000
0100
1000
0100
0010
0100
0010
0100
,  // measure 55
0010
0000
0000
0000
,  // measure 56
0110
0000
0100
0010
0001
0000
0011
0000
0001
1000
0000
0000
1000
0010
0100
0000
,  // measure 57
0110
0000
0000
0110
0000
0000
0110
0000
0100
0000
0002
0000
1003
0000
1001
0000
,  // measure 58
1000
0000
0001
0010
0200
0300
0110
0000
0000
0110
0000
0000
0010
0100
1000
0001
,  // measure 59
1000
0000
0000
1001
0000
0000
1000
0010
0100
0000
0000
0000
0110
0000
0000
0000
,  // measure 60
0110
0000
0100
0010
1000
0000
1010
0000
1000
0001
0000
0000
0001
0010
0100
0000
,  // measure 61
0110
0000
0000
0110
0000
0000
0110
0000
0100
0000
2000
0000
3001
0000
1001
0000
,  // measure 62
0001
0000
1000
0010
0200
0300
0110
0000
0000
0110
0000
0000
0010
0100
0001
0000
,  // measure 63
0101
0000
0000
0101
0000
0000
0101
0000
0001
0000
1000
0000
1100
0000
1100
0000
,  // measure 64
0110
0000
0010
0100
1000
0000
1100
0000
1000
0001
0000
0000
0001
0100
0010
0000
,  // measure 65
0110
0000
0000
0110
0000
0000
0110
0000
0010
0000
2000
0000
3001
0000
1001
0000
,  // measure 66
0001
0000
1000
0100
0020
0030
0110
0000
0000
0110
0000
0000
0100
0010
0001
1000
,  // measure 67
0001
0000
0000
1001
0000
0000
0001
0100
0010
0000
0000
0000
0110
0000
0000
0000
,  // measure 68
0110
0000
0010
0100
0001
0000
0101
0000
0001
1000
0000
0000
1000
0100
0010
0000
,  // measure 69
0110
0000
0000
0110
0000
0000
0110
0000
0010
0000
0002
0000
1003
0000
1001
0000
,  // measure 70
1000
0000
0001
0100
0010
0000
0110
0000
0000
0110
0000
0000
0100
0010
1000
0001
,  // measure 71
2000
0000
3001
1001
,  // measure 72
1000
0000
0100
0010
0000
0100
1000
0000
0001
0000
0100
0000
0010
0100
0001
0010
,  // measure 73
0100
0000
0010
0001
0000
0010
0001
1000
0010
0000
0100
0010
0000
0100
0010
1000
,  // measure 74
0001
0000
0010
0100
0000
0010
0001
0000
1000
0001
0100
0010
0100
0001
1000
0000
,  // measure 75
0100
0000
0010
0000
0100
1000
0001
1000
0010
0000
0100
0000
0010
0000
0100
0010
,  // measure 76
1000
0000
0100
0010
0000
0100
1000
0000
0001
0000
0100
0000
0010
0100
0001
0010
,  // measure 77
0100
0000
0010
0001
0000
0010
0001
1000
0010
0000
0100
0010
0000
0100
0010
1000
,  // measure 78
0001
0000
0010
0100
0000
0010
0001
0000
1000
0001
0100
0010
0100
0001
1000
0000
,  // measure 79
1001
0000
1000
0000
0100
0000
0000
0000
1100
0000
0100
0000
0010
0100
0010
0001
,  // measure 80
1000
0001
0100
0001
1000
0001
0010
0100
,  // measure 81
0110
0000
0000
0011
0000
0000
1001
0000
0001
0100
0001
0100
0010
0000
0100
0000
,  // measure 82
0001
1000
0010
1000
0001
1000
0100
0010
,  // measure 83
0110
0000
0100
0010
0001
1000
0001
0000
1000
0010
1000
0010
0100
0000
0010
0000
,  // measure 84
0110
0000
0000
1010
0000
0000
1001
0000
1000
0100
1000
0100
0010
0000
0100
0000
,  // measure 85
0110
0000
0000
0011
0000
0000
1001
0000
0001
0100
0001
0100
0010
0000
0000
0000
,  // measure 86
0100
0010
0100
0010
1000
0010
1000
0010
1000
0001
1000
0001
1000
0100
1000
0100
,  // measure 87
0020
0000
0230
0320
0032
0000
1003
0000
,  // measure 88
0220
0330
0000
0000
0000
0000
0000
0000
;

//---------------dance-single - ----------------
#NOTES:
     dance-single:
     :
     Easy:
     6:
     0.445452,0.647407,0.342835,0.081627,0.012244,382.000000,340.000000,42.000000,10.000000,0.000000,0.000000,0.445452,0.647407,0.342835,0.081627,0.012244,382.000000,340.000000,42.000000,10.000000,0.000000,0.000000:
0000
0000
0000
0000
,
0000
0000
0000
0000
,
0000
0000
0000
0000
,
0000
0000
0000
0000
,
1000
1000
0100
0100
,
0010
0100
0100
0000
,
1000
1000
0001
0001
,
1001
0000
0000
0000
,
0001
0000
0100
0001
0100
0000
0001
0000
,
0100
0001
0100
0000
0001
1000
0001
0000
,
1000
0000
0010
1000
0010
0000
1000
0000
,
0010
1000
0010
0000
1000
0001
1000
0000
,
1001
1001
1001
1001
,
0110
0110
0110
0110
,
0010
0100
0010
0100
0010
0100
0010
0100
,
0010
0000
0000
0000
,
0001
0100
1000
0010
,
1000
0100
0001
1000
,
0100
0001
0100
0010
,
0001
0100
0010
0110
,
1000
0100
0001
0010
,
0001
0100
1000
0001
,
0100
1000
0100
0010
,
1000
0001
1000
1001
,
1000
0100
0000
0100
0000
0010
0000
0001
,
0000
0100
0000
0010
0100
0000
0010
0000
,
1000
0110
1000
0110
,
1000
0000
0000
0001
0000
0000
1000
0000
0001
0000
0000
0000
1001
0000
0000
0000
,
1000
0000
0000
0100
0000
0000
1000
0000
0100
0000
0000
0000
1100
0000
0000
0000
,
0100
0000
0000
0010
0000
0000
0100
0000
0010
0000
0000
0000
0110
0000
0000
0000
,
0010
0001
0100
1000
,
0020
0032
1003
1001
,
0200
0000
0000
0000
,
0010
0000
0000
0001
0000
0000
0000
0000
,
0302
0000
0000
0000
,
1000
0000
0000
0010
0000
0000
0000
0000
,
0023
0000
0000
0000
,
0100
0000
0000
0001
0000
0000
0000
0000
,
0032
0000
0000
0000
,
1000
0000
0000
0100
0000
0000
0000
0000
,
0103
0100
0100
0100
,
0001
0100
0010
0010
,
0100
0100
0100
0100
,
0010
0100
0001
0001
,
1000
1000
1000
1000
,
0001
1000
0100
0100
,
0010
0010
0010
0010
,
0001
0100
0010
0010
,
0100
0100
0101
0101
,
0001
1001
1001
0000
,
1000
1000
1100
1100
,
0100
0100
0110
0110
,
0011
0011
0011
0011
,
1001
1001
1001
1001
,
0001
1000
0001
1000
0001
1000
0001
1000
,
0001
0000
0000
0000
,
1000
0010
0001
0100
,
0001
0010
1000
0001
,
0010
1000
0010
0100
,
1000
0010
0100
0110
,
0001
0010
1000
0100
,
1000
0010
0001
1000
,
0010
0001
0010
0100
,
0001
0000
1000
0000
0100
0000
1000
1000
,
0001
0100
1000
0010
,
1000
0100
0001
1000
,
0100
0001
0100
0010
,
0001
0100
0010
0110
,
1000
0100
0001
0010
,
0001
0100
1000
0001
,
0100
1000
0100
0010
,
2000
0000
0000
3000
,
0001
1000
0001
0000
0100
0001
0100
0000
,
0010
0100
0010
0000
0100
0001
0100
0000
,
0001
1000
0001
0000
1000
0100
1000
0100
,
0010
0001
1000
0001
,
1000
0001
1000
0000
0010
1000
0010
0000
,
0100
0010
0100
0000
0010
1000
0010
0000
,
1000
0001
1000
0000
0001
0010
0001
0010
,
0100
1001
0100
1001
,
0001
0010
1000
0100
,
0001
0010
0100
1001
,
1000
0010
0001
0100
,
1000
0010
0100
1001
,
0001
0010
1000
1010
,
1000
0010
0001
0101
,
0001
1000
0001
1000
0001
1000
0001
1000
,
0001
0100
0020
0130
,
2002
3003
0000
0000
0000
0000
0000
0000
;
