#VERSION:0.81;
#TITLE:Text Me;
#SUBTITLE:;
#ARTIST:cosmicosmo;
#TITLETRANSLIT:;
#SUBTITLETRANSLIT:;
#ARTISTTRANSLIT:;
#GENRE:;
#ORIGIN:;
#CREDIT:;
#BANNER:;
#BACKGROUND:;
#PREVIEWVID:;
#JACKET:;
#CDIMAGE:;
#DISCIMAGE:;
#LYRICSPATH:;
#CDTITLE:;
#MUSIC:[Round F] - Text Me.ogg;
#OFFSET:-0.643000;
#SAMPLESTART:23.893000;
#SAMPLELENGTH:15.000000;
#SELECTABLE:YES;
#DISPLAYBPM:160.000000;
#BPMS:0.000=160.000,
258.000=320.000,
258.500=160.000,
258.750=80.000,
259.000=160.000;
#STOPS:;
#DELAYS:;
#WARPS:;
#TIMESIGNATURES:0.000=4=4;
#TICKCOUNTS:0.000=4;
#COMBOS:0.000=1;
#SPEEDS:0.000=1.000=0.000=0;
#SCROLLS:0.000=1.000;
#FAKES:;
#LABELS:0.000=Song Start;
#BGCHANGES:;
#KEYSOUNDS:;
#ATTACKS:
;

//---------------dance-single - ----------------
#NOTEDATA:;
#CHARTNAME:;
#STEPSTYPE:dance-single;
#DESCRIPTION:;
#CHARTSTYLE:;
#DIFFICULTY:Hard;
#METER:9;
#RADARVALUES:0.564124,0.750836,0.283186,0.235988,0.306785,436.000000,36.000000,30.000000,58.000000,0.000000,2.000000,0.000000,0.000000,0.564124,0.750836,0.283186,0.235988,0.306785,436.000000,36.000000,30.000000,58.000000,0.000000,2.000000,0.000000,0.000000;
#CREDIT:;
#DISPLAYBPM:160.000000;
#NOTES:
0000
0000
0000
0000
,
0000
0000
0000
0000
,
0000
0000
0000
0000
,
M000
0000
0M00
0000
0000
0000
00M0
0000
0000
0000
0000
0000
000M
0M00
00M0
0000
,
0000
0000
0000
0000
,
0000
0000
0000
0000
,
0000
0000
0000
0000
,
0000
0000
0000
0000
,
1000
0000
0000
0001
0000
0000
0010
0000
,
0000
0100
0000
0000
0010
0000
0000
0001
,
0001
0000
0000
1000
0000
0000
0010
0000
,
M000
0000
010M
0000
0000
0000
M010
1000
0010
0000
0000
1000
000M
0M00
00M1
0000
,
0010
0000
0000
0100
0000
0000
0010
0000
,
0000
0000
0001
0000
0000
0000
0000
1000
0010
0000
0000
0000
0100
0000
0001
0000
,
1000
0000
0000
0001
0000
0000
0010
0000
,
0000
0000
0100
0000
0000
0000
1000
0001
0100
0000
0000
0000
00M0
0000
M000
0000
,
0000
000M
0000
0000
0000
00M0
0000
0000
0M01
0000
0000
0000
1010
0000
0000
0000
,
0001
0000
1000
0000
0200
0000
0000
0300
0011
0000
0001
0000
2000
0000
3000
0000
,
0001
0000
1000
0010
0100
0010
0000
0000
0101
0000
0001
0000
1000
0000
0000
0000
,
0001
0010
0100
0000
0100
0000
0010
0100
2000
0000
0000
0000
3001
0100
0010
1000
,
0001
0010
0100
1000
0002
0000
1000
0000
1003
0000
0010
0000
0200
0000
0300
0000
,
0010
2000
0001
0000
3001
0000
1000
0000
0200
0000
0300
0000
0000
0000
1000
0000
,
1000
0000
0001
0000
0100
0010
0000
0001
0000
0000
0001
0000
0001
0000
0001
0000
,
0000
0000
0010
0100
0001
0000
1000
0000
1100
0000
0001
0000
0400
0000
0000
0000
,
0310
1000
0010
1000
M0M0
0000
1100
0000
,
0002
0100
0203
0000
0310
1000
0002
0003
,
0010
0000
0001
1000
0010
1000
0000
0000
0101
0000
0001
1000
0100
0000
0000
0000
,
1000
0001
0100
0000
0100
0000
0100
0010
2000
0000
0000
0000
3001
0010
0100
1000
,
0001
0100
0010
1000
0002
0000
0010
0000
0013
0000
0001
0000
2000
0000
3000
0000
,
0001
0200
0010
0000
0310
0000
0000
1000
0000
0000
0001
0000
0010
0000
0100
0000
,
0100
0000
0010
0000
0001
0100
0000
1000
0000
0000
1000
0000
1000
0000
1000
0000
,
0000
0000
0100
0001
1000
0000
0100
0000
1100
0000
0001
0000
0100
0000
0010
0000
,
1000
0001
0000
0000
0011
0000
0000
0000
1100
0000
0001
0000
0100
0000
1010
0000
,
0000
0000
0000
0000
0000
0000
0001
0000
M011
0M00
M000
0000
1000
0000
0000
0000
,
0M00
0001
0001
0000
1010
0000
0000
0000
,
1000
0000
0000
0010
0101
0000
1000
0000
,
00M0
010M
0100
00M0
0011
0000
1000
0000
,
1000
0000
0000
0001
0101
0000
1000
0000
,
00M0
0100
0100
0000
0110
0000
0000
0000
,
M001
0000
0000
1000
101M
0000
0001
0000
,
0000
0000
0010
0000
0010
0000
0000
0000
1100
0000
0000
0000
000M
00M0
000M
0000
,
0001
0000
0000
1000
1100
0000
0001
0000
,
0M00
1000
1000
0000
0101
0000
0000
0000
,
0001
0000
0000
0100
1010
0000
0001
0000
,
0M00
M010
0010
M000
1100
0000
0001
0000
,
0001
0000
0000
1000
1010
0000
0001
0000
,
0000
0010
0010
0000
0110
0000
0000
0000
,
1000
0000
0000
0001
0101
0000
1000
0000
,
0000
0100
0100
0000
0011
0000
1000
0000
,
0010
0000
0000
1000
0000
0000
0001
0000
,
0000
0010
0000
0000
0100
0000
0000
1000
,
1000
0000
0000
0001
0000
0000
0100
0000
,
M000
0000
001M
0000
0000
0000
1M00
0001
1000
0000
0000
0100
000M
00M0
M010
0000
,
0001
0000
0000
1000
0000
0000
0010
0000
,
M100
0000
00M1
0000
0000
0000
M000
1000
0100
0000
0000
0000
0010
0000
0010
0000
,
0010
0000
0000
0001
0000
0000
1000
0000
,
0000
0000
0010
0000
0000
0000
0100
0001
0100
0000
0000
0010
0000
0010
1000
0000
,
0001
0000
0010
0100
1000
0000
0001
0000
,
1000
0000
0010
0000
0100
0000
0000
0010
1000
0000
0000
0000
0100
0000
0010
0000
,
0001
0000
1000
0001
0010
0000
0100
0000
,
M010
0000
0M01
0000
1000
0000
00M0
0001
0100
0000
0000
0000
M010
000M
1M00
0000
,
0001
0000
0010
0001
1000
0000
0010
0000
,
0100
0000
0001
0000
1000
0000
0000
0100
0010
0000
0000
0000
0100
0000
1000
0000
,
0010
0010
1000
1000
0001
0001
0010
0010
,
0100
1000
0100
1000
0001
1000
0001
1000
0020
0000
0000
0030
0M00
0000
0000
0000
,
000M
M000
0M00
0000
0010
0000
1001
0000
,
1000
0000
0001
0000
0200
0000
0000
0300
1010
0000
1000
0000
0002
0000
0003
0000
,
1000
0000
0001
0100
0010
0100
0000
0000
0101
0000
1000
0000
0001
0000
0000
0000
,
1000
0100
0010
0000
0010
0000
0100
0010
0002
0000
0000
0000
1003
0010
0100
0001
,
1000
0010
0100
0010
2000
0000
0001
0000
3001
0000
0010
0000
0200
0000
0300
0000
,
0010
0002
1000
0000
1003
0000
0001
0000
0200
0000
0300
0000
0000
0000
0001
0000
,
0001
0000
1000
0000
0010
0100
0000
1000
0000
0000
1000
0000
1000
0000
1000
0000
,
0000
0000
0100
0010
1000
0000
0001
0000
0011
0000
1000
0000
0040
0000
0000
0000
,
0130
0001
0100
0001
00MM
0000
0011
0000
,
2000
0010
3020
0000
0130
0001
2000
3000
,
0100
0000
1000
0001
0100
0010
0000
0000
1010
0000
1000
0001
0010
0000
0000
0000
,
0001
1000
0010
0000
0010
0000
0010
0100
0002
0000
0000
0000
1003
0100
0010
0001
,
1000
0001
0100
0001
2000
0000
0100
0000
3100
0000
1000
0000
0002
0000
0003
0000
,
1000
0020
0100
0000
0130
0000
0000
0001
0000
0000
1000
0000
0100
0000
0010
0000
,
0010
0000
0100
0000
1000
0010
0000
0001
0000
0000
0001
0000
0001
0000
0001
0000
,
0000
0000
0010
1000
0001
0000
1000
0000
1100
0000
1000
0000
0001
0000
0100
0000
,
0101
1000
0000
0001
0011
1000
0002
0000
,
0000
0100
0103
0010
1010
0000
0000
0000
,
0M00
0000
0000
0000
;

//---------------dance-single - ----------------
#NOTEDATA:;
#CHARTNAME:;
#STEPSTYPE:dance-single;
#DESCRIPTION:;
#CHARTSTYLE:;
#DIFFICULTY:Medium;
#METER:7;
#RADARVALUES:0.422531,0.489676,0.039331,0.251721,0.062930,339.000000,5.000000,32.000000,1.000000,0.000000,8.000000,0.000000,0.000000,0.422531,0.489676,0.039331,0.251721,0.062930,339.000000,5.000000,32.000000,1.000000,0.000000,8.000000,0.000000,0.000000;
#CREDIT:;
#DISPLAYBPM:160.000000;
#NOTES:
0000
0000
0000
0000
,
0000
0000
0000
0000
,
0000
0000
0000
0000
,
0000
0000
0000
0000
,
0000
0000
0000
0000
,
0000
0000
0000
0000
,
0000
0000
0000
0000
,
0000
0000
0000
0000
,
1000
0000
0000
0001
0000
0000
0100
0000
,
0000
0010
0000
0000
0100
0000
0000
0001
,
0001
0000
0000
0010
0000
0000
0100
0000
,
0000
0010
0000
0000
0001
0000
1000
0010
,
0100
0000
0000
0001
0000
0000
1000
0000
,
0000
0100
0000
0000
0010
0000
0100
1000
,
0001
0000
0000
1000
0000
0000
0010
0000
,
0000
0100
0000
0001
1000
0000
0000
0000
,
0000
0000
0010
1001
,
2000
0000
0000
0000
3200
0000
0000
0300
0010
0000
0001
0000
0200
0000
0300
0000
,
0000
0001
1000
0100
0010
0001
1000
0000
,
0001
0010
0000
0000
0000
0000
0100
0000
2000
0000
0000
0000
3004
0000
0000
0000
,
0103
0000
0020
0000
1030
0001
0020
0030
,
0200
0000
1300
0001
0200
0300
0000
0010
,
0010
0000
1000
0000
0100
0010
0000
0001
0000
0000
0001
0000
0001
0000
0001
0000
,
0000
0010
0100
1000
0001
1000
0040
0000
,
1030
0001
1000
0001
0000
0000
1100
0000
,
0002
0000
0203
0000
0310
1000
0002
0003
,
0000
1000
0001
1000
0100
0010
0100
0000
,
1000
0001
0000
0000
0000
0000
0100
0000
0020
0000
0000
0000
4030
0000
0000
0000
,
3001
0000
0020
0000
0130
0010
0002
0003
,
2000
0000
0000
0000
3010
0000
0000
1000
0000
0000
0001
0000
0000
0000
0010
0000
,
0010
0000
0100
0000
1000
0100
0000
0010
0000
0000
0010
0000
0010
0000
0010
0000
,
0000
0001
1000
0010
0100
0001
1000
0100
,
0010
0000
1001
0000
1000
0001
0100
0010
,
0000
0000
0000
1000
0010
0000
0100
0000
,
0000
0001
1000
0000
0100
0000
0000
0000
,
0010
0000
0000
0001
1000
0000
0010
0000
,
0000
0100
0001
0000
1000
0000
0001
0000
,
0010
0000
0000
0100
1000
0000
0001
0000
,
0000
0100
0010
0000
0100
0000
0000
0000
,
0001
0000
0000
1000
0100
0000
0010
0000
,
0000
0100
1000
0000
0001
0000
0000
0000
,
1000
0000
0000
0010
0100
0000
0001
0000
,
0000
1000
0100
0000
0010
0000
0000
0000
,
0100
0000
0000
1000
0001
0000
0100
0000
,
0000
0010
1000
0000
0001
0000
1000
0000
,
1000
0000
0000
0100
0010
0000
0001
0000
,
0000
1000
0010
0000
0100
0000
0000
0000
,
0001
0000
0000
1000
0100
0000
1000
0000
,
0000
0001
0100
0000
0010
0000
1000
0000
,
0001
0000
0000
0010
0000
0000
0100
0000
,
0000
0010
0000
0000
0001
0000
0000
1000
,
0010
0000
0000
0100
0000
0000
0001
0000
,
0000
0000
1000
0000
0000
0000
0001
0000
1000
0000
0000
0001
0000
0000
0100
0000
,
0010
0000
0000
1000
0000
0000
0001
0000
,
0000
0100
0000
0000
0010
0000
1000
0001
,
1000
0000
0000
0001
0000
0000
1000
0000
,
0000
0000
0100
0000
0000
0000
0010
0000
0001
0000
0000
0010
0000
0000
0100
0000
,
1000
0010
0100
0001
,
1000
0001
0010
0100
,
1000
0001
0010
0100
,
0010
0001
1000
0010
,
0100
0001
1000
0100
,
0010
0100
1000
0001
,
1000
0010
1000
0010
1000
0010
1000
0010
,
4000
0000
0000
0000
0000
0000
0000
0000
3200
0000
0000
0300
0000
0000
0000
0000
,
0000
0000
0100
1001
,
0002
0000
0000
0000
0023
0000
0000
0030
0100
0000
1000
0000
0020
0000
0030
0000
,
0000
1000
0001
0010
0100
1000
0001
0000
,
1000
0100
0000
0000
0000
0000
0010
0000
0002
0000
0000
0000
4003
0000
0000
0000
,
3040
0000
0230
0000
0301
1000
0200
0300
,
0020
0000
0031
1000
0020
0030
0000
0100
,
0100
0000
0001
0000
0010
0100
0000
1000
0000
0000
1000
0000
1000
0000
1000
0000
,
0000
0100
0010
0001
1000
0001
0400
0000
,
0301
1000
0001
1000
0000
0000
0011
0000
,
2000
0000
3020
0000
0130
0001
2000
3000
,
0000
0001
1000
0001
0010
0100
0010
0000
,
0001
1000
0000
0000
0000
0000
0010
0000
0200
0000
0000
0000
0304
0000
0000
0000
,
1003
0000
0200
0000
0310
0100
2000
3000
,
0002
0000
0000
0000
0103
0000
0000
0001
0000
0000
1000
0000
0000
0000
0100
0000
,
0100
0000
0010
0000
0001
0010
0000
0100
0000
0000
0100
0000
0100
0000
0100
0000
,
0000
1000
0001
0100
0010
1000
0001
0010
,
0100
1000
0000
0001
0100
0010
2000
0000
,
0000
0001
3001
1000
0100
0000
0000
0000
,
000M
0000
0000
0000
;

//---------------dance-single - ----------------
#NOTEDATA:;
#CHARTNAME:;
#STEPSTYPE:dance-single;
#DESCRIPTION:;
#CHARTSTYLE:;
#DIFFICULTY:Easy;
#METER:5;
#RADARVALUES:0.297795,0.421829,0.055064,0.322517,0.000000,217.000000,7.000000,41.000000,0.000000,0.000000,0.000000,0.000000,0.000000,0.297795,0.421829,0.055064,0.322517,0.000000,217.000000,7.000000,41.000000,0.000000,0.000000,0.000000,0.000000,0.000000;
#CREDIT:;
#DISPLAYBPM:160.000000;
#NOTES:
// measure 0
0000
0000
0000
0000
,  // measure 1
0000
0000
0000
0000
,  // measure 2
0000
0000
0000
0000
,  // measure 3
0000
0000
0000
0000
,  // measure 4
0000
0000
0000
0000
,  // measure 5
0000
0000
0000
0000
,  // measure 6
0000
0000
0000
0000
,  // measure 7
0000
0000
0000
0000
,  // measure 8
1000
0000
0000
0100
,  // measure 9
0000
0000
0010
0000
,  // measure 10
0001
0000
0000
1000
,  // measure 11
0000
0000
0001
1000
,  // measure 12
0010
0000
0000
0100
,  // measure 13
0000
0000
0001
1000
,  // measure 14
0100
0000
0000
0010
,  // measure 15
0000
0000
0001
0000
,  // measure 16
0000
0000
0010
1001
,  // measure 17
2000
0000
3002
0000
0103
0000
0002
0003
,  // measure 18
0000
1000
0010
0100
,  // measure 19
0001
0000
0020
0032
,  // measure 20
1003
0000
0020
0000
0130
0000
0002
0003
,  // measure 21
2000
0000
3100
0000
0020
0030
0000
0000
,  // measure 22
0001
1000
0010
0100
,  // measure 23
0000
0010
1000
0200
,  // measure 24
1300
0001
1000
0001
0000
0000
1001
0000
,  // measure 25
0002
0000
0203
0000
0310
0000
2000
3000
,  // measure 26
0000
0001
0010
0100
,  // measure 27
1000
0001
0200
0320
,  // measure 28
1030
0000
0002
0000
0013
0000
0200
0300
,  // measure 29
2000
3001
0100
0000
,  // measure 30
0010
1000
0001
0010
,  // measure 31
0000
0100
1000
0001
,  // measure 32
0010
0000
0110
0000
1000
0000
0001
1000
,  // measure 33
0000
0000
0010
0100
,  // measure 34
0000
0001
1000
0000
,  // measure 35
0010
0000
0001
0010
,  // measure 36
0000
1000
0001
0100
,  // measure 37
0010
0000
0100
0001
,  // measure 38
0000
1000
0100
0000
,  // measure 39
0010
0000
0001
1000
,  // measure 40
0000
0010
0100
0000
,  // measure 41
0001
0000
1000
0100
,  // measure 42
0000
0010
0100
0000
,  // measure 43
1000
0000
0001
0100
,  // measure 44
0000
0010
1000
0001
,  // measure 45
0001
0000
0010
0100
,  // measure 46
0000
0010
0001
0000
,  // measure 47
1000
0000
0010
0100
,  // measure 48
0000
0010
1000
0001
,  // measure 49
1000
0000
0000
0100
,  // measure 50
0000
0000
0010
0000
,  // measure 51
0001
0000
0000
1000
,  // measure 52
0000
0000
0001
0000
,  // measure 53
0100
0000
0000
0010
,  // measure 54
0000
0000
1000
0001
,  // measure 55
0010
0000
0000
1000
,  // measure 56
0000
0000
0100
0000
,  // measure 57
0010
0001
0010
0001
,  // measure 58
1000
0010
1000
0010
,  // measure 59
0100
0001
0100
0001
,  // measure 60
1000
0001
1000
0001
,  // measure 61
0010
0100
1000
0100
,  // measure 62
0010
0100
1000
0001
,  // measure 63
0200
0000
0000
0000
,  // measure 64
0320
0000
0000
0000
0000
0000
0000
0000
2030
0000
0000
3000
0000
0000
0000
0000
,  // measure 65
0000
0000
0100
1001
,  // measure 66
0002
0000
2003
0000
3010
0000
2000
3000
,  // measure 67
0000
0001
0100
0010
,  // measure 68
1000
0000
0200
2300
,  // measure 69
3002
0000
0203
0000
0310
0000
2000
3000
,  // measure 70
0002
0000
0013
0000
0200
0300
0000
0000
,  // measure 71
1000
0001
0100
0010
,  // measure 72
0000
0100
0001
0020
,  // measure 73
0031
1000
0001
1000
0000
0000
1001
0000
,  // measure 74
2000
0000
3020
0000
0130
0000
0002
0003
,  // measure 75
0000
1000
0100
0010
,  // measure 76
0001
1000
0020
0230
,  // measure 77
0301
0000
2000
0000
3100
0000
0020
0030
,  // measure 78
0002
1003
0010
0000
,  // measure 79
0100
0001
1000
0100
,  // measure 80
0000
0010
0001
1000
,  // measure 81
0010
0000
0101
2000
,  // measure 82
0000
3000
1100
0000
;
