#TITLE:THE ONE;
#SUBTITLE:English ver.;
#ARTIST:BABYMETAL;
#TITLETRANSLIT:;
#SUBTITLETRANSLIT:;
#ARTISTTRANSLIT:;
#GENRE:;
#CREDIT:;
#BANNER:[Round F] - THE ONE - English ver..png;
#BACKGROUND:[Round F] - THE ONE - English ver.-bg.png;
#LYRICSPATH:;
#CDTITLE:cdtitle.png;
#MUSIC:[Round F] - THE ONE - English ver..ogg;
#OFFSET:-0.044603;
#SAMPLESTART:46.235497;
#SAMPLELENGTH:15.000000;
#SELECTABLE:YES;
#BPMS:0.000000=97.500000
;
#STOPS:
;
#BGCHANGES:0.000=[Round F] - THE ONE - English ver..avi=1.000=0=0=0=StretchNoLoop====,
174.000=[Round F] - THE ONE - English ver..avi=1.000=0=0=1===CrossFade_Fastest=#000000=,
99999=-nosongbg-=1.000=0=0=0 // don't automatically add -songbackground-
;
#KEYSOUNDS:;
#ATTACKS:;

//---------------dance-single - ----------------
#NOTES:
     dance-single:
     9646_BEG:
     Beginner:
     1:
     0.061919,0.080231,0.046110,0.064554,0.000000,47.000000,42.000000,5.000000,7.000000,0.000000,0.000000,0.061919,0.080231,0.046110,0.064554,0.000000,47.000000,42.000000,5.000000,7.000000,0.000000,0.000000:
// measure 0
0000
0000
0000
0000
,  // measure 1
0000
0000
0000
0000
,  // measure 2
0000
0000
0000
0000
,  // measure 3
1000
0000
0000
1000
,  // measure 4
0000
0000
0001
0000
,  // measure 5
0000
0001
0000
0000
,  // measure 6
0020
0000
0000
0030
,  // measure 7
0000
0000
0000
0000
,  // measure 8
0000
0000
0000
0000
,  // measure 9
0000
0000
0000
0000
,  // measure 10
0000
0000
0000
0000
,  // measure 11
0000
0000
0000
0000
,  // measure 12
0000
0000
0000
0200
,  // measure 13
0000
0000
0300
0000
,  // measure 14
0000
2000
0000
0000
,  // measure 15
3000
0000
0000
0002
,  // measure 16
0000
0000
0003
0000
,  // measure 17
0000
0020
0000
0000
,  // measure 18
0030
0000
0000
0100
,  // measure 19
0000
0000
0010
0000
,  // measure 20
0000
0001
0000
0000
,  // measure 21
1000
0000
0000
0010
,  // measure 22
0000
0000
0001
0000
,  // measure 23
0000
0100
0000
0000
,  // measure 24
1000
0000
0000
0010
,  // measure 25
0000
0000
0100
0000
,  // measure 26
0000
0001
0000
0000
,  // measure 27
1000
0000
0000
0100
,  // measure 28
0000
0000
0001
0000
,  // measure 29
0000
0010
0000
0000
,  // measure 30
1000
0000
0000
1001
,  // measure 31
0000
0000
1000
0000
,  // measure 32
0000
0001
0000
0000
,  // measure 33
1000
0000
0000
1001
,  // measure 34
0000
0000
0001
0000
,  // measure 35
0000
0010
0000
0000
,  // measure 36
0010
0000
0000
1001
,  // measure 37
0000
0000
1000
0000
,  // measure 38
0000
0100
0000
0000
,  // measure 39
0100
0000
0000
1001
,  // measure 40
0000
0000
0001
0000
,  // measure 41
0000
1000
0000
0000
,  // measure 42
0001
0000
0000
0220
,  // measure 43
0000
0000
0330
0000
;

//---------------dance-single - ----------------
#NOTES:
     dance-single:
     9646_BSP:
     Easy:
     3:
     0.193661,0.240693,0.101441,0.839197,0.036888,147.000000,136.000000,11.000000,91.000000,0.000000,0.000000,0.193661,0.240693,0.101441,0.839197,0.036888,147.000000,136.000000,11.000000,91.000000,0.000000,0.000000:
0000
0000
0000
0000
,
0000
0000
0000
0000
,
0000
0000
0000
0000
,
0002
0000
0000
2003
0000
0000
3002
0000
,
0000
0013
0010
0010
0200
0000
0000
2300
,
0000
0000
3020
0000
0000
0230
0000
0000
,
0302
0000
0000
0003
,
0000
2000
0000
0000
0200
0000
0000
3300
,
0000
0000
2000
0000
0000
3002
0000
0000
,
0203
0000
0000
0020
0000
0000
0330
0000
,
0000
0002
0000
0000
0020
0000
0000
0033
,
0000
0000
0002
0000
0000
2003
0000
0000
,
3020
0000
0000
0200
0000
0000
0330
0000
,
0000
0002
0000
0000
2000
0000
0000
3003
,
0000
0000
0002
0000
0000
0023
0000
0000
,
0230
0000
0000
2300
0000
0000
3002
0000
,
0000
0003
0000
0000
2000
0000
0000
3000
,
0000
0000
0020
0000
0000
0230
0000
0000
,
0302
0000
0000
2000
0000
3003
0220
0000
,
0330
0001
1000
0010
0200
0000
0000
0002
,
0000
0303
2200
0000
3300
1000
0001
0100
,
0020
0000
0000
2000
0000
3030
0202
0000
,
0303
0001
1000
0100
0020
0000
0000
0032
,
0000
0000
0203
0000
0000
0310
1000
0010
,
2000
0000
0000
0002
0000
3003
0220
0000
,
0330
1000
0001
0010
0200
0000
0000
2000
,
0000
3300
0202
0000
0303
0001
1000
0100
,
0020
0000
0000
0002
0000
0033
2200
0000
,
3300
1000
0001
0100
0020
0000
0000
0230
,
0000
0302
0000
0000
,
2000
0000
0000
0000
0000
3003
0220
0000
,
0330
0001
0010
0100
2000
0000
0000
3001
,
0001
0001
2000
0000
0000
3020
0000
0000
,
0032
0000
0000
0103
0000
0000
0200
0000
0000
1300
0000
0000
2002
0000
0000
0000
,
3003
1000
0010
0100
0002
0000
0000
1003
,
1000
1000
0002
0000
0000
0023
0000
0000
,
0230
0000
0000
1300
0000
0000
2000
0000
0000
3001
0000
0000
0220
0000
0000
0000
,
0330
1000
0010
0100
0002
0000
0000
1003
,
1000
1000
0002
0000
0000
0023
0000
0000
,
2030
0000
0000
3100
0000
0000
0200
0000
0000
0301
0000
0000
2002
0000
0000
0000
,
3003
0001
0010
0100
2000
0000
0000
3001
,
0001
0001
2000
0000
0000
3020
0000
0000
,
0230
0000
0000
0301
0000
0000
0002
0000
0000
1003
0000
0000
2002
0000
0000
0000
,
0000
0000
3003
0000
;

//---------------dance-single - ----------------
#NOTES:
     dance-single:
     9646_ESP:
     Hard:
     9:
     0.569126,0.681963,0.580983,0.765421,0.534873,432.000000,369.000000,63.000000,83.000000,0.000000,0.000000,0.569126,0.681963,0.580983,0.765421,0.534873,432.000000,369.000000,63.000000,83.000000,0.000000,0.000000:
0000
0000
0000
0000
,
0000
0000
0000
0000
,
0000
0000
0000
0000
,
1000
0010
0100
1000
0100
0010
1000
1000
0001
0001
0010
0010
0100
0001
0100
0010
,
0001
0100
0101
0000
1100
0000
1010
0000
0011
0010
0100
0010
0001
1000
0010
0010
,
0100
0100
0001
0001
1000
0100
0001
0100
1000
0001
1000
0010
0001
0010
1000
0100
,
0020
0000
0000
0030
,
0000
0002
2003
3020
0230
0000
0000
0300
,
0000
0000
0002
0000
2003
0000
0000
0000
0000
0000
3200
0000
0000
0302
0000
0000
,
0203
0000
0000
2300
0000
0000
3002
0000
,
0000
2003
3002
0203
0320
0000
0000
0030
,
0000
0000
2000
0000
3002
0000
0000
0000
0000
0000
0023
0000
0000
2030
0000
0000
,
3020
0000
0000
0032
0000
0000
2003
0000
,
0000
3020
0230
0302
0023
0000
0000
0030
,
0000
0200
0000
0000
2300
0000
0000
0000
0000
0000
3020
0000
0000
0032
0000
0000
,
2003
0000
0000
3200
0000
0000
0302
0000
0203
0000
0320
0000
2030
0000
0000
0000
,
0000
3000
0200
0302
2003
0000
0000
3000
,
0000
0020
0000
0000
0032
0000
0000
0000
0000
0000
2003
0000
0000
3020
0000
0000
,
0230
0000
0302
2000
0000
3003
1001
1100
,
0100
1000
0001
0000
0101
0000
0110
0000
2010
0000
3100
1000
0100
0010
0002
0000
,
1003
0100
1000
0001
1001
0000
1010
0000
0010
0100
0001
0000
0101
0000
1100
0000
,
0110
0000
0100
0010
0100
1000
0001
0001
1000
0010
0100
0010
2000
0000
3100
1000
,
0001
0100
0010
0000
1010
0000
0101
0000
1100
0000
0100
0010
0100
0000
0011
0000
,
0100
0010
0100
0000
2001
0000
3010
0100
0001
0100
0020
0000
2030
0000
3002
0000
,
1003
0100
0100
0001
0100
0100
1000
0001
0010
0200
0000
0300
1001
0000
0011
0000
,
0010
0001
1000
0000
1010
0000
0110
0000
0102
0000
0013
0001
0010
0100
2000
0000
,
3001
0010
0001
1000
0002
0000
0100
0000
0103
0010
1000
0000
1010
0000
0011
0000
,
0110
0000
0010
0100
0010
0001
1000
1000
0001
0100
0010
0100
0002
0000
0010
0000
,
1003
0010
0100
0000
0101
0000
1010
0000
0011
0000
0010
0200
0000
0300
1100
0000
,
0100
0020
0000
0030
1002
0000
0103
0010
1000
0010
0100
0001
0100
0010
1000
0001
,
0010
1000
1000
0010
0001
0001
0100
1000
1000
0100
0001
0001
2001
0000
0100
0000
,
3100
0010
0001
0000
0101
0000
0110
0000
2001
0000
3001
0010
0100
1000
0001
0000
,
1001
0000
0011
0000
1020
0000
0130
0001
1000
0100
0020
0000
0100
0000
0130
0000
,
2000
0000
3001
0010
1000
0010
0002
0000
1003
0010
0001
0010
2010
0000
0001
0000
,
3001
0010
0100
0000
1100
0000
1001
0000
0120
0000
0130
0010
1000
0001
0010
0000
,
1100
0000
0101
0000
0012
0000
1003
0100
1000
0000
2010
0000
3001
0100
0001
0000
,
1000
0100
1000
0010
0000
0010
1000
0100
0001
0100
1000
0001
1002
0000
0010
0000
,
0013
0100
1000
0000
1010
0000
0110
0000
1002
0000
1003
0100
0010
0001
1000
0000
,
1001
0000
1100
0000
0201
0000
0310
1000
0001
0010
0200
0000
0010
0000
0310
0000
,
0002
0000
1003
0100
0001
0100
1000
1000
0001
0100
1000
0100
0102
0000
1000
0000
,
1003
0100
0010
0000
0011
0000
1001
0000
0210
0000
0310
0100
0001
1000
0100
0000
,
0011
0000
1010
0000
2100
0000
3001
0010
0001
0000
0102
0000
1003
0010
1000
0000
,
0001
0010
0001
0100
0010
0100
0001
0010
1000
0010
0001
1000
2002
0000
0000
0000
,
0000
0000
3003
0000
;

//---------------dance-single - ----------------
#NOTES:
     dance-single:
     9646_DSP:
     Medium:
     6:
     0.357021,0.421212,0.138329,0.746978,0.101441,271.000000,256.000000,15.000000,81.000000,0.000000,0.000000,0.357021,0.421212,0.138329,0.746978,0.101441,271.000000,256.000000,15.000000,81.000000,0.000000,0.000000:
0000
0000
0000
0000
,
0000
0000
0000
0000
,
0000
0000
0000
0000
,
1000
0100
0001
0001
0100
1000
0001
0100
,
1000
0100
0100
0100
0001
0010
1000
1000
,
0010
0001
1000
0010
0001
0010
1000
0100
,
0020
0000
0000
0030
,
0000
0100
1000
0001
0020
0000
0000
0030
,
0000
0000
0100
0000
2000
0000
0000
0000
0000
0000
3020
0000
0000
0230
0000
0000
,
0302
0000
0000
2000
0000
0000
3003
0000
,
0000
0010
1000
0001
0200
0000
0000
0300
,
0000
0000
0010
0000
2000
0000
0000
0000
0000
0000
3200
0000
0000
0320
0000
0000
,
0032
0000
0000
2000
0000
0000
3003
0000
,
0000
0001
0010
0100
0020
0000
0000
0030
,
0000
0001
0000
0000
2000
0000
0000
3000
0000
0000
0020
0000
0000
0130
0000
0000
,
0002
0000
0000
1003
0000
0000
0100
0000
0010
0000
0100
0000
2000
0000
0000
0000
,
0000
3000
0001
0100
0020
0000
0000
0030
,
0000
0200
0000
0000
0302
0000
0000
0000
0000
0000
0023
0000
0000
0230
0000
0000
,
2300
0000
0000
0002
0000
3003
2001
0010
,
3010
0010
0100
0001
0020
0100
0130
0100
,
0001
0100
2000
0001
3001
0001
0100
1000
,
0200
0000
0010
0000
0310
0000
0010
1000
0001
1000
0001
0000
2000
0000
0100
0000
,
3100
0000
0100
0000
0010
0000
0001
0000
2000
0000
0000
3100
0000
0000
0002
0000
,
0000
0103
0000
0000
1000
0000
0010
0000
0010
0000
0001
0000
0100
0000
0100
0000
,
1000
0000
0100
0000
0010
0000
0002
0000
0000
2000
0000
3003
2001
0000
0100
0000
,
3100
0100
0010
0001
0200
0010
0310
0010
,
0001
0010
2000
0001
3001
0001
0010
1000
,
0020
0000
0100
0000
0130
0000
0100
1000
0001
1000
0001
0000
2000
0000
0010
0000
,
3010
0000
0010
0000
0100
0000
0001
0000
2000
0000
0000
3010
0000
0000
0002
0000
,
0000
0013
0000
0000
1000
0000
0100
0000
0100
0000
0001
0000
0010
0000
0010
0000
,
1000
0000
0010
0000
0100
0000
0002
0000
0000
2000
0000
3003
2001
0000
0100
0000
,
3100
0200
0302
2003
3020
0001
0031
0001
,
1000
1010
0210
0001
0301
0002
0010
0013
,
0010
0000
1000
0000
1000
0000
0010
0000
0100
0010
0100
0000
1002
0000
0010
0000
,
0010
0023
0230
2300
3020
0001
0031
0001
,
0010
1010
0201
0010
0310
0020
1000
1030
,
1000
0000
0100
0000
0100
0000
0002
0000
0000
0203
0000
0300
2001
0000
0010
0000
,
3010
0020
0032
2003
3200
0001
0301
0001
,
1000
1100
0120
0001
0031
0002
0100
0103
,
0100
0000
1000
0000
1000
0000
0200
0000
0000
0320
0000
0030
1002
0000
0100
0000
,
0100
0203
0320
2030
3200
0001
0301
0001
,
0100
1100
0021
0100
0130
0200
1000
1300
,
2000
0000
0000
3020
0000
0000
0032
0000
0000
0023
0000
0030
0220
0000
0000
0000
,
0000
0000
0330
0000
;
