#TITLE:Salt lake Lostman;
#SUBTITLE:;
#ARTIST:校庭カメラガールツヴァイ;
#TITLETRANSLIT:;
#SUBTITLETRANSLIT:;
#ARTISTTRANSLIT:Koutei Camera Girl Zwei;
#CREDIT:;
#BANNER:Salt lake Lostman.png;
#BACKGROUND:Salt lake Lostman-bg.png;
#LYRICSPATH:;
#CDTITLE:;
#MUSIC:[Round F] - Salt lake Lostman.ogg;
#OFFSET:-0.070;
#SAMPLESTART:88.685;
#SAMPLELENGTH:15.000;
#SELECTABLE:YES;
#DISPLAYBPM:130.000;
#BPMS:0.000=130.000;
#STOPS:;
#BGCHANGES:;

//---------------dance-single - ----------------
#NOTES:
     dance-single:
     :
     Hard:
     6:
     0.309,0.373,0.008,0.150,0.000:
0000
0000
0000
0000
,
0000
0000
0000
0000
,
0000
0000
0000
0000
,
0000
0000
0000
0000
,
0010
0000
0100
0010
0100
0000
0001
0000
,
0010
0000
0100
1000
0100
0000
0010
0000
,
0001
0000
0100
0010
0100
0000
0010
0000
,
1000
0000
0100
0000
0010
0001
0010
0000
,
0100
1000
0001
0100
,
1000
0100
0001
1000
,
0100
0000
0010
0000
0001
0100
0001
0000
,
0010
0000
0100
0000
1000
0010
1000
0000
,
0001
0010
0100
1000
,
0010
0100
0001
0100
0010
0000
1000
0000
,
0100
1000
0010
0100
,
0010
0000
1000
0100
1000
0010
0100
0000
,
0001
0100
0010
1000
,
0010
0000
0100
0000
0010
1000
0010
0000
,
0100
0001
0010
1000
,
0010
0000
0100
0000
0001
1000
0001
0000
,
0100
0000
0010
0000
1000
0100
1000
0000
,
0010
0000
0100
0000
0001
0010
0001
0000
,
0100
0000
0010
0000
1000
0001
1000
0000
,
0010
0000
0100
0000
0001
1000
0001
0000
,
0100
0000
0100
0000
0000
0010
0000
0010
,
1000
0100
0010
0001
0100
0010
1000
0000
,
1000
0000
0001
0000
0100
0010
0100
0000
,
0001
1000
0100
1000
0010
0100
0001
0000
,
0100
0010
0100
0010
0000
1000
0100
1000
,
0000
0001
0100
0001
0000
0010
0100
1000
,
0010
0100
0001
0010
0100
1000
0010
2000
,
0000
0000
0000
3000
,
0100
0010
0002
0000
,
0103
0000
0001
0100
0000
0101
0000
0000
,
0000
0000
0000
0000
1000
1000
0000
0200
,
0000
0000
0000
0000
,
0310
0000
0000
0001
0002
0000
0000
0103
,
0000
0000
0000
0100
0020
0000
0000
1030
,
0000
0000
0000
1000
1000
0000
0010
0100
,
0020
0000
0000
0030
1000
0100
1000
0000
,
0010
0000
2000
0000
,
3001
1000
0001
0100
0000
0002
0000
0003
,
0000
0000
0000
0000
0100
0010
0000
2000
,
0000
0000
0000
0000
,
3000
0010
0100
0010
,
0000
0000
1000
0000
0100
0000
1000
0020
,
0000
0000
0000
0000
,
0000
0000
0030
0000
,
0100
0001
0010
0001
,
0100
0010
0100
0001
,
0010
0100
2000
0001
,
0001
0000
0001
0000
0001
3000
0001
1000
,
0001
0100
0010
0100
,
0001
0010
0001
1000
,
0100
0000
1000
0000
0020
0000
0000
0130
,
0200
0000
0000
0000
0000
0000
0300
0010
,
0100
0001
0010
0100
,
1000
0010
0100
0001
,
1000
0100
0020
0001
,
0001
0001
0001
0031
,
0200
0000
0000
0000
1300
0000
0000
1000
,
2000
0000
0000
0000
3000
0000
0000
0001
,
0002
0000
0000
0000
0103
0000
0000
0001
,
0002
0000
0000
0000
0000
0000
1003
1000
;

//---------------dance-single - ----------------
#NOTES:
     dance-single:
     :
     Medium:
     4:
     0.245,0.240,0.000,0.117,0.000:
0000
0000
0000
0000
,
0000
0000
0000
0000
,
0000
0000
0000
0000
,
0000
0000
0000
0000
,
0010
0100
0010
1000
,
0100
1000
0100
0010
,
0001
0100
0010
0100
,
0001
0010
0100
1000
,
0010
0100
0001
0100
,
0010
0100
0010
1000
,
0010
0100
0001
0010
,
0100
1000
0100
1000
,
0010
0100
0010
1000
,
0100
0010
0001
0100
,
0010
0100
0001
0010
,
0001
1000
1000
0010
,
0100
0010
1000
0100
,
1000
0001
0001
0100
,
0010
0100
0001
1000
,
0001
0100
0010
1000
,
0010
0100
0001
0010
,
0001
0100
0010
0100
,
0001
0010
0001
1000
,
1000
0010
0100
0010
,
1000
0000
0001
0000
0000
0100
0000
0010
,
1000
1000
0010
0010
,
0100
0100
0001
0001
,
0010
0100
1000
1000
,
0010
0100
0001
0001
,
0100
0010
1000
1000
,
0010
0000
0100
0100
0100
0000
0001
0002
,
0000
0000
0000
0003
,
1000
0100
2000
0000
,
3001
0000
0001
0100
0000
0010
0000
0000
,
0000
0000
0000
0000
1000
0000
0000
1000
,
0000
0000
0000
0000
,
0001
0000
0000
0100
0200
0000
0000
0300
,
0000
0000
0000
0010
0020
0000
0000
0030
,
0000
0000
1000
0000
,
2000
0000
0000
3000
0010
0000
0100
0000
,
0001
0000
0200
0000
,
0300
0000
0010
0100
0000
0020
0000
0030
,
0000
0000
0000
0000
1000
0000
0000
1000
,
0000
0000
0000
0000
,
0000
0001
0100
0001
,
0000
0000
1000
0000
0010
0000
0100
0200
,
0000
0000
0000
0000
,
0000
0000
0300
0000
,
0001
0001
0100
0100
,
0010
0010
1000
1000
,
0001
0001
1000
0001
,
1000
0010
0100
0010
,
1000
0001
0100
0001
,
1000
0010
0100
0001
,
0100
0000
0010
0000
2000
0000
0000
3000
,
0002
0000
0000
0003
,
0100
0010
0100
0001
,
1000
0001
0100
0010
,
1000
0100
0010
0001
,
1000
0100
0010
0001
,
0200
0000
0300
0000
,
0020
0000
0030
0000
,
2000
0000
3000
0000
,
0002
0000
0000
0000
0000
0000
0003
0100
;

//---------------dance-single - ----------------
#NOTES:
     dance-single:
     :
     Easy:
     2:
     0.146,0.240,0.025,0.017,0.000: // measure 1
0000
0000
0000
0000
,  // measure 2
0000
0000
0000
0000
,  // measure 3
0000
0000
0000
0000
,  // measure 4
0000
0000
0000
0000
,  // measure 5
0010
0000
0100
0000
,  // measure 6
0010
0000
1000
0000
,  // measure 7
0001
0000
0100
0000
,  // measure 8
0010
0000
0100
0000
,  // measure 9
0001
0000
0001
0000
,  // measure 10
1000
0000
1000
0000
,  // measure 11
0010
0100
0010
0000
,  // measure 12
1000
0001
1000
0000
,  // measure 13
0010
0000
0100
0000
,  // measure 14
0001
0000
1000
0000
,  // measure 15
0010
0000
0100
0000
,  // measure 16
0001
0000
1000
0000
,  // measure 17
0010
0000
0000
0000
,  // measure 18
0110
0000
0000
0000
,  // measure 19
0100
0000
0000
0000
,  // measure 20
0110
0000
0000
0000
,  // measure 21
0001
0001
1000
1000
,  // measure 22
0001
0001
1000
1000
,  // measure 23
0010
0000
0100
0000
,  // measure 24
0010
0000
0100
0000
,  // measure 25
0001
0000
0001
0000
0000
1000
0000
1000
,  // measure 26
0000
0010
0000
0100
,  // measure 27
0000
0001
0000
1000
,  // measure 28
0000
0010
0000
0100
,  // measure 29
0001
1000
0001
0100
,  // measure 30
0010
1000
0010
0100
,  // measure 31
0001
0000
0000
0000
1000
0000
0000
0020
,  // measure 32
0000
0000
0000
0000
0000
0000
0000
0030
,  // measure 33
0000
0000
0100
0000
,  // measure 34
0000
0000
0000
0001
0000
0001
0000
0000
,  // measure 35
0000
0000
0000
0000
1000
0000
0000
1000
,  // measure 36
0000
0000
0000
0000
,  // measure 37
0010
0000
0000
0000
0100
0000
0000
0100
,  // measure 38
0000
0000
0000
0000
0001
0000
0000
0001
,  // measure 39
0000
0000
1000
0000
,  // measure 40
0010
0000
0100
0100
,  // measure 41
0010
0000
0000
0000
,  // measure 42
1000
0000
0000
0100
0000
0100
0000
0000
,  // measure 43
0000
0000
0000
0000
0001
0000
0000
0001
,  // measure 44
0000
0000
0000
0000
,  // measure 45
0100
0000
1000
0000
,  // measure 46
0001
0000
0000
0000
0100
0000
0000
0002
,  // measure 47
0000
0000
0000
0000
,  // measure 48
0000
0000
0000
0003
0000
0000
0000
0000
,  // measure 49
1000
0000
0010
0000
,  // measure 50
0100
0001
1000
0000
,  // measure 51
0010
0000
0010
0000
,  // measure 52
0000
0000
0000
0000
,  // measure 53
0100
0000
0001
0000
,  // measure 54
1000
0001
0100
0000
,  // measure 55
0010
0000
1000
0000
,  // measure 56
0010
0000
0000
0000
,  // measure 57
0100
0000
0100
0000
,  // measure 58
0010
0010
0010
0000
,  // measure 59
1000
0000
0001
0000
,  // measure 60
0000
0000
0000
0000
,  // measure 61
1000
0000
0010
0000
,  // measure 62
0100
0000
0000
0000
,  // measure 63
0001
0000
0100
0000
,  // measure 64
0010
0000
0000
0000
0000
0000
0000
1001
;
