#TITLE:恋は白帯、サンシロー;
#SUBTITLE:;
#ARTIST:星野奏子;
#TITLETRANSLIT:Koi wa shiroobi, Sanshiro;
#SUBTITLETRANSLIT:;
#ARTISTTRANSLIT:Kanako Hoshino;
#GENRE:KANA-POP;
#CREDIT:;
#BANNER:[Round F] - Koi wa shiroobi Sanshiro.png;
#BACKGROUND:[Round F] - Koi wa shiroobi Sanshiro-bg.png;
#LYRICSPATH:;
#CDTITLE:cdtitle.png;
#MUSIC:[Round F] - Koi wa shiroobi Sanshiro.ogg;
#OFFSET:-0.501000;
#SAMPLESTART:39.758999;
#SAMPLELENGTH:10.971428;
#SELECTABLE:YES;
#BPMS:0.000000=175.000000
,204.000000=87.500000
,212.000000=175.000000
;
#STOPS:212.000000=1.029000
;
#BGCHANGES:;
#KEYSOUNDS:;
#ATTACKS:;

//---------------dance-single - ----------------
#NOTES:
     dance-single:
     :
     Challenge:
     10:
     0.799727,0.870813,0.374801,0.326954,0.390750,702.000000,655.000000,47.000000,41.000000,12.000000,0.000000,0.799727,0.870813,0.374801,0.326954,0.390750,702.000000,655.000000,47.000000,41.000000,12.000000,0.000000:
0000
0000
0000
0000
,
0000
0000
0000
0000
,
0000
0000
0000
0000
0000
1000
0010
0001
,
0010
0001
0010
1000
0010
1000
0100
0010
,
0001
0000
1000
0010
1000
0000
0001
0100
0001
0000
1000
0001
0010
0000
0100
0000
,
0120
0000
0000
0000
0031
0000
0100
0010
1000
0000
0010
0000
1000
0000
0100
0010
,
0001
1000
0010
0120
0000
0100
0130
0000
,
1001
0000
1001
0000
1000
0010
1000
0010
0100
0000
0000
0000
1001
0000
1001
0000
,
0001
0010
0001
0010
0100
0000
0000
0000
0110
0000
1002
0000
0000
0000
0000
0000
,
1003
0100
1000
0100
1000
0001
1000
0001
1000
0010
1000
0010
0100
0001
0100
0020
,
2000
0000
0000
0000
3030
1000
0010
0100
,
0001
0010
0001
0010
0001
0100
0001
0100
,
1000
0100
0010
1000
0000
1000
0010
0100
,
0001
0010
0001
0010
1000
0010
0001
0100
,
0020
0000
0000
0000
1030
0000
0000
0010
1000
0000
0001
0000
0010
0000
0100
0000
,
1000
0010
1000
0010
1000
0100
1000
0100
,
0001
0100
0010
0001
0000
0001
0100
0010
,
1000
0010
1000
0100
0001
0100
1000
0001
,
0200
0000
0010
0310
0000
0010
1000
0000
,
1001
2001
000M
0100
0100
0000
3100
0000
,
1000
0100
0000
0010
0001
0000
0001
0000
,
1001
1002
M000
0100
0100
0000
0103
0000
,
0100
0000
0001
0000
0010
0000
1000
0000
0010
0000
0001
0000
0100
0000
0010
1000
,
0001
0000
0010
0000
0012
0000
0000
0000
1003
0010
1000
0000
0001
0000
1000
0000
,
0100
0000
0010
0000
0100
0000
0001
0000
0100
0010
0100
0000
1000
0000
0001
0000
,
0100
0010
1000
0100
1000
0010
0001
0010
,
1000
0000
0100
0000
0010
0000
0001
0000
0100
0010
1000
0000
0010
0000
1000
0000
,
2001
0000
3100
0100
0020
0001
0000
0031
,
0010
1000
0010
0001
0000
0001
0001
0001
,
1000
0010
0100
0010
0001
0010
0100
0010
,
1000
0100
0001
0100
1000
0010
0010
0100
,
0101
0011
1100
1010
,
1000
0000
0010
0000
0001
0000
0010
0000
1000
0100
1000
0100
0010
0001
1000
0100
,
0010
0001
0100
0001
0010
1000
0010
0001
,
0100
0010
1000
0100
0001
0100
1000
0010
,
1010
0000
0000
0000
0011
0000
0000
0000
0010
0000
0001
0000
0100
0000
2000
0M00
,
0000
0000
0100
0000
0100
0000
3100
0000
0010
0100
0010
0100
0001
1000
0001
1000
,
0100
0010
0100
1000
1002
0000
0103
0010
,
1000
0100
0001
0100
1000
0010
0010
1000
,
0001
0001
0010
0010
0100
0100
1000
1000
,
0010
0000
0001
0000
0010
0000
1000
0000
0100
0010
0100
0010
0001
1000
0100
0010
,
0001
0000
0100
0000
0001
0000
0100
0000
0010
0000
1000
0000
0010
0000
1000
0001
,
1000
0100
0001
0100
1000
0010
0100
0001
,
0011
0000
0000
0000
1010
0000
0000
0000
0010
0000
1000
0000
0100
0000
0002
0M00
,
0000
0100
0100
0103
0010
0001
0100
0001
,
0201
0000
0000
0000
0310
0000
0000
0000
1010
0000
1000
0000
0001
0000
0020
000M
,
0000
0100
0100
0100
0200
0000
0330
0000
,
0002
0100
0103
0010
2000
0100
3100
0010
,
0200
0000
1000
0000
1300
0000
0010
0000
0200
0000
0001
0000
0301
0100
0001
0000
,
1000
0000
0100
0010
0001
0000
1000
0000
0001
0000
0100
0010
1000
0000
0001
0000
,
1000
0001
1000
0001
1000
0001
1000
0002
2000
0000
0000
0000
3003
0000
0000
0000
,
0001
0100
0001
0100
0001
0000
0100
0000
0020
0000
0000
0000
1030
0000
2000
0000
0000
0000
3002
0000
0000
0000
0013
0100
0020
0000
0000
0000
0030
0000
0000
0000
,
0010
0001
0001
0100
2000
0000
3200
0000
0302
0000
0000
1003
0100
0000
0010
0000
,
MMMM
0000
0000
0000
0001
0100
0001
0100
0010
1000
0010
1000
0001
0000
1000
0000
,
1000
1000
0001
0010
0100
0010
1000
0010
,
0100
0010
0001
0100
1000
0100
0001
0010
,
0010
0100
1100
0000
1010
0000
0101
0000
,
0011
0000
0000
0000
0001
0000
0010
0000
1000
0000
0010
0000
0001
0100
0001
0100
,
0010
1000
0001
0100
0010
0000
1000
0000
0100
0000
1000
0000
0010
0000
0001
0000
,
0010
1000
0100
0010
0001
0100
1000
0100
,
0001
0010
0011
0000
1010
0000
0010
1000
,
0100
0000
0002
0M00
0000
0000
0100
0000
0100
0000
0103
0000
0010
0100
0010
0100
,
1000
0001
1000
0001
0100
0000
0010
0000
0100
0000
0001
0000
0100
0000
1000
0000
,
0100
0001
0010
1000
0010
0001
0100
0010
,
1000
0100
0011
0000
1100
0000
1010
0010
,
0101
0000
0000
0000
1000
0000
0100
0000
0001
0000
0100
0000
1000
0010
1000
0010
,
0100
0001
1000
0010
0100
0000
0001
0000
0100
0000
0001
0000
0010
0000
0001
0000
,
1000
0000
0010
0100
0010
0000
0001
0000
0010
0000
1000
0000
0100
0000
0001
0000
,
0100
1000
1010
0000
0011
0000
0010
0001
,
0100
0000
2000
0M00
0000
0000
0100
0000
0100
0000
3100
0000
0010
0000
1000
0000
,
0100
1000
1200
0000
0310
0000
0011
0001
,
1000
0000
0020
M000
0000
0000
0100
0000
0100
0000
0100
0000
0200
0000
0000
0000
,
0330
0000
0010
1000
0100
0010
0001
0010
,
0001
0100
0001
0100
1000
0100
0010
1000
,
0100
0000
0010
0000
0001
0000
0010
0000
1000
0000
0010
0000
0001
1000
0001
0000
,
0100
0000
0010
0000
1000
0000
1000
0000
0100
0000
0100
0000
0010
0001
0010
0001
,
1000
0100
0010
0001
1000
0000
0010
0000
0100
0000
0001
0000
0100
0000
0001
0000
,
0010
0000
0001
0000
0010
0000
0001
0100
0001
0000
1000
0010
1000
0000
0001
1000
,
0100
0000
0010
0000
0210
0000
0000
0000
1300
0000
0010
0100
0001
0000
0100
0000
,
0001
0000
0010
0100
1000
0000
0001
0000
0100
0000
0120
0000
0000
0000
0100
0000
,
0130
0000
0000
0000
1001
0000
1001
0000
0001
0010
0001
0010
0100
0000
0000
0000
,
1001
0000
1001
0000
1000
0010
1000
0010
0100
0000
0000
0000
0110
0000
2001
0000
,
0000
0000
0000
0000
3001
0100
0001
0100
0001
1000
0001
1000
0001
0010
0001
0010
,
0100
1000
0100
0020
0002
0000
0000
0000
0000
0000
0000
0000
0000
0000
0000
0000
,
0033
0000
0000
0000
;

//---------------dance-single - ----------------
#NOTES:
     dance-single:
     :
     Hard:
     9:
     0.631123,0.736842,0.358852,0.653907,0.031898,554.000000,509.000000,45.000000,82.000000,4.000000,0.000000,0.631123,0.736842,0.358852,0.653907,0.031898,554.000000,509.000000,45.000000,82.000000,4.000000,0.000000:
0000
0000
0000
0000
,
0000
0000
0000
0000
,
0000
0000
0000
0000
0000
0001
0010
2000
,
0000
3010
0001
0200
0000
1300
0100
0002
,
0000
0013
0010
0001
0001
1000
1000
0010
,
1020
0000
0130
0001
0020
0000
0130
1000
,
0010
0001
0010
1020
0000
0100
0130
0000
,
0001
0001
0010
0100
2000
0000
3001
0001
,
0010
0100
2000
0000
3001
2002
0000
3003
,
0101
1010
1100
0011
,
2002
0000
0000
0000
3003
0001
0010
0100
,
1000
0010
1000
0010
1000
0100
0000
0200
,
0000
0301
0100
1000
0000
1000
0010
0100
,
0002
0000
0023
0000
1030
0010
0001
0100
,
2000
0000
0000
0000
3100
0000
0000
0100
0010
0000
1000
0000
0010
0000
0100
0000
,
0001
0010
0001
0010
0001
0100
0000
0200
,
0000
1300
0100
0001
0000
0001
0100
0010
,
2000
0000
3100
0010
0100
2000
0000
3002
,
0000
0000
0100
0103
0000
0010
1000
0000
,
1001
1000
0200
0000
0000
0310
0100
1000
,
0000
1010
0000
0110
0000
0202
0000
0303
,
1001
0001
0200
0000
0000
0310
0100
0002
,
0000
0013
0001
0010
0100
1000
0001
0100
,
0010
1000
1002
0000
0103
0001
1000
0100
,
0000
1100
0000
0011
0000
0010
0001
1000
,
0020
0000
0130
0010
1000
0200
0000
0310
,
0002
0000
1003
0010
0100
0001
1000
0100
,
0020
0000
0031
0100
0020
0000
1030
0010
,
0001
0010
1000
0100
0000
0010
0100
0010
,
0001
0100
0001
0100
1000
0100
1000
0100
,
0010
0100
0001
1000
0000
1000
0100
0010
,
0011
1100
1010
0101
,
0001
0010
1000
0010
0002
0000
0203
0000
,
0310
0000
1001
0000
1000
0010
1000
0100
,
0001
0100
1000
0010
0000
0100
0001
1000
,
1100
0000
0011
0000
0001
0100
0010
2000
,
0000
3010
0001
0010
1000
0001
0100
0010
,
1000
0100
1000
0100
0001
0000
0001
0100
,
1000
0010
0100
0001
0000
1000
0100
0010
,
0001
0100
0010
0100
0001
0100
0010
0100
,
1000
0100
0001
0010
0200
0000
2300
0000
,
3001
0100
0010
1000
0100
1000
0001
0100
,
1000
0100
0001
0010
0000
0001
1000
0001
,
0101
0000
1010
0000
1000
0100
0010
0002
,
0000
0013
1000
0010
0001
0100
0010
1000
,
2001
0000
3100
0000
1000
0100
0010
0002
,
0000
1000
1000
1000
2000
0000
3003
0000
,
0002
0000
0103
0010
2000
0000
3100
0010
,
0002
0000
0103
0010
2000
0000
3100
0010
,
0001
0100
0001
0100
0010
1000
0010
1000
,
0100
0010
0001
0100
0020
0000
0030
0000
,
2000
0000
3010
0100
0102
0000
0010
0023
0000
0230
0000
0310
2001
0000
0000
0000
,
3001
0100
0010
1000
0200
0000
0310
0000
0021
0000
0000
1000
1000
0000
0031
0000
,
MMMM
0000
2002
0000
0000
0000
3003
0001
,
0100
0010
1000
0100
1000
0100
0001
0100
,
0001
0100
0010
0100
1000
0001
0000
0001
,
0100
0010
1010
0000
0101
0000
0011
0000
,
1100
0000
1000
0010
0001
0010
2000
0000
,
3200
0000
0310
0001
0100
0001
0010
0001
,
0100
0010
0100
1000
0100
0001
0000
0010
,
0001
0100
0101
0000
1010
0000
1000
0100
,
0010
0002
0000
0013
1000
0010
0001
0100
,
0020
0000
1030
0010
1000
0010
0001
0010
,
0001
0010
1000
0100
0010
0001
0000
0001
,
0100
0010
0110
0000
1001
0000
1000
0100
,
0110
0000
1000
0100
0001
0100
2000
0000
,
3020
0000
0130
0001
0010
0001
0100
0010
,
1000
0100
0001
0100
1000
0010
0000
1000
,
0001
1000
1100
0000
0011
0000
0001
0100
,
0010
2000
0000
3010
0001
0010
1000
0100
,
0010
0001
1002
0000
0103
0000
0001
0100
,
0010
2000
0000
0001
0001
0001
0002
0000
,
3003
0000
1000
0100
0010
0002
0000
0103
,
0001
0020
0000
1030
0010
0002
0000
0103
,
0010
1000
0001
0100
0001
0100
1000
0100
,
1000
0100
0001
0010
0100
2000
0000
0100
,
3100
0010
0001
0100
0010
2000
0000
3100
,
0010
0002
0000
1003
1000
0010
0010
0100
,
0100
0001
0021
0000
0130
1000
0020
0000
,
0130
0001
0010
1000
0010
0021
0000
0100
,
0130
0000
1000
1000
0010
0100
0002
0000
,
1003
1000
0010
0100
0002
0000
1003
2002
,
0000
3003
2000
0000
3200
0000
0302
0000
,
0023
2000
0000
0000
,
3030
0000
0000
0000
;

//---------------dance-single - ----------------
#NOTES:
     dance-single:
     :
     Medium:
     7:
     0.472773,0.602871,0.303030,0.629984,0.015949,415.000000,377.000000,38.000000,79.000000,0.000000,0.000000,0.472773,0.602871,0.303030,0.629984,0.015949,415.000000,377.000000,38.000000,79.000000,0.000000,0.000000:
0000
0000
0000
0000
,
0000
0000
0000
0000
,
0000
0000
0000
0000
0000
0001
0010
0002
,
0000
1003
0100
2000
0000
3010
1000
0020
,
0000
1030
0100
0000
0001
0000
0100
0000
,
2200
3300
0022
0033
,
0001
0100
0010
2000
0000
0000
3000
0000
,
0001
0010
0001
0010
0002
0000
1003
0010
,
1000
0010
2000
0000
3001
0020
0000
0000
,
0130
0100
0100
0100
,
2002
0000
3003
1000
,
0010
0000
0010
0000
1000
0100
0000
0002
,
0000
0103
0010
0100
0000
0100
1000
0000
,
0001
0000
0001
0000
1000
0010
0100
0001
,
2000
0000
0100
0000
3100
0010
0001
0000
,
0010
0000
0010
0000
0001
0100
0000
2000
,
0000
3100
0010
0100
0000
0100
0001
0000
,
1000
0000
0001
0100
0010
1000
0001
0000
,
0020
0000
0000
0130
0000
0000
0110
0000
,
1001
0000
2000
0000
0000
3001
0100
0001
,
0000
0020
0000
0032
0000
0200
0000
0303
,
1001
0000
0002
0000
0000
1003
0100
2000
,
0000
3010
0100
0001
,
1000
0000
2001
0000
0000
3100
0010
0002
,
0000
0203
0000
2300
0000
3100
0010
0000
,
0200
0000
0300
0001
1000
0200
0000
0310
,
0002
0000
0003
1000
0010
1000
0010
0100
,
0002
0000
0000
0013
0200
0000
0000
0310
,
0001
1000
0001
1000
0000
0001
0100
0010
,
1000
1000
0001
0001
,
1000
0100
1000
0100
0000
0010
0001
0000
,
0101
1010
1100
0011
,
0001
0100
0010
2000
0000
0000
3001
0000
,
1000
1000
0100
0010
,
0001
0100
0001
0100
0000
0010
1000
0000
,
1010
0000
1100
0000
0001
0010
0001
0020
,
0000
0100
0130
0010
,
0001
0001
1000
1000
,
0001
0100
0001
0100
0000
0010
1000
0000
,
1100
1001
0101
1001
,
1000
0100
0010
0002
0000
0000
1003
0000
,
0001
0100
0010
0000
1000
0010
0100
0000
,
0001
0100
0010
0000
1000
0000
0100
0000
,
0011
0000
0101
0000
1000
0010
1000
0020
,
0000
0100
0130
0010
,
2002
3003
0220
0330
,
0000
0001
1000
0001
1000
0000
0000
0000
,
2000
3100
0002
0103
,
2000
3010
0002
0013
,
1000
0100
0001
0010
,
1000
0100
0010
0001
2000
0000
3000
0000
,
0001
0000
0100
0000
0120
0000
0000
1030
0000
1000
0000
0100
0020
0000
0000
0000
,
0031
0000
0100
0000
2000
0000
3100
0000
0002
0000
0000
0013
0100
0000
1000
0000
,
1001
0000
0002
0000
0000
0000
0003
1000
,
0100
0010
0001
0000
0001
0000
1000
0000
,
1000
0000
0001
0100
0001
0100
0000
0010
,
1000
1100
0011
0101
,
1010
0000
1000
0100
0010
0002
0000
0000
,
1003
0001
0001
0100
,
0010
0000
1000
0100
1000
0100
0000
0010
,
0001
0000
0011
0000
0101
0000
1000
0010
,
1000
0020
0000
0000
0100
0000
0130
0000
,
0010
1000
0100
0001
,
0100
0000
1000
0010
1000
0010
0000
0100
,
0001
0000
0110
0000
1001
0000
1000
0001
,
1000
0000
0001
0100
0010
2000
0000
0000
,
3001
0000
1000
0100
0010
0000
0001
0010
,
0100
0000
1000
0100
0010
0000
0001
0000
,
0100
0000
1010
0000
1100
0000
0001
0010
,
0001
0020
0000
0000
0100
0000
0130
0000
,
0010
2002
3003
0220
,
0330
0000
0000
1000
0001
1000
0001
0000
,
0000
0000
1000
0000
0100
2000
0000
3001
,
0100
0002
0000
0013
0001
0020
0000
0000
,
0130
2000
3020
0230
,
0302
0000
0013
0100
0010
0200
0000
0000
,
1300
0000
0001
0000
1000
0020
0000
1030
,
0001
2000
0000
3001
0100
0000
1000
0000
,
0100
0202
0303
2020
,
3030
0000
1000
0100
0010
0002
0000
0000
,
0003
0000
1000
0010
1000
0010
2000
0000
,
3001
0010
0001
0010
0002
0000
1003
0020
,
0000
0200
0000
0000
,
0330
2002
0000
0000
,
3003
0000
0000
0000
;

//---------------dance-single - ----------------
#NOTES:
     dance-single:
     :
     Easy:
     4:
     0.340624,0.535885,0.183413,0.486443,0.000000,299.000000,276.000000,23.000000,61.000000,0.000000,0.000000,0.340624,0.535885,0.183413,0.486443,0.000000,299.000000,276.000000,23.000000,61.000000,0.000000,0.000000:
0000
0000
0000
0000
,
0000
0000
0000
0000
,
0000
0000
0000
0000
,
1000
1000
0010
0010
,
1000
0100
0001
0100
,
2000
0000
3020
0000
,
0130
0000
0000
2002
0000
0000
3003
0000
,
1000
0100
0010
0001
,
0100
0010
2002
3003
,
1000
0100
0010
0001
,
2002
0000
0000
3003
,
0001
0100
0001
0100
,
0010
0010
1000
0001
,
1000
0100
0001
0100
,
2000
0000
3001
0001
,
1000
0100
1000
0100
,
0010
0010
0001
0100
,
1000
0100
0001
0010
,
0200
0000
0000
0310
0000
0000
0110
0000
,
1002
0000
0103
0001
,
0010
0000
0010
0000
,
2001
0000
3100
1000
,
0010
0001
0010
1000
,
0100
0220
0330
0100
,
0010
0001
0100
0010
,
1000
1000
0100
0010
,
0001
0001
0100
1000
,
0200
0000
0320
0000
,
0130
0000
0000
1001
0000
0000
0001
0000
,
1000
1000
0100
0100
,
0001
0100
1000
0001
,
0100
0010
0100
0010
,
1000
0001
0020
0000
,
0031
0001
0100
0010
,
1000
0100
1000
0001
,
1000
0000
0010
0000
0002
0000
0000
0203
,
0000
1000
1300
0000
,
0001
0001
0100
0100
,
1000
0100
0001
1000
,
0001
0010
0100
0010
,
1000
0010
0002
0000
,
1003
0010
0001
0010
,
1000
0100
0010
0001
,
1000
0000
0010
0000
0002
0000
0000
0203
,
0000
1000
1300
0001
,
0220
0330
2002
3003
,
0000
1001
1001
0000
,
2000
3100
0200
0301
,
0002
0013
0020
1030
,
1000
0100
0001
0010
,
1000
0100
0020
0030
,
0001
0000
0202
0303
1000
0100
2200
3300
,
0010
0001
0200
0310
2000
0000
3001
2000
,
3100
2002
0000
3003
,
0000
0001
0001
0100
,
0100
1000
0100
0001
,
1000
0100
0010
0100
,
0010
0001
1000
0020
,
0000
1030
1000
0100
,
0010
0001
0100
0001
,
1000
0001
0010
2000
,
0000
3200
0000
0000
0001
0000
0301
0000
,
0000
1000
1000
0100
,
0100
0001
0100
1000
,
0001
1000
0010
0001
,
0010
1000
0100
0020
,
0000
0031
0010
1000
,
0010
0001
0100
1000
,
0100
0001
0010
2000
,
0000
3200
0000
0000
0001
0000
0301
0000
,
1000
0220
0330
2002
,
3003
0000
1001
1001
,
0000
1000
0100
0010
,
0100
1000
0010
0100
,
0100
0001
0010
1000
,
0010
0000
0001
0000
0000
2002
0000
0000
,
3003
0001
0001
0010
,
0010
0001
0100
1000
,
0100
0002
0000
0023
,
0000
0000
0130
0000
0000
2002
0000
0000
,
3003
0001
0100
0010
,
1000
0100
0010
2002
,
3003
0200
0000
0000
,
0300
2002
0000
0000
,
3003
0000
0000
0000
;

//---------------dance-single - ----------------
#NOTES:
     dance-single:
     :
     Beginner:
     2:
     0.195944,0.267943,0.119617,0.199362,0.000000,172.000000,157.000000,15.000000,25.000000,0.000000,0.000000,0.195944,0.267943,0.119617,0.199362,0.000000,172.000000,157.000000,15.000000,25.000000,0.000000,0.000000:
0000
0000
0000
0000
,
0000
0000
0000
0000
,
0000
0000
0000
0000
,
1000
0000
1000
0000
,
0001
0001
0001
0000
,
0010
0000
0001
0000
,
0200
0000
0300
0000
,
1001
0000
0000
1001
,
0000
0000
2002
0000
,
3003
0000
0000
0000
,
0220
0000
0330
0000
,
1000
0000
1000
0000
,
0100
0000
0100
0000
,
0010
0000
0001
0001
,
0002
0000
0003
0000
,
0001
0000
0001
0000
,
0100
0000
0100
0000
,
0010
0010
0010
0000
,
2000
0000
3000
0000
,
2002
0000
3003
0000
,
1000
0000
0100
0000
,
2002
0000
3003
0000
,
0001
0000
0100
0000
,
0010
0000
0010
0000
,
1000
0000
1000
0000
,
0100
0000
0100
0000
,
0010
0000
0010
0000
,
0002
0000
0003
0000
,
2002
0000
3003
0000
,
1000
0000
0001
0000
,
1000
1000
1000
0000
,
0010
0000
0010
0000
,
0100
0100
0100
0000
,
0001
0000
1000
0000
,
0100
0100
0100
0000
,
0010
0000
0001
0000
,
0200
0000
0300
0000
,
0001
0000
1000
0000
,
0001
0001
0001
0000
,
0010
0000
0100
0000
,
1000
1000
1000
0000
,
0001
0000
0100
0000
,
0010
0000
1000
0000
,
0010
0000
1000
0000
,
0200
0000
0300
0000
,
0100
0000
0100
0000
,
0000
1001
1001
0000
,
1000
0000
0001
0000
,
1000
0000
0001
0000
,
0100
0100
0100
0100
,
0100
0100
0100
0000
,
0001
0000
1000
0000
,
0100
0000
0010
0000
0002
0000
0000
0003
,
0000
0000
0000
0000
,
0000
0001
0000
1000
,
0000
0001
0001
0001
,
0000
0010
0000
0010
,
0000
0100
0100
0100
,
0000
1000
0000
0001
,
0000
0100
0100
0100
,
0000
0010
0000
1000
,
0000
0200
0000
0300
,
0000
1000
0000
0001
,
0000
1000
1000
1000
,
0000
0010
0000
0100
,
0000
0001
0001
0001
,
0000
1000
0000
0100
,
0000
0010
0000
0001
,
0000
0010
0000
0001
,
0000
0200
0000
0300
,
0000
0100
0000
0100
,
0000
0000
1001
1001
,
0000
1000
0000
1000
,
0000
0100
0000
0100
,
0000
0010
0000
0001
,
0000
2000
0000
3000
,
0000
0001
0000
0001
,
0000
1000
1000
1000
,
0000
0010
0000
1000
,
0000
0200
0000
0300
,
0000
1001
0000
0000
,
1001
0000
0000
2002
,
0000
3003
0000
0000
,
0000
0220
0000
0000
,
0330
0000
0000
0000
;
