#TITLE:Heathens;
#SUBTITLE:;
#ARTIST:Twenty One Pilots;
#TITLETRANSLIT:;
#SUBTITLETRANSLIT:;
#ARTISTTRANSLIT:;
#CREDIT:;
#BANNER:;
#BACKGROUND:;
#LYRICSPATH:;
#CDTITLE:;
#MUSIC:[Round F] - Heathens.ogg;
#OFFSET:-2.900;
#SAMPLESTART:100.000;
#SAMPLELENGTH:12.000;
#SELECTABLE:YES;
#DISPLAYBPM:90.000;
#BPMS:0.000=90.000,114.500=92.000,116.000=90.000;
#STOPS:;
#BGCHANGES:;

//---------------dance-single - ----------------
#NOTES:
     dance-single:
     :
     Hard:
     8:
     0.391,0.566,0.185,0.089,0.165:
0000
0000
0000
0000
,
0000
0000
0000
0000
,
0000
0000
0000
0000
,
0000
0000
0000
0000
0000
0000
0000
1000
,
0100
0002
0003
0001
0100
1000
0000
0001
,
1000
0000
0100
0000
0010
0000
0001
1000
,
0010
0002
0003
0001
0010
1000
0001
1000
,
0020
0230
0300
0000
,
0001
0100
1000
0100
0001
0100
1000
0100
,
0010
1010
0100
0011
,
1000
0100
0001
0100
1000
0100
0001
0100
,
1000
0000
1010
0000
0001
0000
0011
0010
,
0100
1000
0100
0010
0100
1000
0100
0010
,
0001
0000
0100
0000
1000
0000
0100
0001
,
0010
1000
0010
0001
1000
0010
0001
0010
,
1000
1100
0010
0011
,
0001
0000
0001
0010
0000
0010
0100
0000
0100
1000
0000
1000
0010
0000
0010
0100
0000
0100
0001
0000
0001
0010
0000
0010
,
0100
0000
1000
0000
0001
0000
0000
0000
1000
0000
0001
0100
0000
0000
0000
0000
,
0001
0000
0001
0100
0000
0100
0010
0000
0010
1000
0000
0000
0100
0000
0100
0010
0000
0010
0001
0000
0001
0100
0000
0100
,
0010
0000
0000
0000
0000
0000
1000
0000
0000
0000
0001
0000
0000
0000
0000
0000
0000
0000
0000
0000
0000
0001
0000
0000
1000
0000
0000
0000
0000
0000
0010
0000
0000
0100
0000
0000
0000
0000
0000
0000
0000
0000
0000
0000
0000
0000
0000
0000
,
1001
0000
0000
1000
0000
1000
0100
0000
0100
0010
0000
0010
0001
0000
0001
0100
0000
0100
0010
0000
0010
1000
0000
1000
,
0001
0000
0000
0001
0000
0001
0100
0000
0100
0010
0000
0010
1000
0000
1000
0100
0000
0000
0010
0000
0010
0001
0000
0001
,
1000
0000
0001
0000
1000
0000
0010
0100
0010
0000
0100
0000
0001
1000
0001
0100
,
0001
0000
0000
1000
0000
0000
0100
0000
0010
0001
0000
0001
1000
0000
0000
0010
0000
0000
0002
0000
0000
0003
0000
0000
,
0000
0010
1000
0001
0020
0000
0030
0000
,
0011
0001
0100
0010
1000
0001
1000
0000
,
1010
0000
1000
0000
0010
0000
0100
0000
0001
0000
0010
0000
0200
0300
0000
0000
,
1100
1000
0100
0010
0001
0100
0001
0000
,
0101
0000
0000
0100
0000
0000
0010
0000
0000
1000
0000
0000
0001
0000
0000
1000
0000
0000
0100
0010
0100
1000
0100
0010
,
0001
0100
1000
0001
1000
0100
0001
0000
,
1000
0000
0100
0000
0001
0000
1000
0000
0001
0000
0100
0000
0020
0030
0000
0000
,
0011
1000
0100
0010
0001
0100
0010
0000
,
0110
0000
0001
0000
1000
0000
0000
0000
0110
0000
1000
0000
0002
0003
0000
0000
,
0011
1000
0010
0001
1000
0001
0010
0100
,
0001
0000
0000
0000
0010
0000
0000
0000
1100
0000
0010
0000
0200
0300
0000
0000
,
0101
0100
0010
1000
0100
0010
0001
0000
,
0011
0010
0100
0000
1010
0010
0100
0000
,
0100
0001
0010
0001
1000
0010
0001
0010
,
1000
0000
1001
0000
1000
0100
0001
0100
,
0010
0001
0100
1000
0100
0010
1000
0100
,
0010
0000
0110
0000
0010
0100
1000
0010
,
1000
0100
1000
0010
0001
0010
0100
0001
,
1001
1000
1100
0000
1000
0100
0010
0001
,
0100
0010
0001
0010
1000
0100
0010
0001
,
0200
0000
0000
0000
,
0000
0000
0000
0300
0000
0000
0000
0000
;

//---------------dance-single - ----------------
#NOTES:
     dance-single:
     :
     Medium:
     6:
     0.344,0.402,0.097,0.081,0.032:
0000
0000
0000
0000
,
0000
0000
0000
0000
,
0000
0000
0000
0000
,
0000
0000
0000
0000
0000
0000
0000
1000
,
0100
0002
0000
1003
0100
0002
0000
0013
,
0100
0000
0100
0000
0100
0000
0100
1000
,
0010
0002
0000
1003
0010
0001
0010
0100
,
1000
2000
3000
0000
,
1000
0001
1000
0100
1000
0001
1000
0010
,
0100
0110
0100
0110
,
0001
1000
0001
0100
0001
1000
0001
0100
,
0010
0000
0110
0000
0010
0000
0110
0010
,
1000
0002
0000
1003
0010
0002
0000
0013
,
1000
0000
0100
0000
0001
0000
0100
1000
,
0010
0200
0000
0301
0010
1000
0010
0100
,
1000
0000
0001
0000
1001
0000
1000
0001
,
0100
1000
0100
0001
0010
0100
1000
0010
,
0100
0000
1000
0000
0100
0000
0000
0000
0001
0000
1000
0001
0000
0000
0000
0000
,
0010
1000
0010
0001
0100
0010
1000
0100
,
0001
0000
0000
0000
0000
0000
0100
0000
0000
0000
0010
0000
0000
0000
0000
0000
0000
0000
0000
0000
0000
0001
0000
0000
1000
0000
0000
0000
0000
0000
1000
0000
0000
0001
0000
0000
0000
0000
0000
0000
0000
0000
0000
0000
0000
0000
0000
0000
,
0100
0100
0010
0010
1000
1000
0001
0001
,
0101
0100
0010
0010
1000
1000
0100
0100
,
1100
0000
1000
0000
0001
0000
0100
0010
1000
0000
0001
0000
0100
0001
1000
0001
,
0100
0000
0000
1000
0000
0000
0100
0000
0000
0001
0000
1000
0001
0000
0000
0010
0000
0000
0001
0000
0000
1000
0000
0000
,
0100
0001
0100
0010
0001
1000
0010
0000
,
1010
1000
0001
0100
0010
0100
0001
0010
,
0100
1000
0010
1000
0100
0010
0001
0000
,
0001
0100
1000
0100
0001
0100
0010
1000
,
0100
0001
0100
1000
0100
0010
0002
2003
,
3001
1000
1100
0000
1000
0001
0101
0000
,
0001
1000
1010
0000
1000
0001
1001
0000
,
1000
0010
0100
0010
1000
0100
0010
0100
,
1000
0100
0001
0100
0010
0001
0100
0000
,
0001
0100
0010
0100
0001
0010
0100
0010
,
0001
0010
1000
0010
0100
1000
0010
0000
,
0010
1000
0100
0001
0100
0010
0001
0100
,
1000
0100
0010
1000
0100
0010
0001
0000
,
1000
0100
0010
0100
1000
0100
0010
0001
,
1000
1000
1000
1000
,
0001
0100
0010
0100
0001
0100
0010
1000
,
0001
0000
0001
0000
0001
0010
0100
1000
,
0010
1000
0100
0010
0001
1000
0001
0100
,
0010
0000
0010
0000
0010
0000
0010
1000
,
0100
0001
1000
0001
0100
1000
0010
0100
,
0002
0000
0000
0000
,
0000
0000
0000
0003
0000
0000
0000
0000
;

//---------------dance-single - ----------------
#NOTES:
     dance-single:
     :
     Beginner:
     1:
     0.085,0.124,0.000,0.000,0.000:
0000
0000
0000
0000
,
0000
0000
0000
0000
,
0000
0000
0000
0000
,
0000
0000
0000
0000
,
0000
0000
0000
0000
,
0000
0000
0000
0000
,
0000
0000
0000
0000
,
0000
0000
0000
0000
,
1000
0000
1000
0000
,
1000
0000
0000
0000
,
0001
0000
0001
0000
,
0001
0000
0000
0000
,
0100
0000
0100
0000
,
0100
0000
0000
0000
,
0010
0000
0010
0000
,
0010
0000
0000
0000
,
1000
0000
0100
0000
,
0001
0000
1000
0000
,
0001
0000
0100
0000
,
1000
0000
0001
0000
,
1000
0000
1000
0000
,
0001
0000
0001
0000
,
0100
0000
0100
0000
,
0010
0000
0010
0010
,
0000
1000
1000
0000
,
0001
0000
1000
1000
,
1000
0000
0000
0000
,
1000
0000
0001
0001
,
0001
0000
0010
0000
,
0001
0000
1000
1000
,
1000
0000
0010
0000
,
0100
0000
0010
0010
,
0010
0000
1000
0000
,
0001
0001
0001
0000
,
1000
1000
1000
0000
,
0010
0010
0010
0000
,
0100
0100
0100
0000
,
0001
0000
1000
0000
,
0001
0000
0000
0000
,
1000
0000
0001
0000
,
1000
0000
0000
0000
,
0010
0000
0100
0000
,
0010
0000
0000
0000
,
0100
0000
0010
0000
,
0100
0000
0000
0000
;

//---------------dance-double - ----------------
#NOTES:
     dance-double:
     :
     Easy:
     4:
     0.177,0.201,0.048,0.032,0.008: // measure 1
00000000
00000000
00000000
00000000
,  // measure 2
00000000
00000000
00000000
00000000
,  // measure 3
00000000
00000000
00000000
00000000
,  // measure 4
00000000
00000000
00000000
00000000
,  // measure 5
00010000
00000000
00001000
00000000
,  // measure 6
00010000
00000000
00000000
00000000
,  // measure 7
00001000
00000000
00010000
00000000
,  // measure 8
00001000
00000000
00000000
00000000
,  // measure 9
01000000
00010000
10000000
00010000
,  // measure 10
01000000
00000000
00000100
00000000
,  // measure 11
00001000
00000001
00001000
00000100
,  // measure 12
00001000
00000000
00000001
00000000
,  // measure 13
00000010
00000001
00000100
00001000
,  // measure 14
00010000
00010000
00000000
00010000
,  // measure 15
00100000
10000000
01000000
00010000
,  // measure 16
00001000
00001000
00000000
00001000
,  // measure 17
00000100
00000001
00000010
00000001
,  // measure 18
00000100
00000000
00000000
00000000
00001000
00000000
00000000
00000000
00010000
00000000
00000000
01000000
00000000
00000000
00000000
00000000
,  // measure 19
10000000
00010000
00100000
00010000
,  // measure 20
01000000
00000000
00000000
00000000
10000000
00000000
00000000
00000000
01000000
00000000
00000000
00100000
00000000
00000000
00000000
00000000
,  // measure 21
00100000
10000000
01000000
00010000
,  // measure 22
00000100
00000010
00000001
00001000
,  // measure 23
01000000
10000000
00100000
00010000
,  // measure 24
00001000
00000100
00000001
00000020
,  // measure 25
00001030
00010000
00022000
00033000
,  // measure 26
00010000
00010000
00001000
00100000
,  // measure 27
00010000
00010000
10000000
00100000
,  // measure 28
10000000
10000000
00010000
00100000
,  // measure 29
00001000
00001000
00010000
00001100
,  // measure 30
00001001
00000001
00000100
00000010
,  // measure 31
00010000
00001000
01000000
01010000
,  // measure 32
10000000
01000000
00100000
00001000
,  // measure 33
00010000
00000100
00001000
00001100
,  // measure 34
00000001
00000100
00000010
00010000
,  // measure 35
00001000
00100000
01000000
11000000
,  // measure 36
10000000
00100000
01000000
00001000
,  // measure 37
00000100
00000010
00001000
00000001
,  // measure 38
00000100
00001000
00010000
01000000
,  // measure 39
10000000
00010000
10000000
00010000
,  // measure 40
10000000
01000000
00010000
00001000
,  // measure 41
00000100
00000001
00001000
00000001
,  // measure 42
00000010
00001000
00010000
00100000
,  // measure 43
10000000
00010000
10000000
00010000
,  // measure 44
00100000
00001000
00010000
00000100
,  // measure 45
00020000
00000000
00000000
00000000
,  // measure 46
00000000
00000000
00000000
00030000
00000000
00000000
00000000
00000000
;

//---------------dance-double - ----------------
#NOTES:
     dance-double:
     :
     Medium:
     7:
     0.380,0.420,0.121,0.105,0.089: // measure 1
00000000
00000000
00000000
00000000
,  // measure 2
00000000
00000000
00000000
00000000
,  // measure 3
00000000
00000000
00000000
00000000
,  // measure 4
00000000
00000000
00000000
00000000
00000000
00000000
00000000
10000000
,  // measure 5
01000000
00020000
00000000
00031000
00000100
00000002
00000000
00000023
,  // measure 6
00000130
00000000
00000100
00000000
00000100
00000000
00000100
00000010
,  // measure 7
00000001
00000200
00000000
00001300
00010000
01000000
10000000
00100000
,  // measure 8
01000000
02000000
03000000
00000000
,  // measure 9
00100000
10000000
01000000
00010000
01000000
10000000
00100000
00010000
,  // measure 10
00000100
00000000
00000110
00000000
00000100
00000010
00000110
00000000
,  // measure 11
00000010
00000001
00000100
00001000
00010000
01000000
10000000
00100000
,  // measure 12
00010000
00000000
00011000
00000000
00001000
00010000
00011000
00000010
,  // measure 13
00001000
00000100
00000001
00000100
00001000
00010000
01000000
00100000
,  // measure 14
10000000
00000000
10010000
00000000
10000000
00010000
10010000
00010000
,  // measure 15
10000000
00100000
00010000
00001000
00000100
00000001
00000010
00000100
,  // measure 16
00000010
00000000
00000110
00000000
00000001
00001000
00001001
00000000
,  // measure 17
00000001
00000100
00000001
00000100
00000001
00000000
00001000
00000100
00001000
00000100
00001000
00000000
00000001
00001000
00000001
00000000
,  // measure 18
00000100
00000000
00001000
00000000
00010000
00000000
00000000
00000000
01000000
00000000
10000000
00010000
00000000
00000000
00000000
00000000
,  // measure 19
10000000
01000000
10000000
01000000
10000000
00000000
00010000
01000000
00010000
01000000
00010000
00000000
10000000
00010000
10000000
00000000
,  // measure 20
01000000
00000000
00010000
00001000
00000000
00000000
00000000
00000100
00000010
00000000
00001000
00000001
00000000
00000000
00000000
00000000
,  // measure 21
00000010
00000000
00000100
00000000
00010000
00001000
00010000
00000000
00001000
00000000
00100000
00000000
00010000
01000000
00100000
00000000
,  // measure 22
10010000
00000000
10000000
00000000
00010000
01000000
00010000
00000000
01000000
00000000
00001000
00000000
00010000
00000100
00000010
00000000
,  // measure 23
00001001
00000000
00000001
00000000
00000100
00000000
00001000
00010000
00100000
00000000
10000000
00000000
01000000
00010000
00001000
00000100
,  // measure 24
00000010
00000000
00000000
00001000
00000000
00000000
00000001
00000000
00000000
00000100
00000000
00001000
00010000
00000000
00000000
00100000
00000000
00000000
20000000
00000000
00000000
30000000
00000000
00000000
,  // measure 25
00010000
01000000
00001000
00000010
00000001
00001000
00001001
00000000
,  // measure 26
00001001
00000001
00000100
00000000
00000010
00010000
00100000
00000000
,  // measure 27
10000000
00000000
01000000
00000000
00010000
00000000
00000000
00000000
00001000
00000000
00000100
00000000
00000002
00000003
00000000
00000000
,  // measure 28
00000001
00000100
00001000
00000000
00010000
01000000
10000000
00000000
,  // measure 29
10000000
00100000
00010000
00000000
00001000
00000010
00000002
00002003
,  // measure 30
00003001
00000100
00001000
00000100
00000010
00001000
00000100
00000001
,  // measure 31
00000100
00000000
00010000
00000000
01000000
00000000
00100000
00000000
00010000
00000000
10000000
00000000
00200000
00300000
00000000
00000000
,  // measure 32
00100000
10000000
01000000
00100000
10000000
00100000
00001000
00010000
,  // measure 33
00000010
00000000
00000001
00000000
00000010
00000000
00000100
00000000
00000001
00000000
00000010
00000000
00002000
00003000
00000010
00000000
,  // measure 34
00000010
00000001
00000100
00001000
00010000
00100000
10000000
00010000
,  // measure 35
10000000
00000000
01000000
00000000
00010000
00000000
00001000
00000000
00000100
00000000
00000010
00000000
00002000
00003000
00000000
00000000
,  // measure 36
00000001
00000010
00000001
00000100
00001000
00010000
01000000
10000000
,  // measure 37
00100000
00010000
00100000
10000000
01000000
00010000
00001000
00000000
,  // measure 38
00010000
00001000
00000100
00001000
00010000
01000000
00010000
00000010
,  // measure 39
00000100
00000001
00001000
00001000
00000100
00010000
00011000
00000000
,  // measure 40
00001000
00010000
01000000
00010000
00001000
00000100
00001000
00100000
,  // measure 41
01000000
10000000
00100000
00100000
01000000
00010000
10010000
10000000
,  // measure 42
01000000
00100000
01000000
10000000
00100000
00010000
00001000
00000100
,  // measure 43
00000010
00001000
00000001
00000001
00000100
00000010
00001010
00001000
,  // measure 44
00000001
00000010
00000100
00000010
00000001
00000100
00001000
00010000
,  // measure 45
00002000
00000000
00000000
00000000
,  // measure 46
00000000
00000000
00000000
00003000
00000000
00000000
00000000
00000000
;

//---------------dance-double - ----------------
#NOTES:
     dance-double:
     :
     Hard:
     8:
     0.403,0.566,0.121,0.081,0.173: // measure 1
00000000
00000000
00000000
00000000
,  // measure 2
00000000
00000000
00000000
00000000
,  // measure 3
00000000
00000000
00000000
00000000
,  // measure 4
00000000
00000000
00000000
00000000
00000000
00000000
00000000
00010000
,  // measure 5
00001000
00000100
00000000
00001000
00010000
01000000
00000000
10000000
,  // measure 6
00010000
00000000
01000000
00000000
10000000
00000000
01000000
00010000
,  // measure 7
00001000
00000010
00000000
00001000
00010000
00100000
01000000
00010000
,  // measure 8
10000000
02000000
03000000
00000000
,  // measure 9
10000000
01000000
00010000
01000000
10000000
01000000
00010000
00001000
,  // measure 10
00000100
00000010
00000100
00001000
00000100
00000010
00000100
00000000
,  // measure 11
00000001
00000010
00001000
00000010
00000001
00000010
00001000
00010000
,  // measure 12
01000000
00100000
01000000
00010000
01000000
00100000
01000000
10000000
,  // measure 13
00100000
00010000
00001000
00000100
00000001
00000010
00000001
00000100
,  // measure 14
00001000
00010000
01000000
00010000
00001000
00000100
00000010
00001000
,  // measure 15
00000100
00000010
00000001
00000100
00001000
00010000
01000000
10000000
,  // measure 16
00100000
01000000
00010000
01000000
00100000
10000000
01000000
00100000
,  // measure 17
00001000
00000000
00001000
00010000
00000000
00010000
00000100
00000000
00000100
00000010
00000000
00000010
00000001
00000000
00000001
00000100
00000000
00000100
00001000
00000000
00001000
00010000
00000000
00010000
,  // measure 18
00100000
00000000
10000000
00000000
00010000
00000000
00000000
00000000
10010000
00000000
10000000
01000000
00000000
00000000
00000000
00000000
,  // measure 19
00100000
00000000
00100000
00001000
00000000
00001000
00010000
00000000
00010000
00000100
00000000
00000100
00001000
00000000
00001000
00000001
00000000
00000001
00000010
00000000
00000010
00000001
00000000
00000001
,  // measure 20
00001000
00000000
00000000
00000000
00000000
00000000
00000010
00000000
00000000
00000000
00000100
00000000
00000000
00000000
00000000
00000000
00000000
00000000
00000000
00000000
00000000
00000100
00000000
00000000
00000001
00000000
00000000
00000000
00000000
00000000
00000100
00000000
00000000
00001000
00000000
00000000
00000000
00000000
00000000
00000000
00000000
00000000
00000000
00000000
00000000
00000000
00000000
00000000
,  // measure 21
00010000
00000000
00000000
01000000
00000000
01000000
10000000
00000000
10000000
00100000
00000000
00100000
00010000
00000000
00010000
00001000
00000000
00001000
00000100
00000000
00000100
00000010
00000000
00000010
,  // measure 22
00001000
00000000
00000000
00000001
00000000
00000001
00000010
00000000
00000010
00001000
00000000
00001000
00010000
00000000
00010000
01000000
00000000
01000000
10000000
00000000
10000000
00100000
00000000
00100000
,  // measure 23
01000000
00000000
00010000
00000000
00100000
00000000
10000000
00100000
00010000
00000000
01000000
00000000
00001000
00010000
00000010
00000100
,  // measure 24
00000001
00000000
00000000
00001000
00000000
00000000
00000001
00000000
00000100
00000010
00000000
00010000
00001000
00000000
00000000
00100000
00000000
00000000
00010000
00000000
00000000
00000000
00000000
00000000
,  // measure 25
10000000
00010000
00000010
00000100
00002000
00000000
00003001
00000000
,  // measure 26
00001001
00000001
00000100
00000010
00010000
00001000
00100000
00000000
,  // measure 27
00110000
00000000
00010000
00000000
01000000
00000000
00100000
00000000
10000000
00000000
01000000
00000000
00020000
00030000
00000000
00000000
,  // measure 28
00011000
00010000
00000010
00000100
00000001
00000010
00000100
00000000
,  // measure 29
00001100
00000000
00000000
00000010
00000000
00000000
00000100
00000000
00000000
00000001
00000000
00000000
00000010
00000000
00000000
00000100
00000000
00000000
00010000
00001000
00100000
00010000
01000000
00100000
,  // measure 30
10000000
01000000
00010000
01000000
10000000
01000000
00010000
00001000
,  // measure 31
00000100
00000000
00000001
00000000
00000010
00000000
00001000
00000000
00000010
00000000
00000001
00000000
00002002
00003003
00000000
00000000
,  // measure 32
00000001
00000100
00001000
00000100
00000001
00000100
00001000
00010000
,  // measure 33
01000000
00000000
10000000
00000000
00100000
00000000
01000000
00000000
00010000
00000000
10000000
00000000
20020000
30030000
00000000
00000000
,  // measure 34
10000000
00100000
00010000
00100000
10000000
00100000
00010000
00001000
,  // measure 35
00000100
00000000
00000001
00000000
00000010
00000000
00000100
00000000
00001000
00000000
00000001
00000000
00002002
00003003
00000000
00000000
,  // measure 36
00000001
00000010
00001000
00000010
00000001
00000010
00001000
00010000
,  // measure 37
01000000
10000000
00100000
01000000
00010000
10000000
10010000
00000000
,  // measure 38
10000000
01000000
00010000
01000000
10000000
00100000
00010000
00001000
,  // measure 39
00000100
00000110
00001000
00001001
,  // measure 40
00000001
00000010
00001000
00000010
00000001
00000100
00001000
00010000
,  // measure 41
01000000
00000000
01100000
00000000
00010000
00000000
10010000
10000000
,  // measure 42
00100000
10000000
01000000
00010000
00000010
00001000
00000100
00000001
,  // measure 43
00000100
00000000
00011000
00000000
01000000
00000000
00011000
00010000
,  // measure 44
00000010
00000001
00000010
00001000
00000100
00000001
00000100
00010000
,  // measure 45
00002000
00000000
00000000
00000000
,  // measure 46
00000000
00000000
00000000
00003000
00000000
00000000
00000000
00000000
;

//---------------dance-single - ----------------
#NOTES:
     dance-single:
     :
     Easy:
     3:
     0.184,0.219,0.113,0.081,0.012:
0000
0000
0000
0000
,
0000
0000
0000
0000
,
0000
0000
0000
0000
,
0000
0000
0000
0000
,
1000
0000
0100
0000
,
0020
0000
0030
0000
,
0001
0000
0100
0000
,
0020
0000
0030
0000
,
1000
0001
1000
0001
,
0100
0100
0000
0100
,
0001
1000
0001
1000
,
0100
0100
0000
0100
,
0010
0001
0010
0001
,
0100
0100
0000
0100
,
0010
1000
0100
0001
,
0100
0100
0000
0100
,
1000
0010
0100
0001
,
1000
0000
0000
0000
1001
0000
0000
0000
0001
0000
0000
0001
0000
0000
0000
0000
,
1000
0100
0010
0001
,
1000
0000
0000
0000
0000
0000
0000
0000
0000
0000
1001
0000
0000
0000
0000
0000
0000
0000
0000
0000
0000
0000
0000
0000
0001
0000
0000
0000
0000
0000
0000
0000
0000
0001
0000
0000
0000
0000
0000
0000
0000
0000
0000
0000
0000
0000
0000
0000
,
1000
0100
0001
0100
,
1000
0100
0010
0100
,
1000
0001
1000
0001
,
0100
0000
0010
0200
,
0300
0001
2000
3000
,
0001
0001
0100
0010
,
1000
1000
2000
3000
,
0001
0001
0100
0010
,
1000
1000
0001
0100
,
0110
1000
0100
0010
,
1001
0001
2000
3000
,
1100
1000
0010
0100
,
0101
0001
0020
0030
,
0011
0001
0100
0010
,
1010
1000
0002
0003
,
0100
1000
0100
0001
,
1000
1000
0002
0003
,
1000
0100
0001
0100
,
1000
1001
0000
1001
,
0001
0100
1000
0100
,
0001
1001
0000
1001
,
0001
0010
1000
0010
,
0001
1001
0000
1001
,
1000
0010
0100
0001
,
2000
0000
0000
0000
,
0000
0000
0000
3000
0000
0000
0000
0000
;
