#TITLE:FANTASTIC NxxD BABY;
#SUBTITLE:;
#ARTIST:P*Light feat. mow*2;
#TITLETRANSLIT:;
#SUBTITLETRANSLIT:;
#ARTISTTRANSLIT:;
#GENRE:;
#CREDIT:;
#BANNER:[Round F] - FANTASTIC NxxD BABY.png;
#BACKGROUND:[Round F] - FANTASTIC NxxD BABY-bg.png;
#LYRICSPATH:;
#CDTITLE:;
#MUSIC:[Round F] - FANTASTIC NxxD BABY.ogg;
#OFFSET:-0.140000;
#SAMPLESTART:41.099998;
#SAMPLELENGTH:13.300000;
#LASTBEATHINT:258.620422;
#SELECTABLE:YES;
#BPMS:0.000000=145.000000
;
#STOPS:215.500000=1.655000
;
#BGCHANGES:;
#KEYSOUNDS:;
#ATTACKS:;

//---------------dance-single - ----------------
#NOTES:
     dance-single:
     :
     Beginner:
     1:
     0.151163,0.252327,0.072352,0.072352,0.000000,117.000000,109.000000,8.000000,8.000000,0.000000,0.000000,0.151163,0.252327,0.072352,0.072352,0.000000,117.000000,109.000000,8.000000,8.000000,0.000000,0.000000:
0000
0000
0000
0000
,
0000
0000
0000
0000
,
0000
0000
0000
0000
,
0000
0000
0000
0000
,
0000
0000
0000
0000
,
2000
0000
0000
0000
0000
0000
0000
3002
,
0000
0000
0000
0000
,
1003
0000
0001
0000
,
2002
0000
0000
3003
,
1000
0000
0100
0000
,
1000
0000
0100
0000
,
0010
0000
0001
0000
,
0010
0000
0001
0000
,
0001
0000
0100
0000
,
0001
0000
0100
0000
,
0010
0000
1000
0000
,
0010
0000
1000
0000
,
0001
0000
0001
0000
,
1000
0000
1000
0000
,
0100
0000
0100
0000
,
0010
0000
0010
0000
,
0100
0000
1000
0000
,
0001
0000
0100
0000
,
0010
0000
0010
0000
,
0000
0100
1001
0000
,
1000
0000
1000
0000
,
1000
0000
1000
0000
,
0001
0000
0100
0000
,
0020
0000
0130
0000
,
0001
0000
0001
0000
,
0001
0000
0001
0000
,
1000
0000
0100
0000
,
0020
0000
0130
0000
,
1000
0000
0001
0000
,
0100
0000
0001
0000
,
1000
0000
0010
0000
,
1000
0000
0001
0000
,
0001
0000
1000
0000
,
0100
0000
1000
0000
,
0001
0000
0010
0000
,
0001
0000
1000
0000
,
1001
0000
0110
0000
,
1001
0000
0110
0000
,
0100
0100
0100
0100
,
0100
0000
0000
0000
,
MMMM
0000
0000
0000
,
0000
0000
0000
0000
,
0000
0000
0001
0000
,
0001
0000
0001
0000
,
1000
0000
0010
0000
,
0200
0000
0310
0000
,
1000
0000
1000
0000
,
1000
0000
0001
0000
,
0010
0010
0010
0010
,
0000
0000
0001
0000
,
0100
0000
0001
0000
,
1000
0000
0100
0000
,
1000
0000
0010
0000
,
0120
0000
1030
0000
,
0100
0000
1000
0000
,
0001
0000
0100
0000
,
0001
0000
0010
0000
,
0110
0000
0000
0000
;

//---------------dance-single - ----------------
#NOTES:
     dance-single:
     :
     Hard:
     9:
     0.649873,0.785016,0.153747,0.054264,0.614989,503.000000,486.000000,17.000000,6.000000,0.000000,0.000000,0.649873,0.785016,0.153747,0.054264,0.614989,503.000000,486.000000,17.000000,6.000000,0.000000,0.000000:
// measure 0
0000
0000
0000
0000
,  // measure 1
0000
0000
0000
0000
,  // measure 2
0000
0000
0000
0000
,  // measure 3
0000
0000
0000
0000
,  // measure 4
0000
0000
0000
0000
0000
0000
0000
0000
0000
0000
0000
0000
0001
1000
0001
1000
,  // measure 5
0001
0000
0100
0000
0000
0001
0000
1000
0100
0000
0010
0000
0000
0100
1000
0100
,  // measure 6
1000
0001
1000
0000
0000
0100
0000
1000
0000
0010
0000
0100
0001
0000
1000
0000
,  // measure 7
0001
0100
0001
0100
0010
1000
0010
1000
0100
1000
0100
1000
0001
0010
0001
0010
,  // measure 8
0001
0000
1000
0000
0010
1000
0000
0100
1000
0001
0000
0100
0010
0000
0000
0000
,  // measure 9
1000
0000
0100
0000
1000
0000
0001
0000
0100
0001
0000
0010
0000
0000
0001
0000
,  // measure 10
1000
0000
0100
0000
0001
0000
0100
0000
1000
0010
0000
0100
0000
0000
0000
0000
,  // measure 11
0001
0100
1010
2000
0000
0100
0100
3100
,  // measure 12
1000
0000
0001
0000
0100
0000
0010
0000
0100
0001
0100
0001
1000
0000
0000
0000
,  // measure 13
0001
0000
0010
0000
0001
0000
1000
0000
0010
1000
0000
0100
0000
0000
1000
0000
,  // measure 14
0001
0000
0010
0000
1000
0000
0010
0000
0001
0100
0000
0010
0000
0000
0000
0000
,  // measure 15
1000
0010
0101
0002
0000
0010
0010
0013
,  // measure 16
0001
0000
1000
0000
0010
0000
0100
0000
0010
1000
0000
1000
0000
0000
1001
0000
,  // measure 17
0001
0000
0000
1000
0100
0000
1000
0000
0000
0000
0010
0000
0100
0000
0001
0000
,  // measure 18
1000
0000
0000
0001
0100
0000
0001
0000
0000
0000
0010
0000
0100
0000
1000
0000
,  // measure 19
0010
1000
0001
0100
0000
0001
1000
0100
,  // measure 20
0000
1000
0000
0010
0000
0100
0001
1000
,  // measure 21
0100
0000
1000
0100
0000
0010
0001
0000
1000
0000
1000
0000
0000
0001
0100
0001
,  // measure 22
0100
0000
1000
0100
0000
0010
1000
0000
0001
0000
0001
0000
0000
1000
0100
1000
,  // measure 23
0100
0000
0100
0010
0000
0010
0001
0000
0000
0000
1000
0000
0010
0000
0100
0000
,  // measure 24
0000
0000
0110
0000
0000
1010
0000
0000
1001
0000
0000
0000
0110
0000
0000
0000
,  // measure 25
1001
0000
0000
0001
0100
0000
0010
0000
1000
0000
0000
1000
0100
0000
0010
0000
,  // measure 26
0001
0000
0000
0001
0010
0000
0100
0000
1000
0000
0000
1000
0010
0000
0100
0000
,  // measure 27
0001
0100
0000
0010
1000
0000
0200
0000
0010
0000
0000
0000
1300
0000
0001
0100
,  // measure 28
0000
0000
0100
0010
0000
0000
0010
1000
0000
0000
1000
0001
1000
0000
0010
0000
,  // measure 29
1000
0000
0000
1000
0010
0000
0100
0000
0001
0000
0000
0001
0010
0000
0100
0000
,  // measure 30
1000
0000
0000
1000
0100
0000
0010
0000
0001
0000
0000
0001
0100
0000
0010
0000
,  // measure 31
1000
0010
0000
0100
0001
0000
0020
0000
0100
0000
0000
0000
0031
1000
0010
0000
,  // measure 32
0000
0000
0010
0000
0100
0001
0100
0001
1000
0100
1000
0100
0020
0000
0030
0000
,  // measure 33
0100
0000
1000
0001
1000
0001
1000
0000
0010
0000
1000
0001
1000
0001
1000
0000
,  // measure 34
0100
0000
0010
0000
0001
0010
0001
0000
0100
0000
0010
0000
1000
0100
1000
0100
,  // measure 35
1000
0000
0001
0000
0100
0000
1000
0100
0001
0000
1000
0000
0010
0000
0001
0010
,  // measure 36
1000
0000
1100
0000
0000
0000
0011
0000
0000
0000
1001
0000
1000
0001
1000
0001
,  // measure 37
0100
0000
0001
1000
0001
1000
0001
0000
0010
0000
0001
1000
0001
1000
0001
0000
,  // measure 38
0100
0000
0010
0000
1000
0010
1000
0000
0100
0000
0010
0000
0001
0100
0001
0100
,  // measure 39
0001
0000
1000
0000
0100
0000
0001
0100
1000
0000
0001
0000
0010
0000
1000
0010
,  // measure 40
0001
0000
0101
0000
0000
0000
1010
0000
0000
0000
1001
0000
0001
1000
0001
1000
,  // measure 41
0001
0000
0100
0000
0001
0100
0010
0000
1000
0000
0100
0000
1000
0100
0010
0000
,  // measure 42
0001
0000
0010
0000
0001
0010
0100
0000
1000
0000
0010
0000
1000
0010
0100
0000
,  // measure 43
0001
0100
0010
0000
1000
0100
0010
0000
0001
0010
0100
0000
1000
0010
0100
0000
,  // measure 44
0000
0000
0000
0000
,  // measure 45
MMMM
0000
0000
0000
,  // measure 46
0000
0000
0000
0000
,  // measure 47
1001
0000
0000
1000
0010
0000
0100
0000
0001
0000
0000
0001
0010
0000
0100
0000
,  // measure 48
1000
0000
0000
1000
0100
0000
0010
0000
0001
0000
0000
0001
0100
0000
0010
0000
,  // measure 49
1000
0010
0000
0100
0001
0000
0020
0000
0100
0000
0000
0000
0031
0000
1000
0010
,  // measure 50
0000
0000
0010
0100
0000
0000
0100
0001
0000
0000
0001
1000
0001
0000
0100
0000
,  // measure 51
0001
0000
0000
0001
0100
0000
0010
0000
1000
0000
0000
1000
0100
0000
0010
0000
,  // measure 52
0001
0000
0000
0001
0010
0000
0100
0000
1000
0000
0000
1000
0010
0000
0100
0000
,  // measure 53
0001
0000
0001
0000
1000
0000
1000
0000
0001
0100
0010
1000
0100
0010
0001
0000
,  // measure 54
1001
1000
0100
0001
1000
0010
0001
0100
,  // measure 55
1000
0001
0010
1000
0001
0010
0100
1000
,  // measure 56
0010
0100
0001
1000
0100
0010
0001
1000
,  // measure 57
0100
1000
0010
0100
0001
0010
0001
1000
,  // measure 58
0100
0000
0100
0000
1000
0010
0000
0100
0001
0000
0001
0000
0100
0001
0000
1000
,  // measure 59
0010
0000
0010
0000
1000
0100
0000
0010
1000
0000
1000
0000
0010
0001
0000
0100
,  // measure 60
0001
0100
0001
0100
0010
1000
0010
1000
0100
1000
0100
1000
0001
0010
0001
0010
,  // measure 61
0001
0000
0100
0000
0010
1000
0000
0001
0010
1000
0000
0010
0001
0000
0000
0000
,  // measure 62
1001
0000
0000
0000
;

//---------------dance-single - ----------------
#NOTES:
     dance-single:
     :
     Easy:
     4:
     0.273903,0.308399,0.117572,0.108528,0.000000,212.000000,199.000000,13.000000,12.000000,0.000000,0.000000,0.273903,0.308399,0.117572,0.108528,0.000000,212.000000,199.000000,13.000000,12.000000,0.000000,0.000000:
0000
0000
0000
0000
,
0000
0000
0000
0000
,
0000
0000
0000
0000
,
0000
0000
0000
0000
,
0000
0000
0000
0000
,
0002
0000
0000
0000
0000
0000
0000
2003
,
0000
0000
0000
0000
,
3100
1000
0001
0010
,
2002
0000
3003
0110
,
1001
0001
0100
0010
,
1000
1000
0010
0100
,
0001
0001
0000
1000
,
0100
0100
1000
0110
,
1001
1000
0100
0010
,
0001
0001
0010
0100
,
1000
1000
0000
0001
,
0101
0000
1010
1001
,
0001
0100
0010
0010
,
1000
0100
0010
0010
,
0001
1000
0100
1000
,
0001
0100
0001
1000
,
0020
1000
1000
1000
,
0230
0001
0001
0301
,
0001
0010
0100
1000
,
0000
0000
1001
0000
,
0001
0010
1000
0010
,
0001
0010
1000
0010
,
0001
0100
0010
0010
,
2000
0100
0010
3001
,
1000
0010
0001
0010
,
1000
0010
0001
0010
,
1000
0100
0010
0020
,
0000
0032
0100
2003
,
3100
1000
0001
0100
,
0010
0010
0100
0100
,
0010
1000
0001
0010
,
0100
0100
0010
0010
,
0001
0100
0010
0001
,
1000
0001
0010
1000
,
1000
0100
0010
1000
,
0001
1000
0010
0100
,
1000
0000
0001
0000
,
1000
0000
0001
0000
,
0010
0001
1000
0100
,
0010
0000
0000
0000
,
MMMM
0000
0000
0000
,
0000
0000
0000
0000
,
2001
3100
0001
0100
,
1000
0100
0001
0100
,
1000
0010
0100
0100
,
0002
0010
0100
1003
,
0001
0100
1000
0100
,
0001
0100
1000
0100
,
0010
1000
0001
1001
,
1001
0001
0100
0010
,
1000
0100
0010
1000
,
0010
0001
0100
0010
,
0001
0010
1000
0001
,
1000
1000
0001
0001
,
0010
0010
0100
0100
,
1000
0010
0100
0001
,
1000
1000
0001
0001
,
1001
0000
0000
0000
;

//---------------dance-single - ----------------
#NOTES:
     dance-single:
     :
     Medium:
     7:
     0.444446,0.476617,0.117572,0.009044,0.094962,344.000000,331.000000,13.000000,1.000000,0.000000,0.000000,0.444446,0.476617,0.117572,0.009044,0.094962,344.000000,331.000000,13.000000,1.000000,0.000000,0.000000:
0000
0000
0000
0000
,
0000
0000
0000
0000
,
0000
0000
0000
0000
,
0000
0000
0000
0000
,
0000
0000
0000
0000
,
0001
0100
0000
0001
1000
0100
0000
1000
,
0010
1000
0000
0001
0010
0001
0000
1000
,
0010
0100
0010
0100
0001
1000
0001
1000
,
0100
0000
0100
0000
0010
0001
1001
0000
,
0001
0100
0010
1000
0100
1000
0010
0000
,
1000
0100
0010
0001
0100
0010
0100
0000
,
0101
0000
1010
1000
0000
0001
0001
0001
,
1100
0000
0011
0001
0000
1000
1000
1000
,
0010
1000
0001
0010
0100
1000
0100
0000
,
0100
1000
0001
0100
0010
0001
0010
0000
,
1010
0000
0101
0001
0000
1000
1000
1000
,
0011
0000
1100
0000
0001
1000
0000
1000
,
0001
0000
0010
0000
0100
1000
0001
1000
,
1000
0000
0100
0000
0010
0001
1000
0001
,
0100
0001
0000
0001
0000
1000
0000
1000
,
0000
0100
0000
0100
0000
0010
0100
0010
,
0001
0000
0100
0001
0100
0010
1000
0001
,
1000
0000
0100
1000
0100
0010
0001
0100
,
0001
0000
0000
0001
0000
0000
1000
0000
0000
0000
1000
0000
0000
0000
0100
0000
,
0000
0000
0010
0000
0000
0100
0000
0000
0010
0000
0000
0000
1001
0000
0000
0000
,
0001
0000
0000
0100
0000
0000
0001
0000
1000
0000
0000
0100
0000
0000
1000
0000
,
0010
0000
0000
1000
0000
0000
0010
0000
0100
0000
0000
0001
0000
0000
0100
0000
,
0001
0000
0000
1000
0000
0000
0001
0000
1000
0000
0000
0000
0100
0000
0010
0000
,
0000
0010
0000
0001
0000
1000
0000
1000
,
0010
0000
0000
1000
0000
0000
0001
0000
0010
0000
0000
0001
0000
0000
1000
0000
,
0100
0000
0000
1000
0000
0000
0001
0000
0100
0000
0000
0001
0000
0000
1000
0000
,
0100
0000
0000
0010
0000
0000
0001
0000
1000
0000
0000
0000
0100
0000
0010
0000
,
0000
0100
1000
1000
0001
0001
1001
0000
,
0000
0001
0100
0001
0000
1000
0100
1000
,
0000
0010
0100
0010
1000
0000
0001
0000
,
1000
0010
0100
0000
0001
0010
0100
0000
,
1000
0100
0001
0100
1000
0000
0010
0010
,
0000
1000
0010
1000
0000
0001
0010
0001
,
0000
0100
0010
0100
0001
0000
1000
0000
,
0001
0100
0010
0000
1000
0100
0010
0000
,
0001
0010
1000
0010
0001
0000
0100
0100
,
0010
1000
0100
0000
0010
0001
0100
0000
,
0100
0001
0010
0000
0100
1000
0010
0000
,
0001
0010
1000
0010
0100
0001
0100
1000
,
0100
0000
0000
0000
,
MMMM
0000
0000
0000
,
0000
0000
0000
0000
,
1002
0000
0000
0100
0003
0000
0001
0000
1000
0000
0000
0100
0000
0000
1000
0000
,
0010
0000
0000
1000
0000
0000
0010
0000
0100
0000
0000
0001
0000
0000
0100
0000
,
0001
0000
0000
1000
0000
0000
0001
0000
1000
0000
0000
0000
0100
0000
0010
0000
,
0000
0010
0000
0001
0000
1000
0000
1000
,
0010
0000
0000
1000
0000
0000
0001
0000
0010
0000
0000
0001
0000
0000
1000
0000
,
0100
0000
0000
1000
0000
0000
0001
0000
0100
0000
0000
0001
0000
0000
1000
0000
,
0100
0010
0001
1000
0010
0100
0001
1000
,
0100
1000
0001
0000
0100
0001
1000
0000
,
0010
1000
0001
0000
0010
0001
0100
0010
,
1000
0000
1000
0010
0100
0001
0010
0000
,
0001
1000
0100
0001
0100
1000
0001
0000
,
1000
1000
0000
0010
0010
0010
0000
0100
,
0100
0100
0000
0001
0001
0001
0000
0010
,
0001
1000
0100
1000
0001
0010
0001
1000
,
0000
0010
1000
0001
0100
0001
1000
0000
,
1001
0000
0000
0000
;
