#TITLE:Copacabana;
#SUBTITLE:(At The Copa);
#ARTIST:Barry Manilow;
#TITLETRANSLIT:;
#SUBTITLETRANSLIT:;
#ARTISTTRANSLIT:;
#GENRE:;
#CREDIT:;
#BANNER:;
#BACKGROUND:;
#LYRICSPATH:;
#CDTITLE:;
#MUSIC:[Round F] - Copacabana (At The Copa).ogg;
#OFFSET:-0.006000;
#SAMPLESTART:38.897999;
#SAMPLELENGTH:12.000000;
#SELECTABLE:YES;
#BPMS:0.000000=114.000000
,20.000000=115.000000
,24.000000=115.500000
,25.500000=114.000000
,34.000000=115.000000
,35.000000=117.000000
,39.000000=116.000000
,43.000000=117.000000
,67.000000=116.000000
,73.000000=116.500000
,90.000000=117.500000
,98.000000=119.000000
,106.000000=114.000000
,113.000000=117.000000
,125.000000=117.400002
,168.000000=116.000000
,179.000000=117.000000
,183.000000=119.000000
,191.000000=117.000000
,220.000000=119.000000
,230.000000=118.000000
,232.000000=117.000000
,246.000000=115.500000
,262.000000=57.349998
,264.000000=28.674999
,264.750000=107.500000
,265.000000=114.800003
,271.000000=115.500000
,273.000000=118.000000
;
#STOPS:25.500000=0.496000,
73.000000=0.555000,
112.000000=0.526000,
126.500000=0.511000,
174.000000=0.511000,
213.000000=0.513000,
264.750000=0.419000
;
#BGCHANGES:;
#KEYSOUNDS:;
#ATTACKS:;

//---------------dance-single - ----------------
#NOTES:
     dance-single:
     :
     Hard:
     8:
     0.400531,0.395066,0.053404,0.407207,0.297061,420.000000,412.000000,8.000000,61.000000,0.000000,0.000000,0.400531,0.395066,0.053404,0.407207,0.297061,420.000000,412.000000,8.000000,61.000000,0.000000,0.000000:
0000
0000
0000
0000
,
0000
0000
0000
0000
,
0000
0000
0000
0000
,
1000
0000
0000
1000
0010
0000
0200
0000
0000
0000
0301
0000
0000
0010
0000
0000
,
0100
0000
0000
1000
0010
0000
0200
0000
0000
0000
0310
0000
0000
1000
0000
0000
,
0100
0000
0000
0100
0010
0000
0002
0000
0000
0000
1003
0000
0000
0001
0000
0000
,
0100
0000
0000
0010
0000
0000
1001
0000
0000
0000
0000
0000
1000
0000
0000
0100
,
1000
0000
0001
0000
0010
0000
0001
0000
0100
0000
0010
0000
1000
0000
0000
0100
,
0010
0000
0001
0000
0100
0000
0001
0000
1000
0000
0100
0000
0010
0000
0000
0001
,
0010
0000
0001
0000
1000
0000
0010
0000
0001
0000
0000
0000
0010
0000
0000
1000
,
0100
0000
1000
0000
0001
0000
0010
0000
1000
0000
0010
0000
0001
0000
0000
0001
,
0100
0000
1000
0000
0100
0000
0010
0000
1000
0000
0100
0000
0010
0000
0000
0010
,
1000
0000
0010
0000
0001
0000
0100
0000
0010
0000
1000
0000
0001
0000
0000
0001
,
0100
0000
0100
0000
0010
0000
0010
0000
1000
0000
0000
0000
1000
0000
0000
1000
,
0100
0000
0100
0000
0010
0000
0010
0000
0001
0000
0100
0000
1000
0000
0000
0100
,
0000
0000
0001
0000
0000
0000
0001
0000
1000
0000
0100
0000
0001
0000
0000
0100
,
0000
1000
0000
0010
0100
0000
0002
0000
,
0000
2003
0000
3020
,
0230
0000
0000
0000
0000
0000
0000
0000
0000
0000
0000
0000
0000
0000
0000
0000
0000
0000
0000
0000
0000
0000
0000
0000
0000
0000
0000
0000
0000
0000
0000
0000
0000
0000
0000
0000
0000
0000
0000
0000
0000
0000
0000
0000
0000
0000
0000
0000
0302
0003
0000
0000
0000
0000
0000
0000
0000
0000
0000
0000
0000
0000
0000
0000
0000
0000
0000
0000
0000
0000
0000
0000
0000
0000
0000
0000
0000
0000
0000
0000
0000
0000
0000
0000
0000
0000
0000
0000
0000
0000
0000
0000
0000
0000
0000
0000
0100
0000
0000
0000
0000
0000
0000
0000
0000
0000
0000
0000
0000
0000
0000
0000
0000
0000
0000
0000
0000
0000
0000
0000
0000
0000
0000
0000
0000
0000
0000
0000
0000
0000
0000
0000
1000
0000
0000
0000
0000
0000
0000
0000
0000
0000
0000
0000
0100
0000
0000
0000
0000
0000
0000
0000
0000
0000
0000
0000
0000
0000
0000
0000
0000
0000
0000
0000
0000
0000
0000
0000
0001
0000
0000
0000
0000
0000
0000
0000
0000
0000
0000
0000
0000
0000
0000
0000
0000
0000
0000
0000
0000
0000
0000
0000
,
1000
0000
0100
0000
0010
0000
0100
0000
1000
0000
0000
0001
0010
0000
1000
0000
,
0010
0000
0000
0100
0000
0000
1000
0000
0000
0010
0000
0000
0100
0000
0000
0000
0001
0000
0000
0000
1000
0000
0000
0000
,
0100
0000
0000
0010
0000
0000
0100
0000
1000
0000
0000
0001
0000
0000
0100
0000
,
0000
0000
0120
0000
0000
0000
1030
0000
0001
0000
0000
0010
0100
0000
0010
0000
,
1000
0010
0001
1000
0020
0000
0130
0002
,
0000
0000
0000
1003
0000
0000
0001
0000
0010
0000
1000
0000
,
0001
0000
0000
0000
0100
0000
0000
0000
1000
0000
0000
0000
0010
0000
0000
0000
0001
0000
0000
0000
0000
1000
0000
0000
,
0100
0010
1000
0100
0020
0000
0031
2000
,
0000
3010
0220
0000
,
0000
0330
0000
0000
0000
0000
0000
0000
0000
0000
0000
0000
0000
0000
0000
0000
0001
0000
0000
0000
0000
0000
0000
0000
0000
0000
0000
0000
0010
0000
0000
0000
0001
0000
0000
0000
0000
0000
0000
0000
2000
0000
0000
0000
0000
0000
0000
0000
0000
0000
0000
0000
0000
0000
0000
0000
3100
0000
0000
0000
0000
0000
0000
0000
,
0000
0010
0000
0000
0001
0000
0000
0100
0010
0000
1000
0000
0001
0000
0000
0010
,
0000
0001
0200
0000
0310
2000
0000
3001
,
1000
0000
0100
0000
0010
0000
0000
0100
0000
0000
1001
0000
0000
0000
0000
0000
,
2000
0000
0000
3100
0000
0000
0010
0001
0000
0000
0010
0000
0001
0000
0100
0000
,
0020
0000
0000
1030
0000
0000
0001
0100
0000
0000
1000
0000
0100
0000
0010
0000
,
1000
0000
0000
1000
0100
0000
0100
0000
0010
0000
0000
0000
0001
0000
0100
0000
,
0010
0000
0000
0010
1000
0000
1000
0000
0001
0000
0010
0000
0100
0000
0010
0000
,
0001
0000
0000
0100
0000
0000
0010
1000
0000
0000
0100
0000
1000
0000
0001
0000
,
0010
0000
0000
0100
0000
0000
0110
0000
0000
0000
1000
0000
0001
0000
0100
0000
,
1000
0000
0000
1000
0100
0000
0010
0000
1000
0000
0000
0000
0001
0000
0010
0000
,
0100
0000
0000
0100
1000
0000
0010
0000
0001
0000
0010
0000
1000
0000
0100
0000
,
0001
0000
0000
0100
0000
0000
1000
0000
0000
0000
1000
0000
0001
0000
0100
0000
,
1000
0000
0000
0100
0000
0000
0001
0000
0000
0000
0010
0000
0100
0000
0000
0000
,
2000
0000
3020
0000
,
0230
0000
0000
0000
0000
0000
0000
0000
0000
0000
0000
0000
0000
0000
0000
0000
0000
0000
0000
0000
0000
0000
0000
0000
0000
0000
0000
0000
0000
0000
0000
0000
0000
0000
0000
0000
0000
0000
0000
0000
0000
0000
0000
0000
0000
0000
0000
0000
0302
0000
0000
0000
0000
0000
0000
0000
0000
0000
0000
0000
0000
0000
0000
0000
0000
0000
0000
0000
0000
0000
0000
0000
0000
0000
0000
0000
0000
0000
0000
0000
0000
0000
0000
0000
0000
0000
0000
0000
0000
0000
0000
0000
0000
0000
0000
0000
2003
3000
0000
0000
0000
0000
0000
0000
0000
0000
0000
0000
0000
0000
0000
0000
0000
0000
0000
0000
0000
0000
0000
0000
0000
0000
0000
0000
0000
0000
0000
0000
0000
0000
0000
0000
0000
0000
0000
0000
0000
0000
0000
0000
0000
0000
0000
0000
0100
0000
0000
0000
0000
0000
0000
0000
0000
0000
0000
0000
0000
0000
0000
0000
0000
0000
0000
0000
0000
0000
0000
0000
0000
0000
0000
0000
0000
0000
0000
0000
0000
0000
0000
0000
0001
0000
0000
0000
0000
0000
0000
0000
0000
0000
0000
0000
,
0100
0000
1000
0000
0001
0000
0100
0000
0010
0000
0100
0000
0001
0000
0000
1000
,
0010
0000
0000
0001
0000
0000
0010
0000
0000
0100
0000
0000
0001
0000
0000
0010
0000
0000
0100
0000
0000
0000
1000
0000
,
0000
0000
0000
0000
0001
0000
0000
0000
0000
0000
0000
0000
0100
0000
0000
0000
0000
0000
0000
0000
0000
0010
0000
0000
0000
0000
0000
0000
0000
0000
0100
0000
0000
0000
0000
0000
0001
0000
0000
0000
0000
0000
0000
0000
0000
1000
0000
0000
,
0000
0000
0100
0000
0000
0000
0120
0000
0000
0000
0031
0000
1000
0000
0000
0010
,
0100
0010
0001
0010
1000
0001
0020
0000
,
0130
0000
0000
2000
0000
0000
0000
0000
0000
0000
0000
0000
3001
0000
0000
0000
0000
0000
1000
0000
0000
0000
0010
0000
,
0000
0000
0000
0000
0001
0000
0000
0000
0000
0000
0000
0000
1000
0000
0000
0000
0000
0000
0000
0000
0100
0000
0000
0000
0000
0000
0000
0000
0001
0000
0000
0000
0000
0000
0000
0000
0010
0000
0000
0000
0000
0000
0000
0000
0000
1000
0000
0000
,
0000
0001
0100
0010
0001
0100
0020
0000
,
1030
0002
0000
0000
0013
0000
0220
0000
,
0000
0000
0000
0000
0000
0000
0000
0000
0000
0000
0000
0000
0000
0000
0000
0000
0000
0000
0000
0000
0000
0000
0000
0000
0000
0000
0000
0000
0000
0000
0000
0000
0000
0000
0000
0000
0000
0000
0000
0000
0000
0000
0000
0000
0000
0000
0000
0000
0000
0330
0000
0000
0000
0000
0000
0000
0000
0000
0000
0000
0000
0000
0000
0000
0000
0000
0000
0000
0000
0000
0000
0000
0000
0000
0000
0000
0000
0000
0000
0000
0000
0000
0000
0000
0000
0000
0000
0000
0000
0000
0000
0000
0000
0000
0000
0000
0001
0000
0000
0000
0000
0000
0000
0000
0000
0000
0000
0000
0000
0000
0000
0000
0000
0000
0000
0000
0000
0000
0000
0000
0000
0000
0000
0000
0000
0000
0000
0000
0000
0000
0000
0000
0100
0000
0000
0000
0000
0000
0000
0000
0000
0000
0000
0000
0001
0000
0000
0000
0000
0000
0000
0000
0000
0000
0000
0000
0000
0000
0000
0000
0000
0000
0000
0000
0000
0000
0000
0000
2000
0000
0000
0000
0000
0000
0000
0000
0000
0000
0000
0000
0000
0000
0000
0000
0000
0000
0000
0000
0000
0000
0000
0000
,
0000
0000
3010
0000
0000
0100
0000
0000
0001
0000
0000
0010
0100
0000
1000
0000
,
0010
0000
0000
0100
0000
0000
0010
0000
2000
0000
0000
0000
3100
0000
0020
0000
,
0000
0000
0031
0000
0100
0000
0010
0000
1000
0000
0000
0010
0000
0000
0100
0000
,
0001
0010
0100
1000
0002
0000
0013
2000
,
0000
0000
3010
0100
0010
0100
0000
1000
0000
0001
0000
0100
0002
0000
0000
0000
,
0013
0000
0000
0100
0000
0000
1000
0000
0020
0000
0000
0000
0031
0000
0020
0000
,
0000
0000
0130
0001
0100
0001
0000
0010
0000
0100
2000
0000
0000
0000
0000
0000
,
3001
0000
0000
0100
0000
0000
0010
0000
2000
0000
0000
0000
3100
0000
0002
0000
,
0000
0000
0103
1000
0100
1000
0000
0001
0000
0010
0000
0001
0200
0000
0000
0000
,
0310
0000
0000
1000
0000
0000
0001
0000
0200
0000
0000
0000
1300
0000
0200
0000
,
0000
0320
2030
3002
0023
0000
0130
0000
,
1000
0000
0000
0010
0000
0000
0100
0000
0002
0000
0000
0000
0000
0000
0000
0000
,
2000
0000
0000
3003
0001
0000
0000
0010
0100
0000
0010
0000
0001
0000
0200
0000
,
0000
0320
0000
0000
2030
0000
0000
3100
0010
0000
0100
0000
1000
0000
0002
0000
,
0000
0023
0000
0000
2030
0000
0000
3010
0100
0000
1000
0000
0001
0000
0200
0000
,
0000
0320
0000
0000
2030
0000
0000
3001
0000
0000
1001
0000
0000
0000
0000
0000
;

//---------------dance-single - ----------------
#NOTES:
     dance-single:
     :
     Medium:
     6:
     0.308028,0.325348,0.013351,0.407207,0.086782,323.000000,321.000000,2.000000,61.000000,0.000000,0.000000,0.308028,0.325348,0.013351,0.407207,0.086782,323.000000,321.000000,2.000000,61.000000,0.000000,0.000000:
// measure 0
0000
0000
0000
0000
,  // measure 1
0000
0000
0000
0000
,  // measure 2
0000
0000
0000
0000
,  // measure 3
1000
0000
0000
0100
0000
0000
2000
0000
0000
0000
0000
0000
3010
0000
0000
0000
,  // measure 4
0010
0000
0000
0100
0000
0000
0020
0000
0000
0000
0000
0000
1030
0000
0000
0000
,  // measure 5
1000
0000
0000
0001
0000
0000
2000
0000
0000
0000
0000
0000
3001
0000
0000
0000
,  // measure 6
0001
0000
0000
0010
0000
0000
0100
0000
0000
0000
0000
0000
1000
0000
0000
0000
,  // measure 7
0010
0000
0100
0001
1000
0001
0100
0000
,  // measure 8
0010
0000
1000
0100
0010
0100
2000
0000
,  // measure 9
3100
0002
0103
2000
,  // measure 10
3010
0000
0001
0010
0100
0010
0001
0000
,  // measure 11
0010
0000
0100
1000
0001
1000
0100
0000
,  // measure 12
0010
0000
0001
0100
0010
0100
0002
0000
,  // measure 13
0013
2000
3010
0002
,  // measure 14
0103
0000
0000
0000
1000
0000
0100
0000
0010
0000
0001
0000
1000
0000
0000
0010
,  // measure 15
0000
0000
0100
0000
0000
0000
0001
0000
0010
0000
0100
0000
1000
0000
0000
0001
,  // measure 16
0000
0010
0000
0100
1000
0000
0002
0000
,  // measure 17
0000
2003
0000
3020
,  // measure 18
0230
0000
0000
0000
0002
0303
0000
0000
1000
0000
0000
0100
0000
0000
0010
0000
,  // measure 19
0000
0001
0010
0001
0100
0010
1000
0010
,  // measure 20
0100
0000
0000
0001
0000
0000
1000
0000
0100
0000
0000
0000
0010
0000
0100
0000
,  // measure 21
1000
0000
0001
0100
0010
0000
1000
0001
,  // measure 22
0010
0000
0200
0000
0000
0000
1300
0000
0001
0000
0000
0100
0000
0000
0010
0000
,  // measure 23
0000
1000
0100
0010
0002
0000
0000
2000
,  // measure 24
0000
0000
3003
0000
1000
0000
0001
0010
,  // measure 25
0100
0000
1000
0001
0100
0000
0010
1000
,  // measure 26
0001
0010
0100
1000
0020
0000
0000
0200
,  // measure 27
0000
0330
2002
0000
,  // measure 28
3003
0000
1000
0000
0100
0020
0000
0031
,  // measure 29
1000
0000
0000
0000
0020
0000
0000
0000
0130
0000
0000
0000
0100
0000
0000
0001
,  // measure 30
0000
0100
0020
0000
1030
0002
0000
0013
,  // measure 31
0100
0000
0000
0000
0010
0000
0000
0001
0000
0000
0100
0000
0000
0000
0000
0000
,  // measure 32
0001
0000
0100
0010
0000
1000
0001
1000
,  // measure 33
0010
0000
0100
0001
0000
0010
0100
0010
,  // measure 34
0002
0013
2000
3010
,  // measure 35
0002
0000
0103
0000
1000
0100
0010
0100
,  // measure 36
1000
0000
0100
0010
0000
0001
1000
0001
,  // measure 37
0010
0000
0100
1000
0000
0010
0100
0010
,  // measure 38
2000
3100
0002
0103
,  // measure 39
2000
0000
3010
0000
0001
0010
0100
1000
,  // measure 40
0001
0000
0000
0100
0000
0000
0010
0000
0000
0000
1000
0000
0100
0000
0010
0000
,  // measure 41
0001
0000
0000
1000
0000
0000
0100
0000
0000
0000
0010
0000
0001
0000
0000
0000
,  // measure 42
2000
0000
3002
0000
,  // measure 43
0203
0000
0000
0000
0320
0000
0000
0000
2000
3030
0000
0000
0001
0000
0000
0010
,  // measure 44
0000
0100
0000
1000
0100
1000
0010
0100
,  // measure 45
0001
0000
0100
0000
0010
0000
0000
1000
0000
0000
0001
0000
0010
0000
0000
0000
,  // measure 46
0100
0010
0001
0000
1000
0010
0100
0000
,  // measure 47
0001
0000
1000
0000
0100
0000
0020
0000
0000
0000
0031
0000
1000
0000
0000
0010
,  // measure 48
0000
0100
0000
0001
0010
0100
2000
0000
,  // measure 49
0000
0002
0000
0000
3003
0000
0001
0000
,  // measure 50
1000
0100
0010
0000
0001
1000
0010
0000
,  // measure 51
0100
0001
1000
0100
0010
0001
0200
0000
,  // measure 52
0000
0020
0000
0000
0330
0000
2002
0000
,  // measure 53
0000
0000
3003
0000
0001
0000
0010
0200
,  // measure 54
0000
1300
0001
0000
0100
0000
0010
1000
,  // measure 55
0010
0000
0000
0100
0000
0000
0001
0000
2000
0000
0000
0000
3100
0000
0020
0000
,  // measure 56
0000
0000
0031
0000
1000
0000
0000
0000
0010
0000
0000
0100
0000
0000
0001
0000
,  // measure 57
2000
0000
3200
0000
0320
0000
0000
0032
,  // measure 58
0000
1000
0100
0103
,  // measure 59
1000
0000
0000
0100
0000
0000
0010
0000
0002
0000
0000
0000
0000
0000
2003
0000
,  // measure 60
0000
0010
0100
3001
,  // measure 61
0001
0000
0000
0010
0000
0000
0100
0000
2000
0000
0000
0000
0000
0000
3020
0000
,  // measure 62
0000
0100
1000
1030
,  // measure 63
0001
0000
0000
1000
0000
0000
0100
0000
0020
0000
0000
0000
0000
0000
0230
0000
,  // measure 64
0000
1000
0010
0310
,  // measure 65
0001
0000
0000
0100
0000
0000
0010
0000
2000
0000
0000
0000
0000
0000
0000
0000
,  // measure 66
0002
0000
0000
3003
1000
0000
0000
0100
0000
0000
0020
0000
0000
0000
0000
0000
,  // measure 67
0130
0000
0000
0000
0100
0000
0000
1000
0000
0000
0002
0000
0000
0000
0000
0000
,  // measure 68
0103
0000
0000
0000
0100
0000
0000
0010
0000
0000
2000
0000
0000
0000
0000
0000
,  // measure 69
3001
0000
0000
0000
0001
0000
0000
0010
0000
0000
0100
0000
0000
0000
0000
0000
;

//---------------dance-single - ----------------
#NOTES:
     dance-single:
     :
     Easy:
     4:
     0.209802,0.209152,0.000000,0.100133,0.000000,220.000000,220.000000,0.000000,15.000000,0.000000,0.000000,0.209802,0.209152,0.000000,0.100133,0.000000,220.000000,220.000000,0.000000,15.000000,0.000000,0.000000:
// measure 0
0000
0000
0000
0000
,  // measure 1
0000
0000
0000
0000
,  // measure 2
0000
0000
0000
0000
,  // measure 3
0001
0010
0001
0000
,  // measure 4
0010
0100
1000
0000
,  // measure 5
0100
1000
0010
0000
,  // measure 6
0200
0000
0310
0010
0000
0000
1000
0000
,  // measure 7
0100
1000
0000
0001
,  // measure 8
0010
0100
0000
1000
,  // measure 9
0010
1000
0100
0010
,  // measure 10
0001
0100
0001
1000
,  // measure 11
0010
0100
0000
0001
,  // measure 12
0010
0100
0000
1000
,  // measure 13
0010
1000
1000
0001
,  // measure 14
0100
0001
0001
0010
,  // measure 15
0000
0100
0000
0000
0000
0000
1000
0000
,  // measure 16
0000
0001
0000
0000
0000
0000
0200
0000
,  // measure 17
0000
0310
0000
1000
,  // measure 18
0001
1000
0100
0100
,  // measure 19
0010
0001
1000
0010
,  // measure 20
0100
0000
0001
0010
,  // measure 21
1000
0010
0001
1000
,  // measure 22
0001
2000
0000
0000
3100
0000
1000
0000
,  // measure 23
0010
0000
1000
0000
0100
0000
0000
0010
,  // measure 24
0000
0000
0001
1000
,  // measure 25
0010
1000
0001
0010
,  // measure 26
0001
0000
0100
0000
0020
0000
0000
1030
,  // measure 27
0000
0000
0002
0000
,  // measure 28
0003
1000
0100
1000
,  // measure 29
0000
0001
0010
0001
,  // measure 30
0001
0100
0010
0100
,  // measure 31
0000
0000
0020
0000
0130
0100
0000
0000
,  // measure 32
0001
0100
0001
0000
,  // measure 33
1000
0010
0100
0000
,  // measure 34
0001
0010
0001
0100
,  // measure 35
0010
1000
0100
1000
,  // measure 36
0001
0010
0100
0000
,  // measure 37
1000
0010
0100
0000
,  // measure 38
0001
0010
0001
0001
,  // measure 39
1000
0100
1000
1000
,  // measure 40
0010
0000
0000
0100
0000
0000
0000
0000
,  // measure 41
0001
0000
0000
1000
0000
0000
0000
0000
,  // measure 42
0200
0000
0310
0000
,  // measure 43
0001
1000
0001
0100
,  // measure 44
0100
0010
1000
0001
,  // measure 45
0010
0100
0000
1000
,  // measure 46
0010
0001
0010
1000
,  // measure 47
0001
0000
1000
0002
0000
0000
0103
0000
,  // measure 48
0001
0010
0001
0100
,  // measure 49
0000
0010
0000
0000
0000
0000
1000
0000
,  // measure 50
0001
0010
0001
1000
,  // measure 51
0010
1000
0100
0020
,  // measure 52
0000
0031
0000
0000
0000
0000
2000
0000
,  // measure 53
0000
3000
0001
0100
,  // measure 54
0001
0000
1000
0010
,  // measure 55
1000
1000
0100
0010
,  // measure 56
0100
0000
0010
0100
,  // measure 57
2000
3020
0130
0001
,  // measure 58
0100
0010
1000
0100
,  // measure 59
1000
0000
0001
0010
,  // measure 60
0001
0100
0010
1000
,  // measure 61
0001
0000
0010
0100
,  // measure 62
1000
0001
1000
0100
,  // measure 63
0010
0000
0001
0100
,  // measure 64
1000
0100
0001
1000
,  // measure 65
0001
0000
0000
0000
0020
0000
0000
0030
,  // measure 66
0200
0300
1000
0000
0001
0000
0100
0000
,  // measure 67
0000
0001
0010
0100
,  // measure 68
0000
1000
0010
0100
,  // measure 69
0010
0000
2000
0000
3001
0001
0000
0000
;
