#TITLE:diagram;
#SUBTITLE:;
#ARTIST:Expander;
#TITLETRANSLIT:;
#SUBTITLETRANSLIT:;
#ARTISTTRANSLIT:;
#GENRE:;
#CREDIT:;
#BANNER:;
#BACKGROUND:;
#LYRICSPATH:;
#CDTITLE:;
#MUSIC:[Round E] - diagram.ogg;
#OFFSET:0.000000;
#SAMPLESTART:109.286003;
#SAMPLELENGTH:17.000000;
#LASTBEATHINT:446.200012;
#SELECTABLE:YES;
#BPMS:0.000000=112.000000
,22.000000=224.000000
,86.000000=112.000000
,88.000000=224.000000
,152.000000=112.000000
,156.000000=224.000000
,284.000000=112.000000
,332.000000=224.000000
,442.000000=112.000000
;
#STOPS:
;
#BGCHANGES:;
#KEYSOUNDS:;
#ATTACKS:;

//---------------dance-single - ----------------
#NOTES:
     dance-single:
     :
     Hard:
     11:
     0.833083,1.163158,0.428070,0.610526,1.164912,831.000000,770.000000,61.000000,87.000000,61.000000,0.000000,0.833083,1.163158,0.428070,0.610526,1.164912,831.000000,770.000000,61.000000,87.000000,61.000000,0.000000:
0000
0000
0000
0000
,
0000
0000
0000
0000
,
0001
0000
0001
0010
0000
0100
0000
0000
0010
0001
0100
0010
1000
0000
0100
1000
0000
0001
0100
0010
1000
0001
0000
0000
,
0000
0000
0000
0000
,
1000
0000
1000
0010
0100
0001
0010
0000
0010
0100
1000
0001
0100
0000
0100
0010
1000
0001
0010
0000
0010
0001
1000
0100
,
0000
000M
M000
000M
M000
000M
M000
000M
,
M000
000M
M000
0000
1001
0000
1100
0000
,
0011
0000
0000
1001
0000
0000
0001
0100
0010
1000
0001
0100
,
0010
0000
0000
1010
0000
0000
1000
0000
1000
0100
0000
0000
,
0010
0000
0001
0100
0000
0010
2000
0000
0000
3010
0000
0010
,
0100
0000
0000
0101
0000
0000
1001
0000
0000
1000
0100
0010
,
0001
0000
0200
0000
0000
0310
1000
0000
0000
0001
0000
0001
,
0200
0000
0300
0200
0000
0300
0010
0000
0000
2000
0000
0000
,
3010
0000
0002
0000
0000
0013
1000
0000
0000
1100
0000
0000
,
0010
0001
0010
0100
0000
0000
1001
0000
0000
0101
0000
0000
,
1010
0000
0000
2001
0000
0000
3020
0000
0000
1030
0001
1000
,
0010
0000
0000
0101
0000
0000
1100
0000
1000
0020
0000
0000
,
0130
0010
0100
0020
0000
1030
0100
0000
0100
0001
0000
0100
,
1000
0000
0000
1001
0000
0000
0001
0000
0001
0100
0000
0010
,
0000
0000
2000
0000
0000
3010
0100
0000
0000
0001
0000
0001
,
1000
0000
0100
0020
0000
0000
0130
0000
1000
0000
0000
0001
,
0000
0000
0000
0000
0000
0000
0000
0000
0100
0000
0000
0000
0010
0000
0000
0000
0000
0000
0000
0000
1000
0000
0000
0000
00M1
0000
0000
0000
0001
0000
0000
0000
0001
0000
0000
0000
1000
0000
0000
0100
0000
0000
0010
0000
0000
0001
0000
0000
,
1M00
0010
1000
0001
0010
0001
1000
0000
0000
1001
0000
0000
,
1000
1010
0101
1100
,
2000
0000
0000
0100
0000
0000
3001
0000
0010
0100
0000
0000
,
20M2
0000
0000
0000
0000
3000
0M10
0000
0000
0013
0000
0000
,
1000
0000
0001
0010
0000
1000
0010
0000
0001
0010
0000
0000
,
0100
0000
0000
1000
0000
1000
0000
0000
0001
0010
0000
0000
,
0001
0000
0000
0010
0001
1000
0100
1000
0001
0010
0000
0100
,
1000
0000
0010
1000
0001
0100
0001
0010
0100
1000
0000
1000
,
0001
0000
0100
0001
1000
0100
0010
0000
0100
1000
0000
0001
,
02M0
0000
0300
0020
0000
0030
2M00
0000
3000
0002
0000
0003
,
1000
0000
0100
1000
0010
0100
0001
0000
1000
0010
0000
0000
,
20M2
0000
0000
0000
0000
3000
0M10
0000
0000
0010
0000
0000
,
0103
0000
0100
0001
0010
0100
0010
0000
0001
1000
0000
0010
,
0100
0000
0000
0001
0000
0001
1000
0000
1000
0100
0000
0000
,
1000
0000
1000
0001
0010
0100
1000
0000
1000
0010
0100
0001
,
1000
0000
1000
0100
0010
0001
0100
0000
0010
0100
0001
0010
,
M100
0000
1000
0001
0100
0010
1000
0000
0001
0010
0100
1000
0002
0000
1003
0000
,
011M
1001
1010
0011
,
0001
0000
0100
0010
1000
0001
0M20
0000
0000
0000
0030
0000
,
0200
0000
1000
1300
0200
0000
0010
0310
,
0100
0000
0000
1001
0000
0000
0001
0100
0010
1000
0000
0000
,
1002
0000
0000
0013
0000
0000
0000
0000
0100
1000
0000
0001
,
0000
0000
0100
0001
0000
1000
0000
0000
0001
0010
0000
0000
,
0100
0000
0100
1000
0000
1000
0010
0000
0010
0002
0000
0000
,
2003
3200
0302
0013
,
0110
0000
0000
1001
0000
0000
1000
0000
0010
0000
0000
0000
,
0101
0000
0000
0001
0010
0100
200M
0000
3000
200M
0000
3000
,
02M0
0320
0M32
2003
,
3100
0000
1000
0010
0000
0000
0100
0000
0001
0010
0000
0000
,
0001
0000
0000
1010
0000
0000
0101
0000
0000
1000
0000
0100
,
001M
0000
0000
0000
001M
0000
0000
0000
001M
0000
0000
0000
0001
0000
0000
1000
0000
0000
0010
0000
0000
0000
0000
0000
,
0100
0000
0000
0001
0100
0001
0010
0000
0000
0001
1000
0010
,
1000
0000
0000
1000
0001
0010
020M
0000
0300
020M
0000
0300
,
1000
0000
1000
0001
0000
0100
0000
0000
0001
1000
0000
0010
,
0000
0000
1000
0100
1000
0010
0000
0000
0100
0001
1000
0100
,
20M0
0000
0000
3000
0M22
0000
0000
0033
,
M202
0000
0000
0303
0000
0100
0010
1000
0010
1000
0010
1000
,
0010
0000
0100
0000
0000
0001
0000
0000
0010
0100
0000
1000
,
0000
0000
0001
0010
0001
0100
0001
1000
0010
0100
0001
1000
,
0M20
0000
0000
0000
0000
0000
0000
0000
0000
0030
0000
0000
0100
0000
0001
0000
0100
0000
0001
0000
0100
0000
0001
0000
,
1000
0000
0100
0010
0001
0010
0001
0000
1000
0010
0000
0000
,
1000
0000
1000
0010
0000
0100
0000
0000
0010
1000
0100
0010
,
0001
0000
0100
0001
0000
1000
0100
0010
0001
1000
0000
0000
,
0001
0100
0001
1000
0100
1000
0M20
0000
0030
0M20
0000
0030
,
100M
0000
100M
0000
100M
0000
0100
0010
0100
0010
0100
0010
,
0001
0000
0001
0010
0100
1000
0010
0000
0010
0100
0001
1000
,
0100
0000
0100
0010
0001
1000
0010
0000
0010
1000
0001
0100
,
M020
0230
03M2
2003
,
3001
0100
0010
1000
0100
0010
0001
0000
0000
0001
0000
0000
,
20M2
0000
0000
0000
0003
0000
3010
0000
0000
0100
0000
0000
0001
0000
0000
0100
0001
0100
0001
0000
0000
0001
0000
0000
,
1000
0000
0000
0100
1000
0100
1000
0000
0000
1000
0000
0000
0001
0000
0000
0100
0000
0000
0010
0000
0100
0010
0000
0100
,
M020
0230
03M2
2003
302M
0230
03M2
2003
,
320M
M320
023M
M320
023M
M310
10M1
0000
,
0001
0000
0100
0010
0000
0000
0100
0000
0000
0001
0000
0000
2000
0000
0000
3200
0000
0000
2300
0000
0000
3020
0000
0000
,
0031
0000
1000
0100
0000
0000
0001
0000
0000
0100
0000
0000
0002
0000
0000
0023
0000
0000
0230
0000
0000
1300
0000
0010
,
0100
0000
0000
0001
0000
0100
0020
0000
0000
0000
0000
0000
1030
0000
0000
1000
0000
0001
0000
0000
0001
1000
0000
0000
,
0100
0000
1000
0010
0000
0000
0100
0000
0001
0010
0001
0010
0001
0000
0100
0010
0000
2000
0002
0000
0000
3003
0000
0000
,
1000
0000
0010
0100
0000
0000
0010
0000
0000
1000
0000
0000
0002
0000
0000
0013
0000
0001
0200
0000
0300
0200
0000
0300
,
0001
0000
0001
0010
0000
0000
0000
0000
0100
1000
0000
0000
2000
0000
0000
3200
0000
0000
0320
0000
0000
0031
0000
0100
,
0010
0000
0000
1000
0000
0010
0200
0000
0000
0000
0000
0000
0301
0000
0000
0001
0000
1000
0010
1000
0010
1000
0010
1000
,
0010
0000
1000
0100
0000
0000
0010
0000
0001
0100
0001
0100
0010
0000
0010
0100
0000
0001
1000
0000
0000
1001
0000
0000
,
00M1
0000
0100
0010
0000
1000
0000
0000
0100
1000
0000
0010
,
1000
0000
0000
0011
0000
0000
0001
0000
1000
0010
0000
0000
,
1000
0000
0100
0010
0000
0001
0000
0000
0100
0001
0000
0010
,
0001
0000
0001
0100
0000
0000
0010
0000
0000
1000
0000
0000
,
0100
0000
1000
0010
0000
0100
0000
0000
0001
1000
0000
1000
,
0001
0000
0100
0010
0000
0000
101M
0000
M101
0000
11M0
0000
,
0011
0000
0001
0100
0000
0000
1010
0000
1000
0100
0000
0000
,
1000
0000
0010
0100
0000
0100
0001
1000
0001
1000
0000
1000
,
0100
0000
1000
0001
0000
0010
0000
0000
1000
0010
0000
0001
,
0010
0000
0000
0101
0000
0000
1010
0000
1000
0100
0000
0000
,
0010
0000
0001
1000
0000
0010
0000
0000
0001
0010
0000
1000
,
0010
0000
0010
1000
0000
0000
0001
0000
0000
0010
0000
0000
,
0100
0000
0100
1000
0000
0001
0000
0000
0100
0010
0000
0000
,
0100
0000
0100
0001
0000
0000
1001
0000
1000
0001
1000
0001
,
1000
0000
0100
0010
0000
0000
0001
0000
0100
0010
0000
0000
,
1000
0000
0001
0010
0000
0000
M220
0000
0000
0000
0000
0330
,
1001
0000
0001
0010
0000
0010
0100
0000
1000
0010
0000
0010
,
0100
0000
0000
0000
0000
1001
0000
0000
0001
0010
0000
0000
,
0100
0000
0000
0010
0001
0100
0010
0000
1000
0000
0000
0010
,
0100
0010
0100
0010
0000
1000
0000
0000
0000
2001
0000
0000
,
3100
0000
1000
0010
0000
0010
0100
0000
0001
0010
0000
0010
,
0100
0000
1000
0001
0000
0100
0000
0000
0200
0020
0000
0330
,
0100
0000
0100
0010
1000
0001
0010
0000
0010
0100
1000
0001
,
0100
0000
0100
0001
1000
0100
0010
0000
0010
0001
1000
0010
,
0100
0010
0100
0010
0000
0000
1010
0000
0101
0000
1100
0000
,
0100
0010
0100
0010
0000
0000
0011
0000
1100
0000
0101
0000
,
0001
1000
0001
1000
0000
0000
0110
0000
1010
0000
0011
0000
,
0110
1001
M1MM
0000
;

//---------------dance-single - ----------------
#NOTES:
     dance-single:
     :
     Medium:
     9:
     0.591479,0.736667,0.315789,0.428070,0.487719,590.000000,545.000000,45.000000,61.000000,61.000000,0.000000,0.591479,0.736667,0.315789,0.428070,0.487719,590.000000,545.000000,45.000000,61.000000,61.000000,0.000000:
0000
0000
0000
0000
,
0000
0000
0000
0000
,
0001
0000
0001
0010
0000
0100
0000
0000
0010
0001
0000
0000
0100
0000
0000
0010
0000
0000
1000
0000
0000
0100
0000
0000
,
0000
0000
0000
0000
,
0010
0000
0010
0001
0000
0000
1000
0000
1000
0010
0000
0000
0100
0000
0100
0001
0000
0000
1000
0000
1000
0100
0000
0000
,
M000
000M
M000
000M
M000
000M
M000
000M
,
M000
000M
0000
0000
1001
0000
0001
0000
,
0110
0000
0000
0010
0000
0000
1000
0000
0010
0100
0000
0001
,
0020
0000
0000
0100
0000
0000
0031
0000
0100
0010
0000
0000
,
1000
0000
0010
0000
0000
0100
0001
0000
0000
1000
0000
0001
,
0200
0000
0000
0310
0000
0000
1000
0000
0000
0100
0000
0010
,
0000
0000
0200
0000
0000
1300
0001
0000
0000
0100
0000
0001
,
0010
0010
0100
2000
,
3001
0000
0200
0000
0000
0310
0100
0000
0000
1002
0000
0000
,
0013
0000
0001
0100
0000
0000
0110
0000
0000
0010
0000
0000
,
1001
0000
0000
1000
0000
0000
0001
0000
0010
0100
0000
1000
,
0020
0000
0000
0100
0000
0000
1030
0000
0100
1000
0000
0000
,
0001
0000
0100
0001
0000
0000
1000
0000
0000
0100
0000
0010
,
0002
0000
0000
0013
0000
0000
0001
0000
0000
0100
0000
0010
,
0000
0000
0200
0000
0000
0301
1000
0000
0000
0100
0000
0010
,
0100
0000
0000
1000
0000
0000
0001
0000
0100
0000
0000
0010
,
0000
0000
0000
0000
0000
0000
0000
0000
1000
0000
0000
0000
0000
0000
0000
0000
0000
0000
0000
0000
0100
0000
0000
0000
200M
0000
0000
0000
0000
0000
0000
0000
0000
0000
0000
0000
3001
0000
0000
1000
0000
0000
0001
0000
0000
1000
0000
0000
,
0M01
0000
0000
0010
0000
0100
1000
0000
0000
0001
0000
0000
,
0200
0320
2030
3200
,
1300
0000
0010
1000
0000
0000
0001
0000
0010
0001
0000
0000
,
20M1
0000
010M
3100
,
1000
0000
0001
0010
0000
0000
0010
0000
0000
0010
0000
0000
,
0100
0000
0000
1000
0000
0001
0000
0000
0000
1001
0000
0000
,
0001
0000
0000
0100
0000
0010
1000
0000
0010
0100
0000
0000
,
0001
0000
0010
0100
0000
1000
0001
0000
0000
1001
0000
0000
,
0001
0000
0000
0010
0000
0100
1000
0000
0001
0100
0000
0000
,
00M1
0001
1M00
1000
,
0100
0000
0000
1000
0000
0001
0010
0000
0100
1000
0000
0000
,
1M02
0000
M010
0010
,
0103
0000
0000
0010
0000
1000
0001
0000
0000
0010
0000
0000
,
0100
0000
0000
1000
0000
0100
0010
0000
0000
0001
0000
0000
,
1000
0000
0100
1000
0000
0000
0001
0000
0100
0001
0000
0000
,
1000
0000
0010
1000
0000
0000
0001
0000
0010
0001
0000
0000
,
10M1
1000
0100
0100
0010
0010
0001
0000
,
1M01
1000
0110
0100
,
1001
0000
0000
0001
0000
1000
0M20
0000
0000
0000
0000
0000
,
0130
0000
0001
1000
0100
0000
1000
0001
,
0100
0010
0110
1001
,
0001
0000
0000
0020
0000
0000
0000
0000
0000
0130
0000
1000
,
0000
0000
0000
0001
0000
0100
0000
0000
0000
0110
0000
0000
,
0100
0000
0100
0001
0000
0001
0010
0000
0010
0100
0000
0000
,
1000
0001
0100
0010
,
1000
0000
0000
0001
0000
0000
0000
0010
0000
0000
0000
0000
,
0001
0000
0100
0001
0000
1000
0M10
0000
0000
0M10
0000
0000
,
100M
0100
M010
0001
,
0200
0310
2000
3001
,
1000
0000
0000
0010
0000
0000
0100
0000
0000
0001
0000
1000
,
01M0
0000
01M0
0000
01M0
0000
1000
0000
0000
0001
0000
0000
,
0100
0000
0000
0001
0000
0001
1000
0000
0000
0100
0000
0100
,
1000
0000
0000
0010
0000
0010
010M
0000
0000
M100
0000
0000
,
0001
0000
0010
0100
0000
1000
0000
0000
0000
0200
0000
1300
,
0000
0000
0000
0002
0000
0013
0000
0000
0000
0200
0000
0310
,
M002
0000
2M03
0000
,
302M
0000
0130
0110
,
0100
0000
0001
0000
0000
0010
0000
0000
0100
0010
0000
0001
,
0000
0000
0100
0010
0000
1000
0001
0000
0000
1001
0000
0000
,
02M0
0000
0310
0110
,
1001
0000
0000
1000
0000
0001
0010
0000
0001
0100
0000
0000
,
0001
0000
1000
0010
0000
0100
0000
0000
0010
1000
0000
0000
,
0100
1000
0010
0100
,
0002
2003
310M
010M
,
M010
0000
M010
0000
M010
0000
0001
0000
0000
2001
0000
0000
,
3010
0000
0010
1000
0000
0000
0001
0000
0001
0010
0000
0000
,
0100
0000
0100
1000
0000
0000
0001
0000
0001
0100
0000
0000
,
002M
2030
3M02
0023
,
0130
0000
1000
0001
0000
0100
0010
0000
0000
0010
0000
0000
,
2M01
0000
3010
0000
0100
0001
1000
0000
,
0010
1000
0001
0010
0001
1000
1002
0000
,
M013
010M
M010
010M
,
M010
010M
M010
010M
M010
010M
M010
0000
,
2002
0000
0003
3100
1000
0001
0100
0010
,
2000
0000
0000
3001
0100
0001
0010
0100
,
0010
0001
2000
0000
3002
0000
0103
0001
,
0020
0000
0230
0000
1300
0001
0100
0000
,
2002
0000
3000
0103
0001
1000
0100
1000
,
0020
0032
2003
3200
,
0301
1000
0100
0010
0002
0000
1003
0001
,
0020
0000
0230
0000
1300
0001
0200
0000
,
031M
0000
1000
0001
0000
0010
0000
0000
0000
0100
0000
0000
,
1000
0000
0000
0011
0000
0000
0001
0000
1000
0001
0000
0000
,
0100
0000
0001
1000
0000
0100
0000
0000
0000
0010
0000
0000
,
0001
0000
0000
1100
0000
0000
2000
0000
0000
0000
0000
3001
,
0100
0000
0000
0010
0000
1000
0000
0000
0100
0010
0000
0000
,
0001
0000
0000
1000
0000
0000
01M0
0000
01M0
0000
01M0
0000
,
0100
0000
1000
0010
0000
0000
0000
0000
0100
0010
0000
0000
,
0100
0000
0001
0010
0000
0000
0100
0000
0000
1002
0000
0000
,
0013
0000
0001
1000
0000
0010
0000
0000
0000
0100
0000
0000
,
0001
0000
0000
1010
0000
0000
1000
0000
0001
1000
0000
0000
,
0100
0000
1000
0001
0000
0100
0000
0000
0000
0010
0000
0000
,
1000
0000
0000
0101
0000
0000
0002
0000
0000
0000
0000
1003
,
0100
0000
0000
0010
0000
0001
0000
0000
0100
0010
0000
0000
,
1000
0000
0000
0001
0000
0000
1000
0000
0100
0010
0000
0001
,
0100
0000
0001
0010
0000
0000
0000
0000
0100
0010
0000
0000
,
0100
0000
1000
0010
0000
0000
1M01
0000
0000
0000
0000
0000
,
0001
0000
0100
0001
0000
0000
1000
0000
0100
1000
0000
0000
,
0020
0000
0000
0000
0000
0130
0000
0000
0000
1001
0000
0000
,
0001
0000
0000
0010
0000
0100
1000
0000
0100
0000
0000
1000
,
0010
0000
0000
0100
0000
0001
0000
0000
0000
1001
0000
0000
,
1000
0000
0010
1000
0000
0000
0001
0000
0010
0001
0000
0000
,
0200
0000
0000
0000
0000
0310
0000
0000
0000
1001
0000
0000
,
1000
0000
0100
0010
0000
0000
0001
0000
0100
0010
0000
0000
,
1000
0000
0010
0100
0000
0000
0001
0000
0010
0100
0000
0000
,
2000
0000
0000
3100
0000
0000
1100
0000
1100
0000
1100
0000
,
0002
0000
0000
0103
0000
0000
0101
0000
0101
0000
0101
0000
,
0020
0000
0000
0130
0000
0000
0110
0000
0110
0000
0110
0000
,
0110
1001
M1MM
0000
;

//---------------dance-single - ----------------
#NOTES:
     dance-single:
     :
     Easy:
     6:
     0.397995,0.465263,0.224561,0.175439,0.021053,397.000000,365.000000,32.000000,25.000000,61.000000,0.000000,0.397995,0.465263,0.224561,0.175439,0.021053,397.000000,365.000000,32.000000,25.000000,61.000000,0.000000:
0000
0000
0000
0000
,
0000
0000
0000
0000
,
0001
0010
0000
0010
0100
1000
0001
0100
,
0000
0000
0000
0000
,
0010
0010
1000
1000
0001
0001
0100
0100
,
M000
000M
M000
000M
M000
000M
M000
000M
,
M000
000M
0000
0000
0001
0000
0100
0000
,
0010
1000
0100
1000
,
1010
0000
1000
0100
,
1000
0001
0100
0010
,
0100
0001
1000
0001
,
0000
0100
0000
0001
,
0010
0010
0001
0100
,
0000
0010
1000
0100
,
0110
1001
1000
0010
,
0100
0001
0010
0001
,
0101
0000
0001
0010
,
0001
1000
0010
0100
,
0010
1000
0001
1000
,
0000
0010
0000
1000
,
0100
0100
1000
0010
,
0000
0100
00M2
1003
,
1M01
1000
0001
0100
,
0010
0010
0100
0100
,
0001
0010
0100
1000
,
10M2
0000
M103
0000
,
0001
0010
0010
0010
,
0100
0000
1000
0000
,
0001
0100
0010
1000
,
1000
0010
0100
0001
,
1000
0100
0010
0001
,
2M00
0000
30M2
0000
,
0103
0001
0010
0100
,
20M1
0000
310M
0000
,
1000
0100
0010
0001
,
1000
0000
0001
0100
,
0010
0010
1000
1000
,
0001
0001
0010
0010
,
010M
0100
0100
1002
,
01M3
0001
0010
0100
,
1000
1000
20M2
3000
,
0103
0001
0100
1000
,
0100
0010
1000
0001
,
1000
0020
0030
0000
,
0100
0000
0001
1000
,
0001
1000
0010
0100
,
0100
0001
1000
0100
,
0010
0001
0000
0010
,
0100
0000
10M0
10M0
,
0M02
0000
20M3
0000
,
3001
0010
1000
0010
,
0001
0010
0100
1000
,
00M2
0000
00M0
0000
00M0
0000
1003
0000
0000
0100
0000
0000
,
1100
0000
0101
0000
,
1010
0000
0M11
0M11
,
0001
0100
0000
0100
,
0000
0010
0000
1000
,
11M0
0000
0M11
0000
,
M101
0000
1010
1010
,
0001
0010
0100
1000
,
0001
0100
0010
1000
,
10M1
0000
0001
0100
,
0001
1000
0100
1000
,
0001
0010
0000
0010
,
0100
1000
0001
0100
,
0010
1000
00M1
00M1
,
M200
0000
M000
0000
M000
0000
0310
0000
0000
1000
0000
0000
,
0010
0010
0100
0100
,
0001
0001
1000
1000
,
00M2
0000
2M03
0000
,
3100
0010
0100
0100
,
10M1
0001
0100
0010
,
1000
0010
0100
0001
,
10M0
0M01
10M0
0M01
,
10M0
0M00
10M0
0M00
10M0
0M00
10M1
0000
,
0002
0000
0103
0010
,
2000
0000
3100
0010
,
0001
1000
0100
1000
,
0010
0100
0001
1001
,
2000
0000
3010
0100
,
0001
0001
0010
0001
,
1000
0100
0001
0100
,
0010
0001
1000
0100
,
100M
0010
0000
0010
,
0100
0001
1000
1001
,
0001
0010
0000
0010
,
0100
1000
0020
0000
,
1030
0100
1000
0000
,
0001
0000
0000
0000
0000
0000
M200
0000
M000
0000
M000
0000
,
0310
0000
1000
0000
,
0001
1000
0100
0000
,
1000
0100
0000
0100
,
0010
0001
0100
0100
,
0020
0000
2030
0000
,
3002
0000
0023
0000
,
0031
0100
0001
0010
,
0100
0000
1000
0100
,
0010
0001
0000
0001
,
1000
0010
011M
0000
,
0100
0001
0100
1000
,
0100
0000
1001
0000
,
0001
0010
0100
0100
,
1000
0010
0100
2001
,
3100
1000
0100
0001
,
0100
0000
0110
0000
,
0100
1000
0001
0100
,
0010
1000
0001
0010
,
0011
0000
0100
0100
,
1010
0000
0100
0100
,
1001
0000
0010
0010
,
0100
1001
M1MM
0000
;

//---------------dance-single - ----------------
#NOTES:
     dance-single:
     :
     Beginner:
     3:
     0.215539,0.310175,0.105263,0.077193,0.021053,215.000000,200.000000,15.000000,11.000000,61.000000,0.000000,0.215539,0.310175,0.105263,0.077193,0.021053,215.000000,200.000000,15.000000,11.000000,61.000000,0.000000:
// measure 0
0000
0000
0000
0000
,  // measure 1
0000
0000
0000
0000
,  // measure 2
0000
0000
0000
0000
,  // measure 3
0000
0000
0000
0000
,  // measure 4
0000
0000
0000
0000
,  // measure 5
000M
M000
000M
M000
000M
M000
000M
M000
,  // measure 6
000M
M000
0000
0000
0001
0000
0000
0000
,  // measure 7
0010
0000
0100
0000
,  // measure 8
1001
0000
1000
0000
,  // measure 9
1000
0000
0100
0000
,  // measure 10
0210
0000
1300
0000
,  // measure 11
0010
0000
0100
0000
,  // measure 12
0001
0000
1000
0000
,  // measure 13
0010
0000
0010
0000
,  // measure 14
0120
0000
1030
0000
,  // measure 15
0100
0000
0010
0000
,  // measure 16
1001
0000
0001
0000
,  // measure 17
0001
0000
0010
0000
,  // measure 18
0120
0000
0031
0000
,  // measure 19
0100
0000
0010
0000
,  // measure 20
1000
0000
0001
0000
,  // measure 21
0100
0000
10M2
0000
,  // measure 22
M103
0000
0001
0000
,  // measure 23
1000
0000
0010
0000
,  // measure 24
1000
0000
0001
0000
,  // measure 25
10M1
0000
0M00
0000
,  // measure 26
0001
0000
0010
0000
,  // measure 27
0100
0000
0100
0000
,  // measure 28
1000
0000
0001
0000
,  // measure 29
0100
0000
0010
0000
,  // measure 30
1000
0000
1000
0000
,  // measure 31
0M02
0000
M000
0000
,  // measure 32
0013
0000
0100
0000
,  // measure 33
200M
0000
00M0
0000
,  // measure 34
3001
0000
0100
0000
,  // measure 35
0010
0000
0100
0000
,  // measure 36
0001
0000
0001
0000
,  // measure 37
1000
0000
1000
0000
,  // measure 38
20M2
0000
0000
0003
,  // measure 39
3M10
0000
1000
0000
,  // measure 40
0001
0000
M010
0000
,  // measure 41
0100
0000
0100
0000
,  // measure 42
1000
0000
0001
0000
,  // measure 43
0000
1001
0000
0000
,  // measure 44
0001
0000
1000
0000
,  // measure 45
0100
0000
0010
0000
,  // measure 46
0100
0000
1000
0000
,  // measure 47
0010
0000
0010
0000
,  // measure 48
0100
0000
01M0
00M0
,  // measure 49
1M01
0000
00M0
0000
,  // measure 50
0001
0000
1000
0000
,  // measure 51
0100
0000
1000
0000
,  // measure 52
0M01
0000
0M00
0000
0M00
0000
0010
0000
0000
0000
0000
0000
,  // measure 53
0001
0000
0001
0000
,  // measure 54
1000
0000
10M1
00M0
,  // measure 55
1000
0000
0100
0000
,  // measure 56
0010
0000
0001
0000
,  // measure 57
1M00
0000
001M
0000
,  // measure 58
M100
0000
0001
0000
,  // measure 59
0010
0000
0010
0000
,  // measure 60
0100
0000
0100
0000
,  // measure 61
10M0
0000
0001
0000
,  // measure 62
0001
0000
1000
0000
,  // measure 63
0100
0000
0100
0000
,  // measure 64
1000
0000
0010
0000
,  // measure 65
0100
0000
00M1
00M0
,  // measure 66
1M01
0000
0M00
0000
0M00
0000
1000
0000
0000
0000
0000
0000
,  // measure 67
0010
0000
1000
0000
,  // measure 68
0001
0000
0100
0000
,  // measure 69
00M1
0000
M000
0000
,  // measure 70
1000
0000
0100
0000
,  // measure 71
011M
0000
0100
0000
,  // measure 72
1000
1000
1000
0000
,  // measure 73
00M1
0M00
00M0
0M00
,  // measure 74
00M0
0M00
00M0
0M00
00M0
0M00
00M0
0000
,  // measure 75
1000
0000
0100
0010
,  // measure 76
0001
0000
0100
0001
,  // measure 77
0010
0000
0100
0000
,  // measure 78
1000
0100
0010
0001
,  // measure 79
1000
0000
0100
1000
,  // measure 80
0010
0000
0100
0001
,  // measure 81
1000
0000
0001
0010
,  // measure 82
0100
0010
0001
0000
,  // measure 83
10M0
0000
0000
0000
,  // measure 84
0100
0000
0010
0000
,  // measure 85
0001
0000
0000
0000
,  // measure 86
0100
0000
0001
0000
,  // measure 87
0010
0000
0010
0000
,  // measure 88
0100
0000
0000
0000
0000
0000
010M
0000
000M
0000
000M
0000
,  // measure 89
1000
0000
0100
0000
,  // measure 90
0010
0000
0001
0000
,  // measure 91
1000
0000
0000
0000
,  // measure 92
0100
0000
1000
0000
,  // measure 93
0010
0000
0000
0000
,  // measure 94
1000
0000
0001
0000
,  // measure 95
0100
0000
0000
0000
,  // measure 96
0001
0000
0010
0000
,  // measure 97
0100
0000
0010
0000
,  // measure 98
0001
0000
10M1
0000
,  // measure 99
1000
0000
0100
0000
,  // measure 100
1000
0000
1000
0000
,  // measure 101
0010
0000
0100
0000
,  // measure 102
0001
0000
1001
0000
,  // measure 103
0001
0000
0100
0000
,  // measure 104
0001
0000
0001
0000
,  // measure 105
1000
0000
0100
0000
,  // measure 106
0010
0000
0001
0000
,  // measure 107
2000
0000
3000
0000
,  // measure 108
0002
0000
0003
0000
,  // measure 109
0200
0000
0300
0000
,  // measure 110
0010
0000
M1MM
0000
;
