#TITLE:Overdose;
#SUBTITLE:;
#ARTIST:Ciara;
#TITLETRANSLIT:;
#SUBTITLETRANSLIT:;
#ARTISTTRANSLIT:;
#GENRE:R&B;
#CREDIT:chewi? chewi. It's gotta be chewi.;
#BANNER:[Round E] - Overdose.png;
#BACKGROUND:[Round E] - Overdose-bg.png;
#LYRICSPATH:;
#CDTITLE:cdtitle.png;
#MUSIC:[Round E] - Overdose.ogg;
#OFFSET:-0.343000;
#SAMPLESTART:44.923000;
#SAMPLELENGTH:15.000000;
#LASTBEATHINT:238.000000;
#SELECTABLE:YES;
#DISPLAYBPM:0.000000;
#BPMS:0.000000=107.000000
,140.000000=53.500000
,142.000000=107.000000
;
#STOPS:
;
#BGCHANGES:;
#KEYSOUNDS:;
#ATTACKS:;

//---------------dance-single - I had a blast charting this, thanks to the song submitter!----------------
#NOTES:
     dance-single:
     C 9 X 14:
     Challenge:
     9:
     0.542712,0.540732,0.194109,0.471407,0.419414,548.000000,520.000000,28.000000,68.000000,39.000000,0.000000,0.542712,0.540732,0.194109,0.471407,0.419414,548.000000,520.000000,28.000000,68.000000,39.000000,0.000000:
0000
0000
0000
0000
0000
0000
0000
MMMM
,
0000
0000
0000
0000
0000
0000
0000
MMMM
,
0000
0000
0000
0000
,
0210
0000
1000
0000
0000
0001
0000
0000
0310
0000
0110
0000
1001
0000
0001
0010
,
0100
0000
1000
0000
0001
0000
0100
0000
0010
0000
0010
0000
0100
0000
0100
1000
,
0100
0000
0001
0000
M010
0000
0000
0000
004M
0000
0000
0000
1030
0000
0100
0001
,
0100
0000
1000
0000
001M
0000
0000
0000
M010
0000
0000
0000
0001
0000
0100
1000
,
0100
0000
0001
0000
M010
0000
0000
0000
001M
0000
1000
0001
0100
0000
0200
0301
,
1000
0000
0001
0000
1000
0000
0100
0000
2000
0000
0010
0000
3001
0000
0010
1000
,
0010
0000
0001
0000
M100
0000
0000
0000
040M
0000
0000
0000
1300
0000
0010
0001
,
0010
0000
1000
0000
010M
0000
0000
0000
M100
0000
0000
0000
0001
0000
0010
1000
,
0010
0000
0001
0000
0100
M000
00M0
000M
0100
0000
1000
0000
0011
0000
0001
1000
,
0010
0000
1000
0001
0010
0000
0001
1000
0020
0000
0100
0100
0000
0000
0031
0000
,
0010
0000
0100
0000
0010
0000
1000
0001
0020
0000
1000
1000
0000
0000
0130
1000
,
00M1
0000
0M10
M000
0001
1000
0000
0000
1010
0000
0000
0020
0000
0000
0130
0001
,
2000
0000
0000
0000
3010
0000
0000
0000
1000
0000
0100
0000
0000
MMMM
0000
0000
0110
0000
0000
0000
0010
0000
0100
0000
1000
0000
0000
0000
0001
0000
1000
0000
,
0010
0000
0010
0000
1000
0001
1000
0000
0200
0000
0000
0010
0000
0000
0301
0100
,
0010
0000
0001
0010
0001
1000
0010
0000
0200
0000
1000
1000
0000
0000
0310
1000
,
0M01
0000
01M0
M000
0001
1000
0000
0000
1100
0000
0000
0020
0000
0000
0130
1000
,
0002
0000
0010
0000
0000
0100
0000
0000
1000
0000
0013
0000
0011
0000
0100
0000
,
0120
0000
1000
0000
0230
0000
0010
0000
2300
0000
3001
0000
1000
0000
0001
0100
,
0020
0001
0230
0010
0302
1003
0400
0010
,
1300
0000
1000
0001
0100
0000
0010
0000
0001
0000
0001
0000
0010
0000
0010
1000
,
0001
0010
1000
1000
1010
0011
0001
0101
,
0120
0000
0001
0000
0230
0000
0010
0000
0302
0000
0013
0000
0001
0000
1000
0100
,
0020
0130
0200
0001
0320
0031
0400
0010
,
0301
0000
0001
1000
0100
0000
0010
0000
1000
0000
1000
0000
0010
0000
0010
0001
,
1000
0000
0010
0000
0001
0010
0001
0000
0011
0000
1010
0000
1000
0001
1000
0100
,
0010
0001
0000
0010
0100
0000
1000
0010
0000
0100
1000
0000
0200
0000
0301
0100
,
0010
1000
0000
0010
0100
0000
0001
0010
0000
0100
0001
0000
0200
0000
2300
0000
,
3010
0000
0001
0000
1000
0000
0100
0000
0001
0000
0001
0200
0000
0000
0301
0000
,
0010
0000
1000
0000
0001
0000
0100
0010
0001
0000
0001
0020
0000
0000
0031
0100
,
0010
1000
0000
0010
0100
0000
0001
0010
0000
0100
0001
0000
0200
0000
0310
0001
,
1000
0010
0000
0100
0001
0000
1000
0010
0000
0100
1000
0000
0200
0000
0302
0000
,
1003
0000
1000
0001
0010
0000
0100
0000
0001
0000
0001
0000
0100
0000
0010
0001
,
1000
0000
0000
0000
1000
0000
0000
0000
1000
0000
0000
0000
0001
0000
0000
0100
0020
0000
0000
0000
1000
0000
0000
0000
0100
0000
0000
0000
0001
0000
0000
0000
,
0130
0000
0000
0100
0001
0000
0001
0010
0200
0000
1000
0000
0010
0000
0001
0000
,
0340
0000
1000
0000
0130
0000
0010
0001
1000
0000
001M
0000
M010
0000
0001
0000
,
0100
0000
0100
0001
0000
0000
M010
0000
001M
0000
1000
0000
0100
0000
0100
1000
,
0000
0000
1100
0000
0011
0000
0010
0001
0200
0000
0302
1000
2003
0000
3020
0030
,
0210
0000
1300
0100
0010
0000
0010
1000
0200
0000
2300
0001
3002
0000
0023
0030
,
0140
0000
1000
0000
0130
0000
0020
0031
2000
0000
301M
0000
M010
0000
0001
0000
,
0100
0000
0100
0002
1000
0000
M013
0000
001M
0000
1000
0000
0100
0000
0100
2000
,
0001
0000
3010
0000
0110
0000
0010
1000
2010
0000
0001
0000
3200
0000
0010
0000
,
0302
0000
0103
0000
0010
0000
0001
1000
0020
0000
1000
0000
0230
0000
0010
0000
,
2300
0000
3100
0000
0040
0000
0100
0000
1030
0000
1000
0001
1000
0000
0100
0000
,
0001
0000
0001
0000
0100
0000
0100
0010
0001
0000
0100
0000
1000
0000
1000
0000
,
1100
0101
0001
1001
0012
1000
0203
0010
,
2300
0000
3100
0000
0010
0000
1000
0001
0020
0000
0130
0000
0200
0000
0010
0000
,
0302
0000
0103
0000
0040
0000
0100
0000
0031
0000
0001
1000
0010
0000
0100
0000
,
1000
0000
1000
0000
0100
0000
0100
0001
1000
0000
0100
0000
0001
0000
0001
0000
,
0101
0000
1100
0000
0100
1000
0001
0100
0010
1000
0000
0001
0010
0000
0100
1000
,
0000
0010
0001
0000
2000
0000
3100
0001
1000
0010
0000
0100
0010
0000
1000
0100
,
0000
0010
1000
0000
0002
0000
0203
0000
1300
0000
0010
0000
0001
0000
0010
0000
,
0100
0000
0001
2000
0000
0000
3100
0000
0010
0000
1000
0000
0010
0000
0100
1000
,
0001
0000
0100
0020
0000
0000
1030
0001
0010
0100
0000
0010
0001
0000
1000
0010
,
0000
0100
1000
0000
0002
0000
0013
1000
0001
0010
0000
0100
1000
0000
0010
1000
,
0000
0100
0001
0000
2000
0000
3020
0000
0031
0000
0001
0100
0010
0000
0001
0000
,
1000
0000
1000
0000
0100
0000
0001
1000
0001
0000
0010
0000
0100
0000
0001
0000
,
1000
0000
0010
0000
0100
1000
0001
0100
0220
0000
0000
0000
0030
0000
0000
0000
,
0300
0000
0000
0000
;

//---------------dance-single - I have 20 hours to make this simfile... hoo boy...----------------
#NOTES:
     dance-single:
     C 2 X 3:
     Beginner:
     2:
     0.133697,0.164992,0.069325,0.000000,0.000000,135.000000,125.000000,10.000000,0.000000,0.000000,0.000000,0.133697,0.164992,0.069325,0.000000,0.000000,135.000000,125.000000,10.000000,0.000000,0.000000,0.000000:
// measure 0
0000
0000
0000
0000
,  // measure 1
0000
0000
0000
0000
,  // measure 2
0000
0000
0000
0000
,  // measure 3
0000
0000
0000
0000
,  // measure 4
1000
0000
0000
0000
,  // measure 5
1000
0000
0000
0000
,  // measure 6
0001
0000
0000
0000
,  // measure 7
1000
0000
0000
0000
,  // measure 8
0010
0000
0000
0000
,  // measure 9
0100
0000
0000
0000
,  // measure 10
0010
0000
0000
0000
,  // measure 11
0100
0000
0000
0000
,  // measure 12
0001
0000
0001
0000
,  // measure 13
1000
0000
1000
0000
,  // measure 14
0100
0000
0000
0000
,  // measure 15
0010
0000
0000
0000
,  // measure 16
0001
0000
0001
0000
,  // measure 17
1000
0000
1000
0000
,  // measure 18
0010
0000
0000
0000
,  // measure 19
0100
0000
0000
0000
,  // measure 20
0001
1000
0001
0000
,  // measure 21
1000
0001
1000
0000
,  // measure 22
0001
0001
0000
1000
,  // measure 23
1000
0000
1001
0000
,  // measure 24
0010
0100
0010
0000
,  // measure 25
0100
0010
0100
0000
,  // measure 26
0100
0100
0000
0010
,  // measure 27
0010
0000
0110
0000
,  // measure 28
0001
0001
0001
0000
,  // measure 29
1000
1000
1000
0000
,  // measure 30
0010
0100
0010
0000
,  // measure 31
0100
0010
0100
0000
,  // measure 32
0001
0001
0001
0000
,  // measure 33
1000
1000
1000
0000
,  // measure 34
0100
0100
0100
0000
,  // measure 35
0110
0000
0100
0000
,  // measure 36
0000
0000
1000
0000
,  // measure 37
0000
0000
0001
0000
,  // measure 38
0000
0000
0100
0000
,  // measure 39
0000
0110
0010
0000
,  // measure 40
0110
0000
0001
0000
,  // measure 41
1001
0000
0010
0000
,  // measure 42
0110
0000
1000
0000
,  // measure 43
1001
0000
1000
0001
,  // measure 44
1000
0000
0001
1000
,  // measure 45
0001
0000
0010
0010
,  // measure 46
0000
0001
0001
0000
,  // measure 47
1001
0000
0010
0100
,  // measure 48
0010
0000
1000
0001
,  // measure 49
1000
0000
1000
1000
,  // measure 50
0000
0010
0010
0000
,  // measure 51
0110
0000
0001
0001
,  // measure 52
0001
0000
1000
1000
,  // measure 53
1000
0000
0100
0010
,  // measure 54
0100
0000
0010
0100
,  // measure 55
0010
0000
0001
0001
,  // measure 56
0001
0000
1000
1000
,  // measure 57
1000
0000
0010
0010
,  // measure 58
0010
0000
1000
0100
,  // measure 59
0001
0010
1000
0000
;

//---------------dance-single - Should be fun.----------------
#NOTES:
     dance-single:
     C 4 X 6:
     Easy:
     4:
     0.204012,0.247489,0.159447,0.103987,0.000000,206.000000,183.000000,23.000000,15.000000,0.000000,0.000000,0.204012,0.247489,0.159447,0.103987,0.000000,206.000000,183.000000,23.000000,15.000000,0.000000,0.000000:
// measure 0
0000
0000
0000
0000
,  // measure 1
0000
0000
0000
0000
,  // measure 2
0000
0000
0000
0000
,  // measure 3
0000
0000
0000
0000
,  // measure 4
0001
0100
0010
1000
,  // measure 5
0001
0001
0000
0010
,  // measure 6
0001
0001
0000
1000
,  // measure 7
0010
0010
0000
0000
,  // measure 8
1000
0010
0100
0001
,  // measure 9
1000
1000
0000
0001
,  // measure 10
0010
0010
0000
0001
,  // measure 11
1000
1000
0000
1001
,  // measure 12
1000
0010
0200
0300
,  // measure 13
0001
0010
0200
0300
,  // measure 14
1000
1000
2000
3000
,  // measure 15
0001
0001
0002
0003
,  // measure 16
0010
0001
2000
3000
,  // measure 17
0010
1000
0002
0003
,  // measure 18
0100
0100
0200
0300
,  // measure 19
0220
0000
0330
1001
,  // measure 20
0010
1000
0001
0000
,  // measure 21
0010
0001
1000
0000
,  // measure 22
0010
0100
1001
0010
,  // measure 23
0100
1001
0100
1001
,  // measure 24
1000
0001
0100
0000
,  // measure 25
0001
1000
0100
0000
,  // measure 26
0010
0100
1001
0010
,  // measure 27
0100
1001
0100
1001
,  // measure 28
0001
0100
1000
0000
,  // measure 29
0001
0100
1000
0000
,  // measure 30
0001
0010
0100
0100
,  // measure 31
1000
0010
0100
0100
,  // measure 32
0001
0010
1000
0000
,  // measure 33
0001
0010
1000
0000
,  // measure 34
0100
0010
1001
0000
,  // measure 35
0220
0330
1000
0100
,  // measure 36
0010
0000
0100
1000
,  // measure 37
0010
0001
0010
1000
,  // measure 38
0001
0000
0010
0001
,  // measure 39
1000
0000
1000
0010
,  // measure 40
0202
0303
0001
0010
,  // measure 41
2200
3300
1000
0001
,  // measure 42
0101
0100
0010
1000
,  // measure 43
1100
0100
0010
0001
,  // measure 44
1000
0000
0010
1000
,  // measure 45
0001
0000
0010
0100
,  // measure 46
1001
0010
0100
1001
,  // measure 47
0100
1001
0010
0100
,  // measure 48
1000
0000
0010
0100
,  // measure 49
0001
0000
0100
0010
,  // measure 50
1001
0100
0010
1001
,  // measure 51
0100
1001
0010
0001
,  // measure 52
0100
0000
0010
0001
,  // measure 53
0100
0000
0010
1000
,  // measure 54
0001
0001
0010
0100
,  // measure 55
1000
1000
0010
1000
,  // measure 56
0100
0000
0010
1000
,  // measure 57
0100
0000
0010
0100
,  // measure 58
1001
0000
1000
0010
,  // measure 59
0001
0010
1001
0000
;

//---------------dance-single - Made an attempt to emulate chewi and ledgam3r1279 here.----------------
#NOTES:
     dance-single:
     C 6 X 10:
     Medium:
     6:
     0.294134,0.309361,0.138649,0.214906,0.114386,297.000000,277.000000,20.000000,31.000000,0.000000,0.000000,0.294134,0.309361,0.138649,0.214906,0.114386,297.000000,277.000000,20.000000,31.000000,0.000000,0.000000:
// measure 0
0000
0000
0000
0000
,  // measure 1
0000
0000
0000
0000
,  // measure 2
0000
0000
0000
0000
,  // measure 3
2000
0000
3001
1001
,  // measure 4
0001
0000
1000
0000
1000
0000
0100
0010
,  // measure 5
0002
0000
0010
0000
0010
0000
0013
0100
,  // measure 6
2000
0000
0010
0000
0010
0000
3010
0100
,  // measure 7
0002
0000
0010
0000
0013
1000
0010
0100
,  // measure 8
1000
0000
0001
0000
0001
0000
0100
0010
,  // measure 9
2000
0000
0010
0000
0001
0000
3010
0100
,  // measure 10
0002
0000
0010
0000
1000
0000
0013
0100
,  // measure 11
2000
0000
0000
0000
3010
0100
1001
0000
,  // measure 12
0001
0000
0000
0000
1000
0000
0000
0000
0100
0000
0000
0100
0000
0000
0100
0000
,  // measure 13
1000
0000
0000
0000
0001
0000
0000
0000
0100
0000
0000
0010
0000
0000
0100
0000
,  // measure 14
0001
0000
0000
0000
1000
0000
0000
0000
0100
0000
0000
0001
0000
0000
0100
0000
,  // measure 15
1000
0000
0001
0002
0103
0000
1000
0100
,  // measure 16
0001
0000
0000
0000
1000
0000
0000
0000
0010
0000
0000
0010
0000
0000
0100
0000
,  // measure 17
0001
0000
0000
0000
1000
0000
0000
0000
0100
0000
0000
0010
0000
0000
0100
0000
,  // measure 18
1000
0000
0000
0000
0001
0000
0000
0000
0010
0000
0000
1000
0000
0000
0010
0000
,  // measure 19
0002
0100
1003
0011
,  // measure 20
0210
0000
0001
0000
1300
0000
0001
0100
,  // measure 21
0020
0001
1030
1010
,  // measure 22
1000
0000
1000
0001
0010
0000
0001
0000
,  // measure 23
0001
0100
0010
0000
0110
0000
0010
0100
,  // measure 24
0210
0000
1000
0000
0301
0000
1000
0001
,  // measure 25
0020
1000
0031
0011
,  // measure 26
0001
0000
1000
0001
0010
0000
0001
0000
,  // measure 27
1000
0010
0100
0000
0110
0000
0100
0010
,  // measure 28
1000
0000
0000
1000
0000
0000
1000
0000
0000
1000
0000
0000
0200
0000
0000
0000
,  // measure 29
0310
0000
0000
0010
0000
0000
0010
0000
0000
0010
0000
0000
0002
0000
0000
0000
,  // measure 30
1003
0000
0000
0000
0010
0000
0000
0000
0001
0000
0000
0010
0000
0000
0100
0000
,  // measure 31
0001
0000
0000
0000
0010
0000
0000
0000
1000
0000
0000
0020
0000
0000
0000
0000
,  // measure 32
0031
0000
0000
0001
0000
0000
0001
0000
0000
0001
0000
0000
0200
0000
0000
0000
,  // measure 33
0310
0000
0000
0010
0000
0000
0010
0000
0000
0010
0000
0000
2000
0000
0000
0000
,  // measure 34
3001
0000
1000
0100
0010
0000
0001
0000
,  // measure 35
0001
0000
0200
0001
,  // measure 36
0310
1000
0200
1000
,  // measure 37
0310
0000
0000
0010
0000
0000
0000
0000
0001
0000
0000
0000
0010
0000
0000
0000
,  // measure 38
0100
0000
0000
1000
0000
0000
1000
0000
0001
0000
0000
0000
0100
0000
0000
0001
,  // measure 39
0000
0010
0010
0000
0100
1000
0001
0000
,  // measure 40
0002
0000
0000
0100
0000
0000
0103
0000
0010
0000
1000
0000
0001
0000
0000
0000
,  // measure 41
2000
0000
0000
0001
0000
0000
3010
0000
0010
0000
0000
0000
1000
0000
0000
0000
,  // measure 42
0100
0000
0000
1000
0000
0000
1000
0000
0001
0000
0000
0000
0100
0000
0000
0001
,  // measure 43
0000
0001
1000
0000
1020
0000
0001
0000
,  // measure 44
0130
0000
0001
1000
0200
0000
0001
0000
,  // measure 45
1300
0000
1100
0000
1000
0000
1000
0001
,  // measure 46
0010
0000
0001
0000
0001
0100
0010
0000
,  // measure 47
0110
0000
0010
0100
0201
0000
1000
0000
,  // measure 48
0310
0000
1000
0001
0020
0000
1000
0000
,  // measure 49
0031
0000
1100
0000
1000
0000
1000
0001
,  // measure 50
0010
0000
0001
0000
0001
1000
0010
0000
,  // measure 51
0110
0000
0000
0000
0010
0000
0100
0000
0001
0000
0000
0001
0000
0000
1000
0000
,  // measure 52
0000
1000
0000
0000
0200
0000
0000
0000
1300
0000
0000
1000
0000
0000
0001
0000
,  // measure 53
0000
0001
0000
0000
0200
0000
0000
0000
0301
0000
0000
0000
0010
0000
0000
0000
,  // measure 54
1000
0000
0000
0010
0000
0000
0100
0000
1000
0000
0000
0000
0010
0000
0000
0000
,  // measure 55
0001
0000
0000
0020
0000
0000
0000
0000
1030
0000
0000
1000
0000
0000
0001
0000
,  // measure 56
0000
0001
0000
0000
0200
0000
0000
0000
0301
0000
0000
0001
0000
0000
1000
0000
,  // measure 57
0000
1000
0000
0000
0200
0000
0000
0000
0310
0000
0000
0000
0010
0000
0100
0000
,  // measure 58
1000
0001
0101
1100
,  // measure 59
1010
0011
1001
0000
;

//---------------dance-single - I love Challenge so much more, hopefully this is just as good...----------------
#NOTES:
     dance-single:
     C 8 X 12:
     Hard:
     8:
     0.450610,0.474353,0.284231,0.214906,0.225305,455.000000,414.000000,41.000000,31.000000,24.000000,0.000000,0.450610,0.474353,0.284231,0.214906,0.225305,455.000000,414.000000,41.000000,31.000000,24.000000,0.000000:
0000
0000
0000
0000
,
0000
0000
0000
0000
,
0000
0000
0000
0000
,
0020
0000
0000
0000
0130
0010
1001
MMMM
,
0001
0100
0010
0100
0001
0100
0010
0001
,
0010
0100
0002
0000
1000
0000
0013
1000
,
0010
0100
2000
0000
0001
0000
3010
0001
,
0010
0000
0100
0000
0002
0000
0000
0000
1000
0000
0013
0000
0100
0000
0200
1300
,
0001
0010
0100
0010
0001
1000
0010
0001
,
0010
0100
0002
0000
1000
0000
0013
1000
,
0010
0100
2000
0000
0001
0000
3010
0001
,
0010
0100
0002
0000
1000
0013
MMMM
1000
,
1000
0000
0100
0000
0100
0000
1000
0000
2000
0000
0000
0001
0000
0000
3010
0000
,
0100
0000
0010
0000
0100
0000
0010
0000
0200
0000
0000
1000
0000
0000
0310
0000
,
1000
0000
0001
0000
1000
0100
0000
0000
0100
0000
0000
0002
0000
0000
0103
0010
,
0100
0000
1000
0000
0001
0100
0000
0000
0100
0000
0010
0000
0100
0000
0001
0000
,
0001
0000
1000
0000
0001
0000
0001
0000
0020
0000
0000
0100
0000
0000
0031
0000
,
0001
0000
0010
0000
0100
0000
0100
0000
0020
0000
0000
1000
0000
0000
0130
0000
,
1000
0000
0001
0000
1000
0010
0000
0000
0100
0000
0000
2000
0000
0000
3100
0010
,
0100
0000
0010
0000
0000
1000
0000
0000
0001
0000
0010
0000
MMMM
0000
0100
0000
,
1001
0000
1010
0000
0101
0000
0001
0010
,
0110
0000
0000
0000
1100
0000
0000
0000
0011
0000
0000
0000
0120
0000
0000
0130
,
1000
0001
1000
0010
0001
0010
1000
0001
,
1000
0100
0001
0100
1000
0100
0001
0100
,
0110
0000
1001
0000
1100
0000
1000
0001
,
0011
0000
0000
0000
1001
0000
0000
0000
1010
0000
0000
0000
0102
0000
0000
0103
,
0010
1000
0001
0010
1000
0010
0001
1000
,
0001
0000
0100
0000
1000
0000
0100
0000
0001
0000
0100
0000
0010
0100
0010
0000
,
1000
0010
0000
1000
0010
0000
1000
0010
0000
1000
0010
0000
0110
0000
0000
0000
,
0001
0010
0000
0001
0010
0000
0001
0010
0000
0001
0010
0000
0210
0000
0000
0000
,
0301
0000
0001
0000
0010
0000
0010
0000
1000
0000
1000
0002
0000
0000
0103
0000
,
1000
0000
1000
0000
0010
0000
0010
0000
0001
0000
0001
2000
0000
0000
3001
0000
,
1000
0100
0000
1000
0100
0000
1000
0100
0000
1000
0100
0000
0011
0000
0000
0000
,
0001
0100
0000
0001
0100
0000
0001
0100
0000
0001
0100
0000
1020
0000
0000
0000
,
0130
0001
1000
0100
0001
0100
0010
0100
,
1001
0000
0000
MMMM
0001
0100
0010
1000
,
0002
0000
0000
1003
0000
0000
1000
0010
0100
0000
0001
0000
1000
0000
0001
0000
,
0010
0000
0001
0020
0000
0000
0130
0000
1000
0000
0010
0000
0010
0000
0100
0000
,
0001
0000
0001
1000
0000
0000
0100
0000
0100
0000
0010
0000
0001
0000
0001
1000
,
0000
1001
MMMM
0000
1000
0100
0001
0100
,
0020
0000
0130
1000
0000
0000
1000
0000
0001
0000
0100
0000
1000
0000
0100
0000
,
0020
0000
1030
0020
0000
0000
1030
0000
0001
0000
0010
0000
0010
0000
0100
0000
,
1000
0000
1000
0001
0000
0000
1000
0000
0010
0000
0010
0000
0100
0000
0100
0001
,
0000
1001
MMMM
0010
1001
0000
0011
0000
,
1010
0000
0001
0100
0110
0000
1001
0000
,
1010
0000
0000
0000
0201
0000
0000
0310
1000
0000
0001
0000
1000
0000
0100
0000
,
0001
0100
1000
0001
1000
0010
0001
0010
,
1000
0010
0001
0010
1010
0000
0101
0000
,
1100
0000
0001
0010
0110
0000
1001
0000
,
0011
0000
0000
0000
1200
0000
0000
0310
0001
0000
1000
0000
0001
0000
0100
0000
,
1000
0100
0001
1000
0001
0010
1000
0010
,
0001
0000
0010
0000
0100
1000
0001
0000
0100
0010
0000
0100
0001
0000
0100
0010
,
0000
0100
0001
0000
1001
0000
0000
0000
0100
1000
0000
0100
0010
0000
0100
1000
,
0000
0100
0010
0000
1002
0000
0000
0000
0013
0000
0010
0000
1000
0000
1000
0000
,
0100
0000
0100
0002
0000
0000
1003
0000
0010
0000
0010
0000
0001
0000
0001
0000
,
0100
0000
0100
2000
0000
0000
3001
0000
0010
0100
0000
0010
0001
0000
0010
0100
,
0000
0010
0001
0000
1001
0000
0000
0000
0010
1000
0000
0010
0100
0000
0010
1000
,
0000
0010
0100
0000
2001
0000
0000
0000
3010
0000
1000
0000
0001
0000
0010
0000
,
1000
0010
0001
0100
1000
0100
0010
0100
,
0001
0000
0100
0000
0010
1000
0001
0000
0011
0000
0000
0000
0000
0000
0000
0000
;
