#TITLE:On Your Side;
#SUBTITLE:Tiltronica Remix;
#ARTIST:LCB-87 Featuring TILT;
#TITLETRANSLIT:;
#SUBTITLETRANSLIT:;
#ARTISTTRANSLIT:;
#GENRE:Pop;
#CREDIT:;
#BANNER:;
#BACKGROUND:;
#LYRICSPATH:;
#CDTITLE:;
#MUSIC:[Round E] - On Your Side (Tiltronica Remix).ogg;
#OFFSET:-0.000000;
#SAMPLESTART:0.000000;
#SAMPLELENGTH:12.000000;
#SELECTABLE:YES;
#BPMS:0.000000=145.000000
;
#STOPS:
;
#BGCHANGES:;
#KEYSOUNDS:;
#ATTACKS:;

//---------------dance-single - ----------------
#NOTES:
     dance-single:
     :
     Challenge:
     9:
     0.664369,0.641731,0.289627,0.513054,0.206877,562.000000,527.000000,35.000000,62.000000,2.000000,0.000000,0.664369,0.641731,0.289627,0.513054,0.206877,562.000000,527.000000,35.000000,62.000000,2.000000,0.000000:
0000
0000
0000
0000
1100
1000
0100
0000
0000
0000
0010
0000
0M00
0000
0010
0000
,
0000
0000
0000
0000
0000
0000
0001
0000
0100
0000
0010
0000
1000
0000
0000
0000
0000
0000
0010
0000
0000
0000
0000
0000
0100
0000
0000
0000
0000
0000
0010
0000
0000
0000
0000
0000
100M
0000
0000
0100
0000
0000
0010
0000
0000
0000
0000
0000
,
0001
0000
0011
0100
0000
0100
1100
1000
,
0010
0000
0100
0000
0101
0000
0002
0000
0013
0100
1000
0000
0001
0000
1000
0000
,
1001
0000
0010
0200
0300
1000
1001
0001
,
0000
0010
0100
4000
0000
3001
1001
1000
,
0010
0100
0001
0200
0000
0310
1010
1000
,
0001
0000
0100
0000
0010
0000
0010
0000
1000
0000
1000
0000
1000
0000
0001
0100
,
0010
1000
0100
0010
0000
0001
1001
0010
,
0000
0000
1000
0000
0100
0000
0010
0000
0002
0000
0000
0000
0103
0000
0010
1000
,
0010
0100
0001
1000
0100
0010
0011
0001
,
1000
0000
0010
0000
0100
0000
0001
0000
1000
0010
0100
0000
0001
0000
1000
0000
,
1001
0000
1000
0000
0200
0300
0020
0030
0001
0000
0200
0300
0020
0030
0200
0300
,
0001
0000
0020
0030
0200
0300
4000
0000
3001
0000
0100
0000
0002
0003
0200
0300
,
0010
0000
2000
3000
0200
0300
0020
0030
0001
0000
0200
0300
0020
0030
2000
3000
,
0002
0003
0200
0300
0020
0030
2000
3000
0010
0000
0010
0000
1000
0000
0001
1000
,
1001
0000
0020
0030
0200
0300
0020
0030
1000
0000
0200
0300
0010
0000
0002
0003
,
0010
0000
0200
0300
2000
3000
0002
0003
0400
0000
0310
0000
0200
0300
0002
0003
,
0100
0000
0020
0030
2000
3000
0020
0030
0200
0300
0002
0003
0020
0030
0200
0300
,
2000
3000
0002
0003
0200
0300
0020
0030
1000
0001
1000
0000
0010
0000
0100
0000
,
0210
0000
0000
0310
0000
0000
1000
0001
,
2000
0010
0000
0001
3000
0000
1001
0010
,
0200
0000
0001
0301
0000
0000
1001
0010
,
0200
0000
0000
0000
0000
0000
0302
0000
0000
0000
1003
0000
0010
0100
0001
0000
,
1000
0100
0010
0001
0010
0100
1000
0001
,
0000
0100
0010
1000
0010
0100
0001
0010
,
0100
1000
0100
0010
0001
1000
0001
0100
,
0000
0000
0010
0000
0010
0000
1000
0010
0000
0010
1000
0000
0001
0000
1000
0000
,
1000
0000
0110
0010
0000
0100
0010
1000
,
0010
0000
0000
0100
0000
0000
0001
0000
0000
0010
0000
0000
0100
0000
0000
1000
0100
1000
0100
0000
0000
0010
0000
0000
,
0001
0100
0010
1000
0020
0000
1030
0001
,
0010
0000
0001
0000
1000
0000
0010
0000
0100
0000
0001
0000
1000
0000
0100
0010
,
0110
0000
0001
0200
0000
0310
0000
1000
,
0001
0000
0100
0000
0010
0000
1000
0000
0001
0000
0010
0000
0010
0000
0100
1000
,
0001
0100
0010
1000
0100
0010
0001
0100
,
0000
0000
0010
1000
0010
1000
0010
0000
0100
0001
0100
0000
0010
0000
1000
0000
,
0100
0000
1001
0100
0000
0100
0000
0010
,
1000
0000
0000
0010
0000
0000
0100
0000
0000
0001
0000
0000
0000
0000
0000
0010
0100
0010
0100
0000
0000
1000
0000
0000
,
0001
0100
0010
1000
0002
0000
0103
0001
,
0010
0001
0101
0010
0000
1000
1000
1000
,
0101
0000
0001
0100
0000
0100
0010
0010
,
1000
0000
0000
0100
0000
0000
0010
0000
0000
0001
0000
0000
0000
0000
0000
1000
0010
1000
0010
0000
0000
1000
0000
0000
,
0001
0100
0010
1000
0100
0020
0000
0032
,
0000
0000
0103
0010
1000
0010
0100
0000
0001
0100
0010
0000
1000
0000
0100
0000
,
1100
0000
1001
0001
0000
0100
0010
0100
,
0000
0000
0000
0000
0000
0000
0100
0000
0001
0000
0100
0000
0001
0000
0000
0000
0000
0000
0010
0000
0000
0000
0000
0000
0001
0000
0000
0000
0000
0000
0100
0000
0000
0000
0000
0000
0001
0000
0000
0000
0000
0000
1000
0000
0000
0010
0000
0000
,
0100
0000
0101
0001
0000
1000
0010
0100
,
0100
0000
0100
0000
0001
0000
0100
0010
1000
0010
0100
0000
0001
1000
0010
1000
,
0001
0000
0010
0000
0010
0000
0100
1000
0000
0100
0010
0000
0001
0000
1000
0000
,
0010
0000
1001
0020
0000
0031
1000
0010
,
0100
0000
0000
0001
0000
0000
0010
0000
0000
0100
0000
0000
1000
0000
0000
0100
0010
0100
0010
0000
0000
0001
0000
0000
,
0100
0010
1000
0100
1000
0001
0100
0010
,
1000
0000
0100
0000
0010
0000
0100
0000
0020
0000
0000
0000
0130
0000
1000
0001
,
0100
0000
0101
0001
0000
0010
1010
1000
,
0001
0000
0000
0100
0000
0000
0010
0000
0000
1000
0000
0000
0000
0000
0000
0001
0010
0001
1000
0000
0000
0100
0000
0000
,
0010
0001
0100
0010
1000
0100
0010
0002
,
0000
0000
0103
0000
0010
0000
1000
0000
0100
0010
0100
0000
0010
0000
0001
0000
,
1001
0000
1010
0010
0000
0100
0001
0010
,
0100
0000
0000
1000
0000
0000
0001
0000
0000
0020
0000
0000
0000
0000
0000
0130
1000
0001
0100
0000
0000
0000
0000
0000
,
0010
1000
0010
0100
0001
1000
0010
1000
,
0001
0000
0100
0000
0010
0000
1000
0000
0001
1000
0001
0000
0100
0010
0100
0000
,
0110
0000
1001
0100
0000
0010
1000
0010
,
0100
0001
0010
0001
0000
1000
0001
0100
,
0010
1000
0010
1000
0100
0010
0001
0100
,
0010
0000
1000
0000
0010
0000
0100
0000
0001
0100
0001
0000
1000
0000
0100
0000
,
1100
0000
0011
0001
0000
0200
0000
0320
,
0000
0000
0000
1030
0001
0100
0010
0000
0000
1000
0000
0000
0001
0000
0000
0100
0000
0000
0010
0000
0000
1000
0000
0000
,
0001
0000
0011
0001
0000
0100
0000
0010
,
0000
0000
1000
0000
0010
0000
0100
0000
0001
0000
0010
0000
0100
0000
1000
0001
,
1001
2002
0000
0000
,
0000
0000
3003
0000
;

//---------------dance-single - ----------------
#NOTES:
     dance-single:
     :
     Hard:
     7:
     0.496504,0.543672,0.115851,0.157226,0.028963,420.000000,406.000000,14.000000,19.000000,0.000000,0.000000,0.496504,0.543672,0.115851,0.157226,0.028963,420.000000,406.000000,14.000000,19.000000,0.000000,0.000000:
0000
0000
0000
0000
,
0000
0000
0000
0000
,
0000
0000
0000
0000
,
0000
0000
0000
0000
,
1001
0000
0001
0100
0000
0100
0000
0100
,
0000
0010
1000
0020
0000
0000
0130
0001
,
0100
0010
1000
0010
0000
0100
0100
0001
,
0100
0000
0010
0000
1000
0000
0100
0000
0010
0000
0001
0000
0100
0000
0010
1000
,
0010
0100
0001
0100
0000
0010
0000
0010
,
0000
0010
1000
0010
1000
0000
1000
0001
,
0000
0100
0010
1000
0010
0100
0001
1000
,
0100
0010
0001
0100
0010
1000
0100
0000
,
1100
0000
1000
0001
0000
0100
0000
0020
,
0000
1030
0001
0200
0000
0000
0310
1000
,
0010
0100
0001
0010
0000
0100
1000
0100
,
1000
0100
0010
0001
0100
0010
1000
0010
,
0100
0001
0010
0001
0000
0001
0000
0001
,
0000
0100
0010
2000
0000
0000
3001
0100
,
0010
1000
0010
0100
0001
0010
0100
1000
,
0100
0010
0001
0100
0010
1000
0010
1000
,
0020
0000
0000
0130
0000
0000
0100
0000
,
0001
0000
0000
0100
0000
0000
0010
1000
,
0020
0000
0000
0130
0000
0000
0001
0010
,
0002
0000
0000
0103
0000
0000
0010
1000
,
0010
0000
0100
0000
0001
0000
0010
0001
,
0000
0100
0010
1000
0010
0100
0001
0010
,
0001
0000
0001
0000
1000
0000
0010
0010
,
0000
0000
0100
0000
0100
0000
0001
1000
0000
1000
0001
0000
0100
0000
0010
0000
,
0100
0000
0001
1000
0000
0010
0000
0100
,
0000
0001
0010
0100
0000
1000
0100
0010
,
0000
0001
0100
0010
2000
0000
3001
0100
,
0010
1000
0001
0010
0001
0100
0010
1000
,
0001
0000
0100
0010
0000
0000
1001
0000
,
0001
0010
0001
0100
0001
0000
0010
0100
,
0000
1000
0001
0010
0001
1000
0001
0100
,
0010
0000
1000
0000
0010
0000
0100
0000
0001
0000
0000
0010
0000
0000
0100
0000
,
1100
0000
0100
0010
0000
0001
0100
0010
,
0000
1000
0001
0100
0000
0010
1000
0010
,
0000
0100
0001
0010
0100
0000
1000
0001
,
0100
0000
0010
1000
0010
0100
0001
0010
,
0001
0000
0100
0010
0000
1000
0000
0100
,
0010
1000
0010
0200
0000
0301
0010
0001
,
0000
0100
0010
1000
0010
0100
0001
0010
,
0000
0000
0200
0000
0000
0000
1300
0000
0000
0001
0000
0000
1000
0000
0001
0000
,
1001
0000
1000
0010
0000
0100
0000
0002
,
0000
0013
0100
1000
0100
0000
0100
1000
,
0100
0000
0010
0001
0000
1000
0000
0010
,
0100
0001
0100
0010
1000
0100
0010
0001
,
1000
0000
0010
0000
1000
0000
0010
1000
0000
0010
1000
0000
0010
0000
0100
0000
,
0010
0000
0100
0001
0000
0010
0000
0001
,
0000
0100
0010
1000
0000
0010
0100
0010
,
0000
1000
0010
0100
0002
0000
1003
0010
,
0001
0010
1000
0010
0100
0001
0010
0001
,
0100
0000
0010
1000
0000
0010
0000
0100
,
0010
1000
0010
0200
0000
0301
0100
0010
,
0000
1000
0001
0100
0010
0000
1000
0000
,
0001
0000
0010
0000
0001
0100
0001
1000
,
0001
0000
0100
0010
0000
1000
0000
0001
,
0100
0010
2000
0000
3001
0100
0010
1000
,
0000
1010
0010
0110
,
0100
0001
0010
0001
0100
0001
0010
0000
,
1000
1100
0010
0011
,
0001
0000
0101
0000
0100
0010
1000
0010
,
0000
0000
0100
0001
0010
0001
1000
0001
,
0000
1000
0010
0100
0010
1000
0001
0000
,
0011
0000
1000
0010
0000
0100
0000
0020
,
0000
1030
0010
0100
0010
0000
1010
0000
,
0010
0000
0110
0010
0000
1000
0000
0010
,
0100
0010
2000
0000
3010
0000
1000
0010
,
1000
0000
0001
0100
0000
0010
0000
2000
,
0000
3010
0100
0010
1000
0000
0001
0000
,
0010
0000
0100
1000
0000
0001
0000
0000
,
0100
0010
0220
0000
,
0330
0000
0000
0000
;

//---------------dance-single - ----------------
#NOTES:
     dance-single:
     :
     Medium:
     5:
     0.334549,0.361207,0.082751,0.033100,0.000000,283.000000,273.000000,10.000000,4.000000,0.000000,0.000000,0.334549,0.361207,0.082751,0.033100,0.000000,283.000000,273.000000,10.000000,4.000000,0.000000,0.000000:
0000
0000
0000
0000
,
0000
0000
0000
0000
,
0000
0000
0000
0000
,
0000
0000
0000
0000
,
1001
0000
0001
0100
0000
0100
0000
0100
,
0000
0010
1000
0020
0000
0000
0130
0001
,
0000
0000
0001
0100
0000
0000
0010
0000
,
1000
0000
0010
0000
0100
0000
0001
0010
,
0001
0000
0100
0010
0000
0000
0010
0000
,
1000
0000
0001
0000
0100
0000
0010
1000
,
0000
0001
0100
0010
,
1000
0000
0001
0000
0010
0001
0010
0000
,
0001
1000
0010
0100
,
0001
0000
0010
0100
0000
0000
0100
1000
,
0100
0010
0001
0100
0000
0000
0010
0000
,
1000
0000
0010
0000
0100
0001
0100
0000
,
0010
0000
1000
0010
0000
0000
0010
0000
,
1000
0000
0001
0200
0000
0000
0310
0000
,
1000
0000
0001
0100
0010
0000
1000
0000
,
0001
0010
0100
1000
,
1001
0000
0000
0000
,
0001
0000
0000
1000
0000
0000
0000
0000
,
0001
0000
0000
0100
0000
0000
0000
0000
,
0010
0000
0010
1000
0000
0000
0001
0000
,
0100
0010
1000
0001
,
0010
0100
1000
0100
,
1000
0001
0100
0010
,
1000
0000
0000
0000
,
1001
0000
0010
0100
0000
0001
0000
0010
,
0000
0100
1000
0200
0000
0000
0310
0000
,
0000
0001
1000
0010
,
0100
0001
0010
0010
,
1100
0000
0001
0100
0000
0010
0000
1000
,
0000
0010
0000
0100
0000
0000
0001
0000
,
0000
0010
0100
1000
,
0100
0010
0001
0100
,
0100
0000
0010
1000
0000
0010
0000
0010
,
0000
0000
1000
0010
0000
0000
0100
0001
,
0000
0010
0100
1000
,
0100
0000
0010
0000
0001
0100
0001
0000
,
1001
0000
0010
0100
0000
0000
0001
0000
,
0010
0000
0100
1000
0000
0000
0001
0000
,
0100
0010
1000
0100
,
0010
0001
0100
0010
,
1000
0001
0100
0010
,
1000
0100
0010
0001
,
0100
0000
0010
1000
0000
0010
0000
0000
,
1000
0001
1000
0001
1000
0000
0010
0000
,
1010
0000
0000
0000
,
1010
0000
0010
1000
0000
0001
0000
0100
,
0000
0010
1000
0020
0000
0030
0100
0000
,
0000
0001
0010
0100
,
1000
0000
0001
0000
0100
0010
0100
0000
,
0110
0000
0010
1000
0000
0001
0000
0100
,
0000
0000
0010
1000
0000
0000
0001
0100
,
0000
0001
1000
0010
,
0100
0000
0001
0000
0010
0100
0010
0000
,
0110
0000
0100
1000
0000
0000
0001
0000
,
0100
0010
1000
0001
,
0010
0100
1000
0001
,
0100
0000
0010
0000
1000
0010
1000
0000
,
1001
0000
0010
0100
0000
0000
0001
0000
,
0010
0000
0100
0000
1000
0000
0001
0100
,
0010
1000
0001
0010
,
0100
1000
0001
0100
,
0100
0010
1000
0010
,
0100
0001
0010
0010
,
0100
1000
0001
0100
,
0010
0010
1000
0010
,
0100
0100
0000
0010
,
1000
0010
0100
0000
,
0001
0010
0000
0100
,
1000
0001
1000
0001
;

//---------------dance-single - ----------------
#NOTES:
     dance-single:
     :
     Easy:
     3:
     0.231702,0.301005,0.148951,0.016550,0.000000,196.000000,178.000000,18.000000,2.000000,0.000000,0.000000,0.231702,0.301005,0.148951,0.016550,0.000000,196.000000,178.000000,18.000000,2.000000,0.000000,0.000000:
// measure 0
0000
0000
0000
0000
,  // measure 1
0000
0000
0000
0000
,  // measure 2
0000
0000
0000
0000
,  // measure 3
0000
0000
0000
0000
,  // measure 4
0000
0001
0000
0000
,  // measure 5
0000
0100
0000
0000
,  // measure 6
0000
0010
1000
0010
,  // measure 7
0100
0001
0010
0010
,  // measure 8
0100
0000
0000
1000
,  // measure 9
0000
0000
0000
0010
,  // measure 10
0000
0000
0000
0100
,  // measure 11
0001
0100
0010
1000
,  // measure 12
0001
0000
0000
0001
,  // measure 13
0000
0001
0000
0100
,  // measure 14
0000
0100
0000
0010
,  // measure 15
0000
0010
1000
0001
,  // measure 16
0100
0000
0010
0000
,  // measure 17
1000
0000
0001
0000
,  // measure 18
0100
0000
0010
0000
,  // measure 19
1000
0000
0001
0000
,  // measure 20
0001
0000
0000
0000
,  // measure 21
1000
0000
0000
0000
,  // measure 22
0010
0000
0000
0010
,  // measure 23
0100
0000
0000
0001
,  // measure 24
1000
0000
0000
0010
,  // measure 25
0100
0001
0010
0000
,  // measure 26
0001
1000
0001
0000
,  // measure 27
0100
0000
0010
0000
,  // measure 28
1000
0001
0000
0100
,  // measure 29
0010
1000
0010
0100
,  // measure 30
0000
0001
0010
0100
,  // measure 31
1000
0001
0100
0100
,  // measure 32
0110
0000
0010
1000
,  // measure 33
0001
0100
0020
0030
,  // measure 34
1000
0001
0100
0010
,  // measure 35
1000
0100
0010
0000
,  // measure 36
0001
1001
0000
0011
,  // measure 37
0000
0011
0000
0001
,  // measure 38
1000
0010
0100
0001
,  // measure 39
0010
0100
1000
0001
,  // measure 40
1001
0000
0001
0000
,  // measure 41
0100
0010
2000
0000
,  // measure 42
3001
0100
0010
1000
,  // measure 43
0100
0010
0001
0100
,  // measure 44
0110
0000
0000
0010
0000
0000
0000
0000
,  // measure 45
1000
0001
0100
0010
,  // measure 46
1000
0000
0000
1000
0000
0000
0000
0000
,  // measure 47
0001
1000
0001
0100
,  // measure 48
0110
0000
0000
0000
,  // measure 49
0110
0010
0000
0010
,  // measure 50
0000
1000
0000
0001
,  // measure 51
0000
0100
0010
1000
,  // measure 52
0100
0010
0001
0100
,  // measure 53
0110
0000
0010
0000
,  // measure 54
1000
0001
0100
0010
,  // measure 55
0000
1000
0001
0100
,  // measure 56
0010
0000
1000
0001
,  // measure 57
1001
0000
0000
0010
0000
0000
0000
0000
,  // measure 58
0010
0100
0001
0000
,  // measure 59
0010
0100
1000
0000
,  // measure 60
0001
1000
0010
0000
,  // measure 61
0100
0000
0000
0101
,  // measure 62
0000
0001
0000
1000
,  // measure 63
0000
0001
0100
0010
,  // measure 64
0000
1000
0001
0100
,  // measure 65
0000
1001
0000
1001
,  // measure 66
0000
1001
0000
0110
,  // measure 67
0000
0011
0000
1100
,  // measure 68
0000
1000
0001
0100
,  // measure 69
0010
0000
0000
1001
,  // measure 70
0000
0010
0000
0100
,  // measure 71
0000
0001
0000
0010
,  // measure 72
0000
0100
0000
0001
;
