#TITLE:Like Fire Tonight;
#SUBTITLE:Extravagant Fire Mix;
#ARTIST:Gunther and the Sunshine Girls;
#TITLETRANSLIT:;
#SUBTITLETRANSLIT:;
#ARTISTTRANSLIT:;
#CREDIT:;
#BANNER:[Round E] - Like Fire Tonight (Extravagant Fire Mix).png;
#BACKGROUND:[Round E] - Like Fire Tonight (Extravagant Fire Mix)-bg.png;
#LYRICSPATH:;
#CDTITLE:;
#MUSIC:[Round E] - Like Fire Tonight (Extravagant Fire Mix).mp3;
#OFFSET:-0.044;
#SAMPLESTART:90.625;
#SAMPLELENGTH:16.000;
#SELECTABLE:YES;
#BPMS:0.000=120.005,64.000=60.005,86.000=120.005;
#STOPS:;
#BGCHANGES:;

//---------------dance-single - ----------------
#NOTES:
     dance-single:
     :
     Hard:
     8:
     0.602,0.649,0.418,0.194,0.690:
0000
0000
0000
0000
,
0000
0000
0000
0000
,
0000
0000
0000
0000
,
0000
0000
0000
0000
,
0001
0000
1000
0100
0000
0010
0001
0000
0100
0010
0000
1000
0000
0001
1000
0000
,
0001
0000
0010
0100
0000
1000
0010
0000
0100
0001
0000
1000
0000
0001
1000
0000
,
0100
0000
0010
0001
0000
0100
0010
0000
1000
0001
0000
0010
0000
0100
1000
0000
,
0001
0000
1000
0010
0000
0100
0001
0000
0010
0100
0000
1000
0000
0001
1000
0000
,
1001
0000
0001
1000
0000
0001
0010
0000
0020
0000
0000
0230
0000
0000
1300
0000
,
1000
0000
0001
1000
0000
0001
0010
0000
0020
0000
0000
0230
0000
0000
1300
0000
,
1000
0000
0001
0100
0000
0001
1000
0000
0002
0000
0000
2003
0000
0000
3010
0000
,
1000
0000
0010
1000
0000
0010
0100
0000
0001
0000
0100
0001
0000
0100
0010
0000
,
1000
0000
0100
1000
0000
0100
0010
0000
0020
0000
0000
0032
0000
0000
1003
0000
,
1000
0000
0001
1000
0000
0001
0010
0000
0001
0000
0000
1000
0000
0000
0010
0000
,
1000
0000
0100
0010
0000
0001
1000
0100
1000
0000
0001
0100
0000
0001
1000
0000
,
1100
0000
0000
1001
0000
0000
0110
0000
1001
0000
0000
0101
0000
0000
1100
0000
,
1001
0000
0000
0000
0000
0000
0001
0000
1000
0000
0000
0100
0000
0000
0010
0000
0001
0000
0000
0000
0000
0000
1000
0000
0001
0000
0000
0100
0000
0000
0010
0000
,
1000
0000
0000
0000
0000
0000
0000
0000
0001
0000
0000
1000
0000
0000
0010
0000
0100
0000
0000
0100
0000
0000
0001
0000
1000
0000
0000
0100
0000
0000
0010
0000
,
0001
0000
0000
0000
0000
0000
0001
0000
1000
0000
0000
0010
0000
0000
0100
0000
0001
0000
0000
0000
0000
0000
1000
0000
0001
0000
0000
0010
0000
0000
0100
0000
,
2000
0000
0000
0000
3000
0001
0010
0001
2000
0000
0000
0000
3000
0000
0000
0000
1001
0000
0000
0000
0000
0000
0000
0000
1001
0000
0000
1100
0000
0000
0101
0000
,
1001
0000
0000
0202
0000
0000
0303
0000
1000
0100
0001
0100
1000
0100
0010
0001
,
1000
0010
0001
0010
1000
0010
0100
0001
1000
0000
0010
1000
0010
0000
1000
0001
,
1000
0000
0001
0100
0001
0000
1000
0000
0001
0000
1000
0001
1000
0000
0001
0000
,
1000
0001
1000
0001
0100
0000
0000
0000
0001
0000
0000
1000
0100
0000
0010
0000
,
0001
0000
0000
1000
0010
0000
0100
0000
0001
0000
0000
1000
0100
0000
0010
0000
,
0001
0000
1000
0001
1000
0000
0100
0000
0010
0000
0000
0001
0010
0000
0100
0000
,
1000
0000
0000
0001
0100
0000
0010
0000
1000
0000
0000
0001
0010
0000
0100
0000
,
1000
0001
1000
0100
1000
0000
0001
0000
1000
0000
0000
0010
0100
0000
0001
0000
,
0010
0000
0000
0100
0010
0000
0001
0000
0100
0000
0000
0010
0100
0000
0001
0000
,
0010
0001
1000
0001
0010
0000
0100
1000
0001
0000
0100
0001
1000
0000
0010
1000
,
0001
0000
0010
0001
1000
0000
0000
0000
0010
0000
0000
0100
0000
0000
0001
0000
,
1001
0000
0000
1000
0001
1000
0100
0000
0110
0000
0000
0010
0001
0000
0100
0000
,
0020
0000
0000
2030
0000
0000
3001
0000
0010
0000
0000
0100
1000
0000
0010
0000
,
0200
0000
0000
0302
0000
0000
1003
0000
0100
0000
0000
0010
0001
0000
0100
0000
,
0010
0000
0000
1000
0100
0000
0010
0000
0001
0000
0000
1000
0000
0000
0010
0000
,
0100
0000
0000
0000
0110
0000
0000
0000
1001
0000
0000
1000
0100
0000
0010
0000
,
0001
0000
0000
0001
0100
0000
0010
0000
1000
0000
0000
1000
0010
0000
0100
0000
,
0001
0000
0000
0001
0010
0000
0100
0000
1000
0000
0000
1000
0001
0000
0100
0000
,
0010
0000
0000
1000
0100
0000
0010
0000
0002
0000
0000
0100
0000
0000
1003
0000
,
1001
0000
0000
0000
0110
0000
0000
0000
1001
0000
1000
0100
0000
0010
0001
0000
,
0100
0000
0010
1000
0000
1000
0001
0000
0100
0000
0010
1000
0000
0100
0010
0000
,
0001
0000
1000
0010
0000
0010
0100
0000
0001
0000
1000
0100
0000
0010
0100
0000
,
1000
0000
0001
0100
0000
0001
1000
0000
0010
0000
1000
0010
0000
1000
0001
0000
,
0100
0000
0010
0100
0000
0001
1000
0000
1001
0000
0001
0100
0000
0010
0100
0000
,
0001
0000
0010
0100
0000
1000
0100
0000
0010
0000
0001
1000
0000
0100
0010
0000
,
0001
0000
1000
0010
0000
0100
0010
0000
1000
0000
0010
1000
0000
0010
1000
0001
,
1000
0000
0100
0010
0000
0100
0010
0000
0011
0000
0000
0001
0000
0000
1000
0000
,
1010
0000
0000
1001
0000
0000
0101
0000
1001
0000
0000
0000
0000
0000
0220
0000
,
0000
0000
0000
0000
0000
0000
0330
0000
1001
0000
1000
0100
0000
0010
0001
0000
,
1001
0000
0001
0100
0000
0010
0100
0000
0110
0000
0100
0001
0000
1000
0001
0000
,
1001
0000
1000
0100
0000
0010
0100
0000
1100
0000
1000
0001
0000
0001
0100
0000
,
0110
0000
0100
0010
0000
1000
0001
0000
0101
0000
0001
0100
0000
1000
0100
0000
,
0101
0000
0001
0100
0000
0100
0010
0000
1010
0000
1000
0100
0000
0010
0100
0000
,
0110
0000
0010
0001
0000
0100
0010
0000
1001
0000
1000
0010
0000
0100
0010
0000
,
1010
0000
1000
0010
0000
0001
0010
0000
1010
0000
1000
0010
0000
0010
1000
0001
,
1000
0000
0100
0010
0000
0001
1000
0000
1001
0000
0000
1100
0000
0000
1010
0000
,
1001
0000
0000
0011
0000
0000
0101
0000
1001
0000
0000
1100
0000
0000
0011
0000
,
1001
0000
0000
0101
0000
0000
0110
0000
2001
0000
0000
3200
0000
0000
0302
0000
,
0023
0000
0000
2030
0000
3000
0001
0000
1001
0000
0000
0000
0000
0000
0220
0000
,
0000
0000
0000
0000
,
0330
0000
0000
0000
;

//---------------dance-single - ----------------
#NOTES:
     dance-single:
     :
     Medium:
     6:
     0.420,0.470,0.164,0.254,0.280:
0000
0000
0000
0000
,
0000
0000
0000
0000
,
0000
0000
0000
0000
,
0000
0000
0000
0000
,
1001
0000
0000
1000
0000
0000
1000
0000
0100
0000
0000
0001
0000
0000
0100
0000
,
0010
0000
0000
0010
0000
0000
0010
0000
0001
0000
0000
1000
0000
0000
0001
0000
,
0100
0000
0000
0100
0000
0000
0100
0000
1000
0000
0000
0001
0000
0000
1000
0000
,
0100
0000
0000
0100
0000
0000
0100
0000
0001
0000
0000
0000
1000
0000
0001
0000
,
0012
0000
0000
0000
1003
0000
0000
0000
0002
0000
0000
2003
0000
0000
3020
0000
,
0130
0000
0000
0000
0001
0000
0000
0000
2000
0000
0000
3002
0000
0000
0023
0000
,
0130
0000
0000
0000
1000
0000
0000
0000
0001
0000
0000
1000
0000
0000
0010
0000
,
1000
0000
0000
1000
0000
0000
0100
0000
0100
0000
0000
1000
0000
0000
0001
0000
,
0010
0000
0000
0000
1000
0000
0010
0000
0002
0000
0000
2003
0000
0000
3020
0000
,
0130
0000
0000
0000
0001
0000
0100
0000
0010
0000
0000
1000
0000
0000
0100
0000
,
2000
0000
0000
0100
0002
0000
3003
0000
,
2001
0000
0000
0001
0000
0000
3010
0000
1002
0000
0000
0010
0000
0000
0103
0000
,
0001
0000
0000
0000
0000
0000
0000
0000
1000
0000
0000
0001
0000
0000
0100
0000
0002
0000
0000
0000
0003
0000
0000
0000
0001
0000
0000
1000
0000
0000
0100
0000
,
2000
0000
0000
0000
3000
0000
0000
0000
0001
0000
0000
0100
0000
0000
0010
0000
1000
0000
0000
1000
0000
0000
0100
0000
0010
0000
0000
0100
0000
0000
1000
0000
,
0020
0000
0000
0000
0030
0000
0000
0000
1000
0000
0000
0001
0000
0000
0010
0000
0002
0000
0000
0000
0003
0000
0000
0000
0001
0000
0000
1000
0000
0000
0010
0000
,
2000
0000
0000
0000
0000
0000
0000
0000
3001
0000
0000
0000
0000
0000
0000
0000
1001
0000
0000
0000
0000
0000
0000
0000
1000
0000
0000
0100
0000
0000
0010
0000
,
0001
0000
0000
2001
0000
0000
0100
0000
3010
0000
0000
0000
0000
0000
0000
0010
,
0100
0000
0000
0200
0000
0000
0000
0000
0301
0000
0100
0000
1000
0000
0100
0000
,
0001
0100
1000
0100
0010
1000
0100
0001
,
0100
0000
1000
0000
0001
0000
0000
0000
1000
0000
0000
1000
0000
0000
0100
0000
,
0010
0000
0000
0010
0000
0000
0001
0000
1000
0000
0000
1000
0000
0000
0010
0000
,
0100
0000
0000
0000
0110
0000
0001
0000
1000
0000
0000
1000
0000
0000
0010
0000
,
0100
0000
0000
0100
0000
0000
0001
0000
0010
0000
0000
0010
0000
0000
0100
0000
,
1000
0000
0001
0000
0100
0000
0001
0000
1000
0000
0000
1000
0000
0000
0100
0000
,
0001
0000
0000
0001
0000
0000
0100
0000
1000
0000
0000
1000
0000
0000
0100
0000
,
0010
0001
1000
0010
0001
0010
1000
0100
,
0001
0000
0100
0000
1000
0000
0010
0000
0100
0000
0000
0001
0000
0000
0010
0000
,
0100
0000
1000
0100
0020
0000
0031
0000
,
1000
0000
0000
0001
0000
0000
0010
0000
0100
0000
0000
0000
1000
0000
0001
0000
,
0010
0000
0000
0001
0000
0000
1000
0000
0001
0000
0000
0001
0000
0000
0100
0000
,
0010
0000
0000
0010
0000
0000
1000
0000
0001
0000
0000
0010
0000
0000
0100
0000
,
2000
0000
0000
3000
2000
0000
0000
3000
0001
0000
0000
0001
1000
0000
0001
0000
,
1000
0000
0000
0100
0000
0000
0010
0000
0001
0000
0000
0001
1000
0000
0001
0000
,
0010
0000
0000
0001
0000
0000
1000
0000
0001
0000
0000
0001
1000
0000
0100
0000
,
0001
0000
0000
0100
0000
0000
1000
0000
0020
0000
0000
0001
0000
0000
0100
0000
,
1030
0000
1001
0000
0011
0000
0001
1000
,
0001
0100
0010
1000
0001
0000
1000
0001
,
1000
0010
0100
0001
1000
0000
1000
0100
,
0010
0000
0000
0001
0000
0000
1000
0000
0010
0000
0000
0010
0000
0000
0100
0000
,
0001
0000
0000
1000
0000
0000
0100
0000
0010
0000
0000
0000
0010
0000
0001
0000
,
0100
0010
1000
0001
1000
0000
1000
0100
,
0010
0100
1000
0010
0200
0000
0000
0001
,
0001
0000
0000
0000
1300
0000
0000
0000
0210
0000
0000
0010
0000
0000
0310
0000
,
1001
0000
0000
1000
0000
0000
0100
0000
0010
0000
0000
0000
0000
0000
2002
0000
,
0000
0000
0000
0000
0000
0000
0000
0000
3003
0000
0000
0001
1000
0000
0100
0000
,
0010
0000
0100
0000
1000
0000
0010
0000
0100
0000
0000
0010
0100
0000
0001
0000
,
0010
1000
0010
0001
1000
0000
1000
0010
,
0100
0000
0000
0001
0000
0000
0010
0000
0011
0000
0000
0010
0000
0000
0100
0000
,
1100
0000
0000
0001
0000
0000
0100
0000
0110
0000
0000
0010
1000
0000
0100
0000
,
0001
0000
0100
0000
1000
0000
0010
0000
0100
0000
0000
0100
0001
0000
0010
0000
,
1000
0010
0001
0100
0020
0000
0000
1000
,
1030
0000
0000
0000
0000
0000
0000
0000
2001
0000
0000
0100
0000
0000
0010
0000
,
0010
0000
0000
0001
0000
0000
3001
0000
1002
0000
0000
0100
0000
0000
0010
0000
,
0010
0000
0000
1000
0000
0000
1003
0000
1001
0000
0000
1001
0000
0000
1001
0000
,
1001
0000
0000
1000
0000
0000
0100
0000
0010
0000
0000
0000
0000
0000
2002
0000
,
0000
0000
0000
0000
,
3003
0000
0000
0000
;

//---------------dance-single - ----------------
#NOTES:
     dance-single:
     :
     Beginner:
     1:
     0.123,0.218,0.119,0.000,0.000:
0000
0000
0000
0000
,
0000
0000
0000
0000
,
0000
0000
0000
0000
,
0000
0000
0000
0000
,
1000
0000
0000
0000
,
0010
0000
0000
0000
,
0100
0000
0000
0000
,
0001
0000
0000
0000
,
1001
0000
0000
0000
,
0001
0000
0000
0000
,
1000
0000
0000
0000
,
0100
0000
0010
0000
,
0001
0000
0001
0000
,
1000
0000
0010
0000
,
1000
0000
1000
0000
,
1001
0000
0001
0000
,
1001
0000
1000
0000
,
1000
0000
1000
0000
,
0001
0000
0001
0000
,
0001
0000
1001
0000
,
1001
0000
0001
0001
,
1000
1000
0001
0000
,
0001
0000
1000
0000
,
1000
0000
0001
0000
,
0100
0000
0001
0000
,
0100
0000
1000
0000
,
0100
0000
1000
0000
,
0100
0000
0010
0000
,
0100
0000
0010
0000
,
0100
0000
0001
0000
,
1000
0000
0001
0000
,
1000
0000
1001
0000
,
0000
0000
0001
0000
,
0000
0000
1000
0000
,
0000
0000
0001
0000
,
0000
0000
1001
0000
,
0000
0000
1000
0000
,
0000
0000
0001
0000
,
0000
0000
1000
0000
,
1000
1000
1000
0000
,
0100
0000
0001
0000
,
0100
0000
1000
0000
,
0001
0000
1000
0000
,
0100
0000
0010
0000
,
0001
0000
1000
0000
,
0010
0000
1000
0000
,
1000
0000
1001
0000
,
1001
0000
1001
0000
,
0000
0000
0001
0000
,
0100
0000
1000
0000
,
0100
0000
0001
0000
,
0100
0000
0010
0000
,
1000
0000
0001
0000
,
0010
0000
1000
0000
,
0010
0000
0001
0000
,
1000
0000
1001
0000
,
1001
0000
1001
0000
,
1001
0000
1001
0000
,
1001
1000
1000
0000
;

//---------------dance-single - ----------------
#NOTES:
     dance-single:
     :
     Easy:
     4:
     0.211,0.269,0.104,0.067,0.022:
0000
0000
0000
0000
,
0000
0000
0000
0000
,
0000
0000
0000
0000
,
0000
0000
0000
0000
,
1000
0000
1000
0000
,
0010
0000
0010
0000
,
0100
0000
0100
0000
,
0001
0000
0001
1000
,
1001
0000
1000
0010
,
0100
0000
0001
1000
,
0100
0000
0010
0001
,
1000
0000
0001
1000
,
0010
0000
0010
1000
,
0001
0000
0010
0001
,
1000
0000
1000
0000
,
1001
0000
0000
0000
0000
0000
0000
0000
0001
0000
0000
0001
0000
0000
0001
0000
,
1000
0000
0100
0000
,
0010
0000
0001
0000
,
1000
0000
0010
0000
,
0100
0000
0000
0000
0101
0000
0001
1000
,
0100
0000
0000
2200
0000
0000
3300
0000
1001
0000
0000
0000
0000
0000
0000
0000
,
0110
0000
0001
0100
,
0001
0100
1000
0100
,
1000
0100
0001
1000
,
0100
0001
0100
0010
,
0001
0000
0001
0100
,
1000
0100
0010
1000
,
0001
0000
1000
0100
,
0010
0100
1000
0010
,
0100
0000
0101
1000
,
1100
0001
1000
0010
,
0100
0000
1001
0000
,
0001
0010
0100
0000
,
1000
0010
0100
0100
,
0001
1000
0001
0000
,
0010
0010
1001
0000
,
0001
0100
0010
0000
,
1000
0100
0010
0000
,
0010
0001
2000
0000
,
0002
3003
1001
0000
,
1000
0100
0001
0000
,
0001
0100
1000
0000
,
0001
0100
1000
0100
,
0001
0010
1000
0000
,
1000
0010
0001
0000
,
1000
0010
0002
0000
,
0020
0033
1001
0000
,
1000
0000
0000
1000
0000
0000
0100
0000
0001
0000
0000
0000
0000
0000
0200
0000
,
0000
0000
1300
0100
,
0010
0100
1000
0001
,
1000
0010
0100
0001
,
1000
0100
1000
0100
,
0001
0100
0010
0001
,
1000
0010
0100
0001
,
0100
1000
0100
0010
,
1000
0000
1001
0000
,
1000
0000
0000
1000
0000
0000
1000
0000
0001
0000
0000
0000
0000
0000
0000
0000
,
0001
0000
0000
0001
0000
0000
0001
0000
0100
0000
0000
0000
0000
0000
0000
0000
,
0100
0000
0000
0100
0000
0000
0100
0000
0010
0000
0000
0000
0000
0000
2002
0000
,
0000
0000
0000
0000
,
3003
0000
0000
0000
;

//---------------dance-double - ----------------
#NOTES:
     dance-double:
     :
     Hard:
     9:
     0.587,0.671,0.276,0.097,0.653:
00000000
00000000
00000000
00000000
,
00000000
00000000
00000000
00000000
,
00000000
00000000
00000000
00000000
,
00000000
00000000
00000000
00000000
,
00010000
00000000
00001000
00010000
00000000
00000100
00001000
00000000
00000010
00000100
00000000
00000001
00000000
00001000
00000001
00000000
,
00000010
00000000
00000100
00010000
00000000
00001000
01000000
00000000
00010000
01000000
00000000
00100000
00000000
10000000
00010000
00000000
,
10000000
00000000
00100000
10000000
00000000
01000000
00100000
00000000
00001000
00010000
00000000
00000100
00000000
00001000
00000001
00000000
,
00000100
00000000
00001000
00010000
00000000
00010000
00001000
00000000
00100000
00010000
00000000
10000000
00100000
10000000
00010000
00000000
,
10010000
00000000
10000000
01000000
00000000
00100000
00010000
00000000
00020000
00000000
00000000
02030000
00000000
00000000
03001000
00000000
,
00010000
00000000
00000100
00001000
00000000
00000100
00000010
00000000
00000020
00000000
00000000
00000032
00000000
00000000
00001003
00000000
,
00000100
00000000
00010000
00001000
00000000
00100000
00010000
00000000
01000000
00000000
00100000
01000000
00000000
00100000
10000000
00000000
,
00010000
00000000
01000000
00010000
00000000
10000000
00010000
00000000
00100000
00000000
00001000
00010000
00000000
00000010
00001000
00000000
,
00000001
00000000
00001000
00000100
00000000
00000010
00000001
00000000
00000002
00000000
00000000
00000203
00000000
00000000
00001300
00000000
,
00010000
00000000
00001000
00100000
00000000
01000000
00100000
00000000
00010000
00000000
00000000
00100000
00000000
00000000
01000000
00000000
,
10000000
00000000
00010000
00100000
00000000
00100000
01000000
10000000
01000000
00000000
00100000
00010000
00000000
01000000
00100000
00000000
,
10100000
00000000
00000000
00010000
00000000
00000000
00100000
00000000
00110000
00000000
00000000
00001000
00000000
00000000
00010000
00000000
,
00011000
00000000
00000000
00000000
00000000
00000000
00010000
00000000
00000010
00000000
00000000
00000100
00000000
00000000
00000001
00000000
00001000
00000000
00000000
00000000
00000000
00000000
00000001
00000000
00000010
00000000
00000000
00000100
00000000
00000000
00010000
00000000
,
00001000
00000000
00000000
00000000
00000000
00000000
00000000
00000000
00001000
00000000
00000000
01000000
00000000
00000000
00100000
00000000
10000000
00000000
00000000
10000000
00000000
00000000
01000000
00000000
00010000
00000000
00000000
00001000
00000000
00000000
00000100
00000000
,
00000010
00000000
00000000
00000000
00000000
00000000
00001000
00000000
00000001
00000000
00000000
00000100
00000000
00000000
00001000
00000000
00010000
00000000
00000000
00000000
00000000
00000000
00010000
00000000
00100000
00000000
00000000
10000000
00000000
00000000
01000000
00000000
,
00200000
00000000
00000000
00000000
00000000
00310000
00100000
00010000
20000000
00000000
00000000
00000000
30000000
00000000
00000000
00000000
10010000
00000000
00000000
00010000
00000000
00000000
00100000
00000000
01000000
00000000
00000000
00010000
00000000
00000000
00001000
00000100
,
00000010
00000000
00000000
00002001
00000000
00000000
00003100
00000000
00001010
00001000
00000010
00000100
00000001
00000010
00001000
00010000
,
01000000
10000000
00010000
10000000
00100000
01000000
00010000
10000000
10010000
00000000
10000000
00100000
01000000
00000000
00010000
00100000
,
01000000
00000000
00100000
00010000
10000000
00000000
01000000
00000000
00010000
00000000
00000010
00001000
00000001
00000000
00001000
00000000
,
00000001
00000010
00000001
00001000
00000001
00000000
00000100
00000000
00000001
00000000
00000100
00000001
00000100
00000000
00000001
00000000
,
00001000
00000000
00000100
00001000
00000100
00000000
00001000
00000000
00000100
00000000
00010000
00001000
00010000
00000000
00001000
00000000
,
01000000
00000000
00010000
10000000
00010000
00000000
10000000
00000000
01000000
00000000
00100000
01000000
00100000
00000000
01000000
00000000
,
00100000
00000000
00001000
00010000
00001000
00000000
00010000
00000000
00000010
00000000
00000100
00000010
00000100
00000000
00000001
00000000
,
00001000
00000001
00000010
00000001
00001000
00000000
00000001
00000100
00000010
00000000
00001000
00000001
00001000
00000000
00000100
00000000
,
00010000
00000000
00001000
00100000
00001000
00000000
01000000
00000000
00100000
00000000
10000000
01000000
10000000
00000000
00100000
00000000
,
01000000
00010000
10000000
00010000
01000000
00000000
00100000
10000000
01000000
00000000
00100000
00010000
01000000
00000000
00001000
00010000
,
00000100
00000000
00001000
00000001
00000010
00000000
00000000
00000000
00000001
00000000
00000000
00000100
00001000
00000000
00010000
00000000
,
01000000
00000000
00000000
10000000
01000000
00100000
01000000
00000000
11000000
00000000
00000000
10000000
01000000
00000000
00100000
00000000
,
00001000
00000000
00000000
00010000
00000000
00000000
00000010
00000000
00000100
00000000
00000000
00000001
00000100
00000000
00000010
00000000
,
00001000
00000000
00000000
00010000
00000000
00000000
01000000
00000000
00100000
00000000
00000000
10000000
01000000
00000000
00100000
00000000
,
00010000
00000000
00000000
01000000
00100000
00000000
10000000
00000000
01000000
00000000
00000000
00100000
00000000
00000000
00001000
00000000
,
00000010
00000000
00000100
00000000
00001000
00000000
00000001
00000000
00000010
00000000
00000000
00000001
00001000
00000000
00000010
00000000
,
00000100
00000000
00000000
00001000
00000000
00000000
00100000
00000000
00010000
00000000
00000000
10000000
00100000
00000000
01000000
00000000
,
00001000
00000000
00000000
00010000
00000000
00000000
00000100
00000000
00000010
00000000
00000000
00000001
00001000
00000000
00000010
00000000
,
00000100
00000000
00000000
00000001
00000010
00000000
00001000
00000000
00010000
00000000
01000000
00000000
10000000
00000000
00100000
00000000
,
00010000
00000000
00001000
00010000
00001000
00000000
00000000
00000000
00011000
00000000
00000000
00010000
00000100
00000000
00000010
00000000
,
00000001
00000000
00001000
00000001
00000000
00000100
00000001
00000000
00000100
00000000
00000000
00000100
00000010
00000000
00001000
00000000
,
00000100
00000000
00010000
00001000
00000000
01000000
00010000
00000000
10000000
00000000
00000000
01000000
10000000
00000000
00010000
00000000
,
01000000
00000000
00100000
10000000
00000000
01000000
00100000
00000000
00001000
00000000
00010000
00000100
00000000
00000010
00000100
00000000
,
00001000
00000000
00000010
00000100
00000000
00000001
00000100
00000000
00000010
00000000
00000000
00001000
00000100
00000000
00000010
00000000
,
00000001
00000000
00000100
00001000
00000000
00010000
00001000
00000000
00100000
00000000
00000000
00010000
01000000
00000000
00100000
00000000
,
10000000
00000000
01000000
00100000
00000000
01000000
10000000
00000000
00010000
00000000
01000000
00100000
00000000
01000000
00100000
10000000
,
00010000
00000000
10000000
00010000
00000000
10000000
00010000
00000000
10010000
00000000
00000000
00010000
00000000
00000000
00100000
00000000
,
00110000
00000000
00000000
00011000
00000000
00000000
00001100
00000000
00001001
00000000
00000000
00000000
00000000
00000000
00000220
00000000
,
00000000
00000000
00000000
00000000
00000000
00000000
00000300
00000000
00000130
00000000
00000010
00001000
00000001
00000000
00000100
00000000
,
00000010
00000000
00010000
00001000
01000000
00000000
00010000
00000000
10000000
00000000
00100000
10000000
00010000
00000000
00100000
00000000
,
01000000
00000000
00010000
00001000
00000100
00000000
00000010
00000000
00001000
00000000
00000001
00000010
00000100
00000000
00001000
00000000
,
00000001
00000000
00000100
00000010
00000000
00001000
00000010
00000000
00000100
00000000
00001000
00010000
00000000
01000000
00100000
00000000
,
00010000
00000000
10000000
01000000
00000000
00100000
00010000
00000000
10010000
00000000
10000000
00100000
01000000
00000000
00001000
00000000
,
00010000
00000000
00000100
00000010
00000001
00000000
00000100
00000000
00001000
00000000
00010000
00001000
00100000
00000000
00010000
00000000
,
01000000
00000000
00100000
10000000
01000000
00000000
00100000
00000000
00001000
00000000
00010000
00000100
00000010
00000001
00000100
00000010
,
00001000
00000000
00000001
00000100
00001000
00000000
00010000
00000000
00011000
00000000
00000000
00101000
00000000
00000000
00110000
00000000
,
10010000
00000000
00000000
11000000
00000000
00000000
10100000
00000000
10010000
00000000
00000000
01010000
00000000
00000000
00011000
00000000
,
00001010
00000000
00000000
00001001
00000000
00000000
00000101
00000000
00000110
00000000
00000000
00001010
00000000
00000000
00011000
00000000
,
01010000
00000000
00000000
00001100
00000000
00000000
00011000
00000000
00011000
00000000
00000000
00000000
00000000
00000000
00022000
00000000
,
00000000
00000000
00000000
00000000
,
00033000
00000000
00000000
00000000
;

//---------------dance-double - ----------------
#NOTES:
     dance-double:
     :
     Medium:
     7:
     0.409,0.425,0.186,0.104,0.183: // measure 1
00000000
00000000
00000000
00000000
,  // measure 2
00000000
00000000
00000000
00000000
,  // measure 3
00000000
00000000
00000000
00000000
,  // measure 4
00000000
00000000
00000000
00000000
,  // measure 5
00010000
00000000
00000000
00001000
00000000
00000000
00000100
00000000
00000010
00000000
00000000
00001000
00000000
00000000
00000001
00000000
,  // measure 6
00000010
00000000
00000000
00000010
00000000
00000000
00000010
00000000
00000001
00000000
00000000
00000100
00000000
00000000
00001000
00000000
,  // measure 7
00010000
00000000
00000000
00010000
00000000
00000000
00010000
00000000
01000000
00000000
00000000
00100000
00000000
00000000
00010000
00000000
,  // measure 8
10000000
00000000
00000000
10000000
00000000
00000000
10000000
00000000
00010000
00000000
00000000
00100000
00000000
00000000
00001000
00000000
,  // measure 9
00011000
00000000
00000000
00000000
00000000
00000000
00000000
00000000
00000001
00000000
00000000
00001000
00000000
00000000
00000010
00000000
,  // measure 10
00000200
00000000
00000000
00000000
00000300
00000000
00000000
00000000
00000100
00000000
00000000
00001000
00000000
00000000
00100000
00000000
,  // measure 11
02000000
00000000
00000000
00000000
03000000
00000000
00000000
00000000
10000000
00000000
00000000
00010000
00000000
00000000
00100000
00000000
,  // measure 12
00001000
00000000
00000000
00001000
00000000
00000000
00000100
00000000
00000100
00000000
00000000
00000010
00000000
00000000
00001000
00000000
,  // measure 13
00000002
00000000
00000000
00000000
00000003
00000000
00000000
00000000
00000001
00000000
00000000
00000010
00000000
00000000
00001000
00000000
,  // measure 14
02000000
00000000
00000000
00000000
03000000
00000000
00000000
00000000
01000000
00000000
00000000
00010000
00000000
00000000
10000000
00000000
,  // measure 15
02000000
00000000
00000000
03010000
00010000
00000000
00000000
00000000
,  // measure 16
00010000
00000000
00000000
00010000
00000000
00000000
00000010
00000000
00001000
00000000
00000000
00000001
00000000
00000000
00000100
00000000
,  // measure 17
00001000
00000000
00000000
00000000
00000000
00000000
00000000
00000000
00010000
00000000
00000000
10000000
00000000
00000000
00010000
00000000
01000000
00000000
00000000
00000000
00000000
00000000
00000000
00000000
10000000
00000000
00000000
00010000
00000000
00000000
10000000
00000000
,  // measure 18
01000000
00000000
00000000
00000000
00000000
00000000
00000000
00000000
01000000
00000000
00000000
10000000
00000000
00000000
00010000
00000000
01000000
00000000
00000000
00001000
00000000
00000000
00010000
00000000
00000100
00000000
00000000
00001000
00000000
00000000
00000001
00000000
,  // measure 19
00000010
00000000
00000000
00000000
00000000
00000000
00000000
00000000
00000010
00000000
00000000
00000001
00000000
00000000
00000100
00000000
00001000
00000000
00000000
00000000
00000000
00000000
00000000
00000000
00010000
00000000
00000000
00100000
00000000
00000000
10000000
00000000
,  // measure 20
01000000
00000000
00000000
00000000
00000000
00000000
00010000
00000000
00001000
00000000
00000000
00000000
00000000
00000000
00000000
00000000
00011000
00000000
00000000
00000000
00000000
00000000
00000000
00000000
00000100
00000000
00000000
00001000
00000000
00000000
00000001
00000000
,  // measure 21
00000100
00000000
00000000
00000102
00000000
00000000
00001003
00000000
00001001
00000000
00000000
00000000
00000000
00000000
00000000
00100000
,  // measure 22
01000000
00000000
00000000
20020000
00000000
00000000
30030000
00000000
10000000
00000000
01000000
00000000
00010000
00000000
01000000
00000000
,  // measure 23
10000000
00100000
00010000
00001000
00000100
00000001
00000010
00001000
,  // measure 24
00000010
00000001
00000100
00000010
00010000
00000000
00010000
00001000
,  // measure 25
01000000
00000000
01000000
00100000
10000000
00000000
10000000
00010000
,  // measure 26
10000000
01000000
10000000
00100000
00010000
00000000
00001000
00000100
,  // measure 27
00000010
00000000
00001000
00000100
00000001
00000000
00000100
00001000
,  // measure 28
00000010
00000001
00000010
00001000
00000001
00000000
00000010
00001000
,  // measure 29
00010000
00000000
00100000
00010000
00001000
00000000
00000100
00001000
,  // measure 30
00010000
01000000
10000000
00100000
00010000
00001000
00000100
00000001
,  // measure 31
00000010
00000000
00001000
00000000
00010000
00000000
00000000
00000000
01000000
00000000
00000000
00100000
00000000
00000000
00010000
00000000
,  // measure 32
10000000
00100000
10000000
01000000
01100000
00000000
00000000
00000000
,  // measure 33
00100000
00000000
00000000
00001000
00000000
00000000
00010000
00000000
00000200
00000000
00000000
00000000
00000300
00000000
00000100
00000000
,  // measure 34
00000010
00000001
00000100
00001000
00010000
01000000
10000000
00100000
,  // measure 35
00010000
00100000
10000000
01000000
00010000
00001000
00000010
00000001
,  // measure 36
00001000
00000010
00000100
00000001
00000101
00000000
00000100
00000000
,  // measure 37
00000010
00000000
00000000
00010000
00000000
00000000
00001000
00000000
02000000
00000000
00000000
00000000
03000000
00000000
01000000
00000000
,  // measure 38
00100000
10000000
01000000
00010000
00001000
00000010
00001000
00010000
,  // measure 39
00100000
01000000
00010000
00001000
00000010
00000100
00001000
00000100
,  // measure 40
00000010
00000000
00001001
00000000
00000011
00000000
00000001
00000010
,  // measure 41
00000100
00000010
00001000
00010000
01000000
00000000
10000000
00100000
,  // measure 42
01000000
00100000
00010000
00001000
00000100
00000000
00000001
00000000
,  // measure 43
00001000
00000100
00000001
00000000
00010000
01000000
10000000
00000000
,  // measure 44
00001000
00000100
00000010
00000000
00001001
00000000
00000000
00001000
,  // measure 45
00000001
00000010
00000001
00000100
00001000
00000000
00010000
01000000
,  // measure 46
10000000
00100000
10000000
01000000
00010000
00001000
00000010
00000100
,  // measure 47
00001000
00000000
00000000
00000001
00000000
00000000
00001000
00000000
00001001
00000000
00000000
00000000
00000000
00000000
00000000
00000000
,  // measure 48
00011000
00000000
00000000
00011000
00000000
00000000
00011000
00000000
01010000
00000000
00000000
00000000
00000000
00000000
02200000
00000000
,  // measure 49
00000000
00000000
00000000
00300000
03100000
10000000
01000000
00100000
,  // measure 50
01000000
10000000
01000000
00010000
00001000
00000010
00000100
00001000
,  // measure 51
00000010
00000001
00000010
00000100
00000001
00000010
00000100
00001000
,  // measure 52
00000100
00000010
00000001
00000100
00001000
00010000
01000000
10000000
,  // measure 53
00100000
01000000
00010000
00100000
00001000
00010000
01000000
00100000
,  // measure 54
00010000
10000000
00100000
00010000
00001000
00000100
00000010
00001000
,  // measure 55
00000100
00000001
00000100
00000010
00000001
00001000
00000010
00000100
,  // measure 56
00000001
00000000
00000000
00001000
00000000
00000000
00000001
00000000
00001001
00000000
00000000
00000001
00000000
00000000
00000100
00000000
,  // measure 57
00001000
00000000
00000000
00001000
00000000
00000000
00010000
00000000
01000000
00000000
00000000
10000000
00000000
00000000
00100000
00000000
,  // measure 58
00010000
00000000
00000000
00010000
00000000
00000000
00001000
00000000
00011000
00000000
00000000
00011000
00000000
00000000
00011000
00000000
,  // measure 59
00011000
00000000
00000000
00001100
00000000
00000000
01010000
00000000
00011000
00000000
00000000
00000000
00000000
00000000
00022000
00000000
,  // measure 60
00000000
00000000
00000000
00000000
,  // measure 61
00033000
00000000
00000000
00000000
;

//---------------dance-double - ----------------
#NOTES:
     dance-double:
     :
     Easy:
     4:
     0.210,0.313,0.090,0.052,0.030: // measure 1
00000000
00000000
00000000
00000000
,  // measure 2
00000000
00000000
00000000
00000000
,  // measure 3
00000000
00000000
00000000
00000000
,  // measure 4
00000000
00000000
00000000
00000000
,  // measure 5
00010000
00000000
00001000
00000000
,  // measure 6
00000010
00000000
00001000
00000000
,  // measure 7
00010000
00000000
00001000
00000000
,  // measure 8
00000100
00000000
00001000
00000000
,  // measure 9
00010000
00000000
01000000
00000000
,  // measure 10
00100000
00000000
00010000
00000000
,  // measure 11
01000000
00000000
00100000
00000000
,  // measure 12
10000000
00000000
01000000
00000000
,  // measure 13
00010000
00000000
00001000
00000000
,  // measure 14
00000010
00000000
00000100
00000000
,  // measure 15
00001000
00000000
00000001
00000000
,  // measure 16
00000100
00000000
00000000
00000000
00000000
00000000
00000000
00000000
00000010
00000000
00000000
00000010
00000000
00000000
00000010
00000000
,  // measure 17
00000100
00000001
00000100
00001000
,  // measure 18
00010000
01000000
10000000
01000000
,  // measure 19
00100000
00001000
00000100
00000010
,  // measure 20
00001000
00000000
00000001
00000000
00000010
00000000
00000001
00000100
,  // measure 21
00001000
00000000
00000000
00022000
00000000
00000000
00033000
00000000
00011000
00000000
00000000
00000000
00000000
00000000
00000000
00000000
,  // measure 22
01010000
00000000
00000000
10010000
00000000
00000000
00000000
00000000
10000000
00000000
00000000
00000000
01000000
00000000
00000000
00000000
,  // measure 23
00010000
01000000
10000000
00010000
,  // measure 24
01000000
00001000
00010000
00000000
,  // measure 25
00000100
00000000
00000010
00000000
,  // measure 26
00000001
00001000
00000010
00000000
,  // measure 27
00000001
00000000
00001000
00000000
,  // measure 28
00010000
01000000
00100000
00000000
,  // measure 29
00010000
00000000
10000000
00000000
,  // measure 30
00100000
01000000
00001000
00010000
,  // measure 31
00000100
00000010
00000001
00000100
,  // measure 32
00001000
00010000
00011000
00000000
,  // measure 33
00010000
00100000
01000000
00000000
,  // measure 34
00001000
00000010
00000100
00000100
,  // measure 35
00001000
00000001
00000100
00000000
,  // measure 36
00000010
00010000
00011000
00000000
,  // measure 37
00001000
00100000
01000000
00000000
,  // measure 38
00010000
00001000
00000010
00000010
,  // measure 39
00000001
00001000
00000100
00000100
,  // measure 40
00010000
00011000
00101000
00000000
,  // measure 41
00100000
00010000
10000000
00000000
,  // measure 42
00100000
10000000
00010000
00000000
,  // measure 43
10000000
01000000
00010000
00001000
,  // measure 44
00000010
00000001
00001000
00000000
,  // measure 45
00000001
00000100
00001000
00000000
,  // measure 46
00010000
00100000
20000000
00000000
,  // measure 47
30010000
00000000
10010000
00000000
,  // measure 48
10000000
00000000
00000000
10000000
00000000
00000000
10000000
00000000
01000000
00000000
00000000
00000000
00000000
00000000
00020000
00000000
,  // measure 49
00000000
00000000
00031000
00010000
,  // measure 50
00000010
00001000
00000100
00001000
,  // measure 51
00000010
00000001
00000010
00000100
,  // measure 52
00000001
00001000
00000010
00000010
,  // measure 53
00000100
00000001
00000010
00001000
,  // measure 54
00010000
00001000
00100000
00010000
,  // measure 55
01000000
00100000
20000000
01000000
,  // measure 56
00010000
00000000
00000000
00000000
30000000
00000000
00000000
00000000
10000000
00000000
00000000
01000000
00000000
00000000
00010000
00000000
,  // measure 57
00001000
00000000
00000000
00000000
00011000
00000000
00000000
00000000
00000001
00000000
00000000
00000100
00000000
00000000
00001000
00000000
,  // measure 58
00010000
00000000
00000000
00000000
00011000
00000000
00000000
00000000
00010000
00000000
00000000
00010000
00000000
00000000
00010000
00000000
,  // measure 59
00001000
00000000
00000000
00001000
00000000
00000000
00001000
00000000
00010000
00000000
00000000
00000000
00000000
00000000
00022000
00000000
,  // measure 60
00000000
00000000
00000000
00000000
,  // measure 61
00033000
00000000
00000000
00000000
;
