#TITLE:いいね!;
#SUBTITLE:;
#ARTIST:BABYMETAL;
#TITLETRANSLIT:Iine!;
#SUBTITLETRANSLIT:;
#ARTISTTRANSLIT:;
#GENRE:;
#CREDIT:;
#BANNER:[Round E] - line!.png;
#BACKGROUND:[Round E] - line!-bg.png;
#LYRICSPATH:;
#CDTITLE:;
#MUSIC:[Round E] - Iine!.ogg;
#OFFSET:-0.338553;
#SAMPLESTART:77.266998;
#SAMPLELENGTH:24.000000;
#SELECTABLE:YES;
#BPMS:0.000000=140.000000
,64.000000=160.000000
;
#STOPS:
;
#BGCHANGES:;
#KEYSOUNDS:;
#ATTACKS:;

//---------------dance-single - ----------------
#NOTES:
     dance-single:
     :
     Hard:
     7:
     0.531705,0.581360,0.461397,0.215318,0.023070,484.000000,424.000000,60.000000,28.000000,0.000000,0.000000,0.531705,0.581360,0.461397,0.215318,0.023070,484.000000,424.000000,60.000000,28.000000,0.000000,0.000000:
// measure 0
0000
0000
0000
0000
,  // measure 1
0000
0000
0000
0000
,  // measure 2
0000
0000
0000
0000
,  // measure 3
0000
0000
0000
0000
,  // measure 4
2001
0000
0000
0000
3001
0100
0020
0000
,  // measure 5
0230
0000
0310
0010
,  // measure 6
1002
0000
0000
0000
1003
0100
0020
0000
,  // measure 7
0130
0010
0001
0001
,  // measure 8
1000
0001
1000
0010
0200
0000
0010
0000
,  // measure 9
0301
0100
0001
1000
0200
0000
1000
0000
,  // measure 10
0310
0100
0010
0001
2000
0000
0001
0000
,  // measure 11
3010
1000
0010
0100
0010
1000
0001
0000
,  // measure 12
1000
0001
1000
0100
0020
0000
0100
0000
,  // measure 13
0031
0010
0001
1000
0020
0000
1000
0000
,  // measure 14
0130
0010
0100
0001
2000
0000
0001
0000
,  // measure 15
3100
1000
0100
2000
0002
0000
3003
0000
,  // measure 16
2000
0000
0000
0000
,  // measure 17
0000
0000
0000
0000
,  // measure 18
0000
0000
0000
0000
,  // measure 19
0000
0000
0000
3000
,  // measure 20
0001
1000
0100
0100
,  // measure 21
0010
0100
1000
1000
,  // measure 22
0001
0100
0010
0010
,  // measure 23
0100
0001
1000
1001
,  // measure 24
1000
0001
0010
0000
0001
0010
0100
0010
,  // measure 25
0001
1000
0010
0000
1000
0010
0100
0010
,  // measure 26
1000
0001
0010
0000
0001
0010
0100
0010
,  // measure 27
0110
0011
0101
1001
,  // measure 28
0001
0100
0010
0000
0100
0010
1000
0001
,  // measure 29
1000
0100
0010
0000
0100
0010
0001
1000
,  // measure 30
0001
0100
0010
0000
0100
0010
1000
0001
,  // measure 31
1000
0100
0010
0001
1000
0100
0010
0001
,  // measure 32
1000
0000
0100
0000
0010
0000
0100
0000
1000
0000
0000
0001
0000
0000
1000
0000
,  // measure 33
0001
0000
0100
0000
0010
0000
0100
0000
0001
0000
0000
1000
0000
0000
0001
0000
,  // measure 34
1000
0000
0100
0000
0010
0000
0100
0000
1000
0000
0000
0001
0000
0000
1000
0000
,  // measure 35
1001
1010
1100
0101
,  // measure 36
0001
0000
0100
0000
0010
0000
0100
0000
0001
0000
0000
0010
0000
0000
0100
0000
,  // measure 37
1000
0000
0010
0000
0100
0000
0010
0000
1000
0000
0000
0100
0000
0000
0010
0000
,  // measure 38
0001
0000
0100
0000
0010
0000
0100
0000
0001
0000
0000
0010
0000
0000
0100
0000
,  // measure 39
1000
0010
0100
0001
1000
0010
0100
0001
,  // measure 40
1000
0000
0001
0000
1000
0100
0010
0001
,  // measure 41
0000
0001
1000
0000
0001
1000
0010
0200
,  // measure 42
0010
0000
0001
0000
0310
0100
0001
0010
,  // measure 43
0100
0010
0000
0110
0000
0010
0000
0100
,  // measure 44
2000
0100
0001
3020
,  // measure 45
2030
0000
3010
1000
0001
0000
1000
0010
,  // measure 46
0000
0010
0100
0010
1000
0100
0010
0001
,  // measure 47
1000
0010
0100
0010
1000
0001
1000
0000
,  // measure 48
0001
0010
0100
1000
0001
0010
0100
0100
,  // measure 49
0110
0000
1001
0000
0110
0000
0100
0001
,  // measure 50
0000
0001
1000
0100
0010
0100
1000
0000
,  // measure 51
1001
0000
0110
0000
1001
0000
0001
0010
,  // measure 52
0000
0100
0010
0000
0011
0000
1001
0000
,  // measure 53
1020
0000
0130
0000
0010
0100
0001
0010
,  // measure 54
0000
0110
0000
0110
0000
0010
0001
0000
,  // measure 55
0011
0000
0000
1001
0000
1010
0000
1100
,  // measure 56
0000
1000
0001
0000
1001
0000
1001
0000
,  // measure 57
0001
0000
1000
0010
0100
0000
0010
2000
,  // measure 58
0001
0000
3100
1000
0100
0010
0100
1000
,  // measure 59
0001
0000
1000
0010
0000
0100
0000
0010
,  // measure 60
2000
3002
0023
0230
,  // measure 61
2300
0000
0100
0000
0001
0000
3010
1000
,  // measure 62
0002
0000
1000
0000
0100
0000
0013
0001
,  // measure 63
0200
0001
0310
0110
,  // measure 64
0100
0001
1000
0100
0010
0100
1000
0001
,  // measure 65
0100
0010
1000
0010
0100
0010
1000
0010
,  // measure 66
0100
0010
1001
0000
0100
0010
1001
0000
,  // measure 67
0001
0010
0100
0010
0001
0010
0100
0010
,  // measure 68
0001
0010
1100
0000
0001
0010
1100
0000
,  // measure 69
0010
0100
1000
0100
0010
0100
1000
0100
,  // measure 70
0010
0100
1001
0000
0010
0100
1001
0000
,  // measure 71
0001
1000
0010
0100
0010
1000
0100
0010
,  // measure 72
0001
0100
0010
0100
0001
0010
0100
0010
,  // measure 73
0011
0011
1010
1010
,  // measure 74
1100
0101
0011
1010
,  // measure 75
1100
1100
1010
1010
,  // measure 76
0011
0101
1100
1010
,  // measure 77
0011
0011
1010
1010
,  // measure 78
1100
0101
0011
1010
,  // measure 79
1000
0010
0100
0001
0010
0100
1000
0010
,  // measure 80
0100
0001
0010
0100
0010
0001
1000
0010
,  // measure 81
0200
0000
0000
0000
,  // measure 82
0000
0000
0000
0000
,  // measure 83
0000
0000
0000
0000
,  // measure 84
0300
0000
0000
0000
;

//---------------dance-single - ----------------
#NOTES:
     dance-single:
     :
     Medium:
     6:
     0.363624,0.484466,0.176869,0.430637,0.000000,331.000000,308.000000,23.000000,56.000000,0.000000,0.000000,0.363624,0.484466,0.176869,0.430637,0.000000,331.000000,308.000000,23.000000,56.000000,0.000000,0.000000:
0000
0000
0000
0000
,
0000
0000
0000
0000
,
0000
0000
0000
0000
,
0000
0000
0000
0000
,
0020
0000
0000
0000
1030
0010
2000
0000
,
3002
0000
1000
1003
,
0001
0010
1000
0100
,
0001
1000
0100
1001
,
1000
0100
0002
0103
,
1000
0010
0002
1000
,
0013
1000
0200
0301
,
0100
0010
0001
1000
,
0001
0100
2000
3100
,
0001
0010
2000
0001
,
3010
0001
0200
1300
,
0100
0010
1000
0001
,
2000
0000
0000
0000
,
0000
0000
0000
0000
,
0000
0000
0000
0000
,
0000
0000
0000
3000
,
0001
0001
1000
1000
,
0100
0100
0010
0010
,
0100
1000
0001
0100
,
0010
0100
0001
1000
,
0001
1000
0001
0000
2000
0000
3100
0000
,
0010
0100
0010
0000
0200
0000
1300
0000
,
0001
1000
0001
0000
2000
0000
3010
0000
,
1000
0010
0100
0010
,
1000
0001
1000
0000
0002
0000
0013
0000
,
0100
0010
0100
0000
0020
0000
0031
0000
,
1000
0001
1000
0000
0002
0000
0103
0000
,
0101
0101
1001
1001
,
1000
0010
1000
0010
0200
0000
0010
0000
,
0301
0100
0001
0100
0020
0000
0100
0000
,
1030
0001
1000
0001
0020
0000
0100
0000
,
0031
0100
0010
0100
,
0001
1000
0001
1000
0200
0000
0310
0000
,
0001
1000
0001
1000
0020
0000
0130
0000
,
0001
0100
0001
0100
0020
0000
0130
0000
,
1010
1010
1001
1001
,
1000
0000
0100
0000
0010
0000
0100
1000
,
0000
1000
0100
0000
1000
0000
0001
1000
,
0002
0000
0000
0000
0000
1003
0001
0000
,
0001
0100
0000
0010
0000
0010
0000
0010
,
0200
0000
0300
0010
,
1000
0000
0010
1000
0001
0000
0000
2000
,
0000
0000
3100
1000
0100
0000
0010
0000
,
0200
1000
0010
0310
,
0200
2300
3002
1000
,
1003
0000
0001
0000
0100
0000
0001
0100
,
0000
0100
0001
0100
0010
0100
0010
0000
,
0100
0000
0010
0000
1000
0000
0010
1000
,
0000
1000
0001
0000
1000
0000
0100
0000
,
0020
0000
0130
0000
0010
0000
0001
1000
,
0000
0001
0000
0001
0000
1000
0001
0000
,
1000
0000
0000
0010
0000
0100
0000
0010
,
0000
0010
0100
0000
0010
0000
0010
0000
,
2000
3100
0002
0103
,
0010
0000
0001
0000
0100
0000
0010
0100
,
0010
0000
0100
0000
0010
0000
1000
0010
,
2000
3200
0320
0230
,
2300
0000
0000
0000
3000
0000
0001
0100
,
0020
0000
0000
0000
0030
0000
0100
0001
,
2000
0000
3000
1001
,
1000
0100
0001
0010
,
2000
0000
0000
0000
,
3002
0013
2000
3010
,
0002
0000
2003
0000
,
3002
0103
2000
3100
,
0002
0000
2003
0000
,
3002
0013
2000
3010
,
0001
0100
0010
0100
,
0001
1000
0001
1000
,
0001
0001
1000
1000
,
1001
0110
1001
0110
,
0010
0010
0100
0100
,
0110
1001
0110
1001
,
0001
0001
1000
1000
,
1001
0110
1001
0110
,
0020
0031
0200
1300
,
0020
0031
2000
3001
,
2002
0000
0000
0000
,
0000
0000
0000
0000
,
0000
0000
0000
0000
,
3003
0000
0000
0000
;

//---------------dance-single - ----------------
#NOTES:
     dance-single:
     :
     Easy:
     4:
     0.268049,0.322978,0.015380,0.446017,0.000000,244.000000,242.000000,2.000000,58.000000,0.000000,0.000000,0.268049,0.322978,0.015380,0.446017,0.000000,244.000000,242.000000,2.000000,58.000000,0.000000,0.000000:
0000
0000
0000
0000
,
0000
0000
0000
0000
,
0000
0000
0000
0000
,
0000
0000
0000
0000
,
2000
0000
3001
0100
,
0020
0000
0100
0130
,
0020
0000
0130
0001
,
2000
0100
0010
0001
,
3001
1000
0000
1000
,
0000
1000
0100
0010
,
0001
1000
0000
1000
,
0000
1000
0010
0010
,
0100
0010
0000
0010
,
0000
0010
1000
0001
,
0010
0100
0000
0100
,
0000
0100
0020
0031
,
2002
0000
0000
0000
,
0000
0000
0000
0000
,
0000
0000
0000
0000
,
0000
0000
0000
3003
,
0002
0000
0000
0000
,
0000
0000
0000
0000
,
0000
0000
0000
0000
,
0000
0000
0000
1003
,
0001
0100
0010
0000
,
0100
0001
1000
0000
,
0001
0010
0100
0010
,
0200
2300
3002
2003
,
3000
0001
0000
0001
0000
0001
0000
0001
,
0000
1000
0000
1000
0000
1000
0000
1000
,
0000
0010
0000
0010
0000
0010
0000
0010
,
0020
2030
3020
2030
,
3001
0100
2000
3100
,
0010
0100
2000
3100
,
0001
0010
2000
3010
,
0002
0203
0302
2003
,
3000
0001
0000
1000
0000
0010
0000
0010
,
0000
0100
0000
0010
0000
1000
0000
1000
,
0000
0001
0000
0010
0000
0100
0000
0100
,
0200
0320
0032
2003
,
3001
0100
0010
0010
,
0010
1000
0100
0100
,
0200
0000
0300
1000
,
0100
0010
0100
0010
,
0002
0000
0003
0020
,
0032
1000
0103
0001
,
1000
0010
0100
0010
,
1000
0001
0010
0010
,
0002
1000
0100
0010
,
1003
0010
0001
0010
,
0100
0001
1000
1000
,
0001
0010
1000
0010
,
0100
1000
0001
0100
,
0020
0130
0010
1000
,
0200
0010
0310
0100
,
1000
0000
0000
0100
0000
1000
0000
0100
,
0000
1000
1000
0000
0100
0000
0100
0000
,
2000
0000
3002
0000
,
1003
0010
0100
0010
,
1000
0100
0010
0100
,
1000
1000
0001
0100
,
0020
0000
0030
0100
,
0200
0000
0300
0001
,
0002
0000
0003
1000
,
0001
0010
1000
0010
,
0002
0000
0000
0000
,
2003
3010
2000
3001
,
2000
0000
3002
0000
,
2003
3100
2000
3001
,
2000
0000
3002
0000
,
2003
3010
2000
3001
,
1000
0100
0010
0001
,
1000
0001
0100
0010
,
0200
0000
0302
0000
,
1000
0010
1000
0013
,
0002
0000
0023
0000
,
0100
0001
0100
0001
,
0230
0000
2300
0000
,
0001
0010
0001
0010
,
3001
0100
1000
0100
,
0001
0010
1000
0010
,
2002
0000
0000
0000
,
0000
0000
0000
0000
,
0000
0000
0000
0000
,
3003
0000
0000
0000
;

//---------------dance-single - ----------------
#NOTES:
     dance-single:
     :
     Beginner:
     1:
     0.079097,0.096893,0.000000,0.023070,0.000000,72.000000,72.000000,0.000000,3.000000,0.000000,0.000000,0.079097,0.096893,0.000000,0.023070,0.000000,72.000000,72.000000,0.000000,3.000000,0.000000,0.000000:
0000
0000
0000
0000
,
0000
0000
0000
0000
,
0000
0000
0000
0000
,
0000
0000
0000
0000
,
0010
0000
0000
0000
,
1000
0000
0000
0000
,
0001
0000
0000
0000
,
0010
0000
0000
0000
,
0100
0000
0000
0000
,
1000
0000
0000
0000
,
0001
0000
0000
0000
,
0100
0000
0000
0000
,
0010
0000
0000
0000
,
1000
0000
0000
0000
,
0100
0000
0000
0000
,
0010
0000
0000
0000
,
0002
0000
0000
0000
,
0000
0000
0000
0000
,
0000
0000
0000
0000
,
0003
0000
0000
0000
,
2000
0000
0000
0000
,
0000
0000
0000
0000
,
0000
0000
0000
0000
,
0000
0000
0000
3000
,
0001
0000
0000
0000
,
0001
0000
0000
0000
,
1000
0000
0000
0000
,
1000
0000
0000
0000
,
0010
0000
0000
0000
,
0010
0000
0000
0000
,
0100
0000
0000
0000
,
0100
0000
0000
0000
,
0010
0000
0000
0000
,
0010
0000
0000
0000
,
1000
0000
0000
0000
,
0100
0000
0000
0000
,
0010
0000
0000
0000
,
0001
0000
0000
0000
,
0100
0000
0000
0000
,
0010
0000
0000
0000
,
1000
0000
0000
0000
,
0001
0000
0000
0000
,
0100
0000
0000
0000
,
0010
0000
0000
0000
,
0100
0000
0000
0000
,
0001
0000
0000
0000
,
1000
0000
0000
0000
,
0100
0000
0000
0000
,
0010
0000
0000
0000
,
1000
0000
0000
0000
,
0100
0000
0000
0000
,
0010
0000
0000
0000
,
0001
0000
0000
0000
,
0100
0000
0000
0000
,
0010
0000
0000
0000
,
0100
0000
0000
0000
,
0001
0000
0000
0000
,
1000
0000
0000
0000
,
0100
0000
0000
0000
,
0010
0000
0000
0000
,
0100
0000
0000
0000
,
1000
0000
0000
0000
,
0001
0000
0000
0000
,
0010
0000
0000
0000
,
0100
0000
0000
0000
,
0010
0000
0000
0000
,
0001
0000
0000
0000
,
0100
0000
0000
0000
,
0010
0000
0000
0000
,
0100
0000
0000
0000
,
0001
0000
0000
0000
,
1000
0000
0000
0000
,
0100
0000
0000
0000
,
0010
0000
0000
0000
,
0100
0000
0000
0000
,
1000
0000
0000
0000
,
0100
0000
0000
0000
,
0010
0000
0000
0000
,
0001
0000
0000
0000
,
0100
0000
0000
0000
,
0010
0000
0000
0000
,
2000
0000
0000
0000
,
0000
0000
0000
0000
,
0000
0000
0000
0000
,
3000
0000
0000
0000
;
