#TITLE:DITTO;
#SUBTITLE:(feat. ABSRDST);
#ARTIST:GRIMECRAFT;
#TITLETRANSLIT:;
#SUBTITLETRANSLIT:;
#ARTISTTRANSLIT:;
#GENRE:;
#CREDIT:;
#BANNER:;
#BACKGROUND:;
#LYRICSPATH:;
#CDTITLE:;
#MUSIC:[Round E] - Ditto (feat. ABSRDST).ogg;
#OFFSET:0.016547;
#SAMPLESTART:11.587000;
#SAMPLELENGTH:14.897000;
#LASTBEATHINT:319.979248;
#SELECTABLE:YES;
#DISPLAYBPM:145.000000;
#BPMS:0.000000=145.000000
;
#STOPS:
;
#BGCHANGES:;
#KEYSOUNDS:;
#ATTACKS:;

//---------------dance-single - ----------------
#NOTES:
     dance-single:
     :
     Hard:
     7:
     0.359307,0.634375,0.401515,0.931818,0.200758,332.000000,279.000000,53.000000,123.000000,37.000000,0.000000,0.359307,0.634375,0.401515,0.931818,0.200758,332.000000,279.000000,53.000000,123.000000,37.000000,0.000000:
// measure 0
0000
0000
0000
0000
,  // measure 1
0000
0000
0000
0000
,  // measure 2
0000
0000
0000
0000
,  // measure 3
0000
0000
0000
0000
,  // measure 4
2200
0000
0000
0000
,  // measure 5
0000
0000
0000
0000
,  // measure 6
3300
0000
0000
0000
,  // measure 7
0001
0000
0001
0000
0000
0010
0000
0100
0000
1000
0000
0010
1000
0000
0001
0000
,  // measure 8
0202
0000
0000
0300
0013
0100
0100
0010
,  // measure 9
0022
0000
0033
0220
0000
0330
2200
0000
,  // measure 10
0000
0000
0300
0010
3010
0000
1001
0000
,  // measure 11
0022
0000
0000
0000
0003
0000
0000
0000
0130
0000
0000
0000
0000
2200
0000
3300
,  // measure 12
2002
0000
3003
0000
,  // measure 13
2020
0000
3030
0220
0000
0330
0202
0000
,  // measure 14
0000
0000
0003
0010
0310
0000
1001
0000
,  // measure 15
0022
0000
0000
0003
0130
0000
2002
3003
,  // measure 16
0202
0000
0000
0003
0310
0000
0000
0000
,  // measure 17
2020
0000
3030
0220
0000
0330
0202
0000
,  // measure 18
0000
0000
0300
0010
0013
0000
1001
0000
,  // measure 19
2020
0000
3000
0000
0130
0000
0202
0303
,  // measure 20
2002
0000
0000
0003
3010
0000
0000
0000
,  // measure 21
2200
0000
3300
0022
0000
0033
0202
0000
,  // measure 22
0000
0000
0000
0000
0003
0000
0010
0000
0310
0000
0000
1000
0000
0010
1000
0000
,  // measure 23
2020
0000
0000
0000
3000
0000
0100
0000
0130
0000
0001
1000
0001
0000
1000
0000
,  // measure 24
1002
0000
0000
0000
0013
0100
1000
0010
,  // measure 25
0100
0000
0100
0000
0001
0010
1000
0020
,  // measure 26
0000
0000
0000
0000
0000
0031
0000
0000
0000
0000
1000
0000
1000
0000
0000
0000
,  // measure 27
0020
0000
0000
0030
0100
0002
0000
0003
,  // measure 28
2000
0000
0000
0000
3004
0043
0430
4300
,  // measure 29
3020
0000
0000
0031
0010
1000
0001
0002
,  // measure 30
0000
0000
0000
0000
0013
0000
0100
0200
,  // measure 31
1000
0000
1000
0000
0000
0310
0000
0001
0000
0100
0000
0001
0010
0000
0100
0000
,  // measure 32
0020
0000
0100
0000
,  // measure 33
2030
0000
0000
3020
0000
0000
0032
0000
,  // measure 34
0000
0000
0000
0100
0103
0000
1001
0000
,  // measure 35
2020
0000
3000
0000
0230
0000
0000
0300
,  // measure 36
0102
0000
1003
0000
,  // measure 37
2010
0000
0000
3200
0000
0000
0302
0000
,  // measure 38
0000
0000
0103
0000
,  // measure 39
2000
0000
0010
0000
0000
0001
0000
0001
3000
0000
0000
0000
0000
0000
0000
0000
,  // measure 40
0020
0000
0000
0000
0000
0001
0030
0001
1000
0000
0000
0000
0000
0000
0000
0000
,  // measure 41
0020
0000
0000
0000
0000
0130
0000
0100
0001
0000
0000
0000
0000
0000
0000
0000
,  // measure 42
0020
0000
0000
0000
0000
0100
0030
0100
1000
0000
0000
0000
0000
0000
0000
0000
,  // measure 43
0002
0000
0000
0000
0000
1000
0003
1000
0010
0000
0000
0000
0200
0000
0000
0000
,  // measure 44
0302
0000
0000
0000
0013
0100
0000
0100
1000
0000
0000
0000
0001
0000
0000
0000
,  // measure 45
2000
0000
0000
3010
0000
0100
0010
0000
1000
0000
0000
0000
0002
0000
0000
0000
,  // measure 46
0023
0000
0000
0000
0130
1000
0000
1000
0001
0000
0000
0000
0100
0000
0000
0100
,  // measure 47
0020
0000
0000
0031
0000
0010
0100
0000
0001
0000
0000
0000
0020
0000
0000
0000
,  // measure 48
0230
0000
0000
0000
0301
0100
1000
0010
,  // measure 49
0100
0000
0100
0000
1000
0100
0001
0020
,  // measure 50
0000
0000
0000
0000
0000
0230
0000
0000
1000
0000
0000
0000
0310
0000
0000
0000
,  // measure 51
0001
0000
1000
0010
0200
0000
0000
0000
,  // measure 52
0320
0000
0000
0000
0000
0000
0000
0000
1030
0000
0000
0000
0000
0000
0001
1000
,  // measure 53
0002
0000
0000
0013
0100
1000
0002
0000
,  // measure 54
0000
0000
0000
0000
0013
0100
0200
0000
,  // measure 55
1000
0000
1000
0000
0000
0010
0000
0310
0000
0001
0000
1000
0001
0000
0100
0000
,  // measure 56
0220
0000
0000
0300
0031
0010
0100
0010
,  // measure 57
0220
0000
0330
2020
0000
3030
2002
0000
,  // measure 58
0000
0000
3000
0010
0013
0000
1100
0000
,  // measure 59
0202
0000
0000
0000
0000
0000
0003
0000
0310
0000
0000
0000
0000
2020
0000
3030
,  // measure 60
2002
0000
0000
3000
0013
0000
0100
1000
,  // measure 61
2200
0000
0300
3100
0011
0000
0202
0000
,  // measure 62
0000
0000
0003
0000
0301
1000
0001
0000
0010
0000
0000
0000
1100
0000
1000
0001
,  // measure 63
2000
0000
0000
0100
0000
0000
0100
0000
3001
0000
0000
0000
0010
0000
0010
0000
,  // measure 64
0012
0000
0103
0000
,  // measure 65
1020
0000
1030
0002
0013
0000
0021
0000
,  // measure 66
0100
0130
1100
0010
,  // measure 67
0002
0000
0100
0000
0100
0000
0103
0000
0010
1000
0010
1000
0001
1000
0001
1000
,  // measure 68
0002
0000
0000
0000
0000
0010
0003
0010
0100
0000
0000
0000
1000
0001
1000
0000
,  // measure 69
2020
0000
3030
0220
0000
0330
0202
0000
,  // measure 70
0000
0000
0300
0000
0000
1000
0003
1000
0001
0000
0000
0000
0010
0000
0000
0000
,  // measure 71
2200
0000
0000
0300
0000
0100
3000
0100
0010
0000
0000
0000
0002
0000
0103
0000
,  // measure 72
0202
0000
0000
0000
,  // measure 73
0000
0000
0000
0000
,  // measure 74
0000
0000
0000
0000
,  // measure 75
0303
000M
00M0
M000
000M
00M0
M000
0000
,  // measure 76
M000
00M0
0M00
M000
00M0
0M00
M000
00M0
,  // measure 77
0M00
M000
00M0
0M00
M000
000M
0M00
M000
,  // measure 78
00M0
0M00
M000
00M0
0M00
M000
00M0
0M00
,  // measure 79
M000
00M0
0M00
M000
00M0
0M00
M000
0000
;

//---------------dance-single - ----------------
#NOTES:
     dance-single:
     :
     Medium:
     4:
     0.183983,0.331818,0.022727,0.590909,0.007576,170.000000,167.000000,3.000000,78.000000,0.000000,0.000000,0.183983,0.331818,0.022727,0.590909,0.007576,170.000000,167.000000,3.000000,78.000000,0.000000,0.000000:
0000
0000
0000
0000
,
0000
0000
0000
0000
,
0000
0000
0000
0000
,
0000
0000
0000
0000
,
2002
0000
0000
0000
,
3003
0000
0000
0000
,
0000
0000
0000
0000
,
0001
0000
1000
0000
,
1002
0000
0013
0000
,
0002
0000
0003
0200
0000
0300
0020
0000
,
0000
0000
1030
0000
,
2000
0000
3001
0000
,
0020
0000
0030
0000
,
0200
0000
0300
2000
0000
3000
0002
0000
,
0000
0000
0000
0100
0103
0000
0000
0000
,
0020
0000
1030
0000
,
2000
0000
3001
0000
,
0020
0000
0030
0200
0000
0300
2000
0000
,
0000
0000
3001
0000
,
0200
0000
0310
0200
,
0302
0000
1003
0000
,
0200
0000
0300
0020
0000
0030
0002
0000
,
0000
0000
1003
0000
,
0002
0000
0000
0100
0103
0000
0020
0000
,
2030
0000
0000
0000
3001
0010
0100
0010
,
0001
0000
0001
0000
0010
0100
1000
0200
,
0000
0000
0000
0000
0000
0310
0000
0000
0000
0000
0000
0000
0000
0000
0000
0000
,
0000
0000
0002
0000
,
2003
0000
3010
0000
,
0200
0000
0300
0001
1000
0100
0010
0020
,
0000
0000
0000
0030
0001
0000
1000
2000
,
0000
0000
3010
0000
,
0200
0000
0000
0000
0001
0000
0000
0300
,
0020
0000
0030
2000
0000
3000
0002
0000
,
0000
0000
0000
0010
0013
0000
0000
0000
,
0200
0000
2300
0000
,
3020
0000
0130
0000
,
0001
0000
0000
1000
0000
0000
0200
0000
,
0000
0000
0310
0000
,
0002
0000
0003
0000
,
2000
0100
0000
3001
,
0002
0010
0000
2003
,
0000
0010
0000
3100
,
0020
0001
0000
0031
,
0200
0010
0000
0310
,
2000
0100
0000
3100
,
0020
0001
0000
0031
,
2000
0010
0000
3000
,
0200
0000
0000
0000
0310
0100
0010
0001
,
1000
0000
1000
0000
0001
0100
0010
0200
,
0000
0000
0000
0000
0000
0301
0000
0000
1000
0000
0000
0000
0000
0000
0000
0000
,
0100
0000
2000
0000
,
3020
0000
0000
0000
0130
0000
0000
0001
,
2000
0000
0000
3100
0010
0100
0020
0000
,
0000
0000
0000
0000
0030
0001
2000
0000
,
0000
0000
0000
3000
,
2001
0000
3100
0000
,
2000
0000
3000
0020
0000
0030
0200
0000
,
0000
0000
0000
0001
0301
0000
1000
0000
,
0002
0000
0013
0020
,
0230
0000
1300
0001
,
0020
0000
0030
0001
0001
0000
2000
0000
,
0000
0000
0000
0010
3010
0000
0000
0000
,
0200
0000
0301
0000
,
0002
0000
1003
0000
,
0200
0000
0300
0020
0000
0030
0002
0000
,
0000
0000
1003
0000
,
0020
0000
0130
0020
,
2030
0000
3001
0000
,
0020
0000
0030
0200
0000
0300
2000
0000
,
0000
0000
3001
0000
,
0200
0000
0310
2000
,
0002
0000
0000
0000
,
3003
0000
0000
0000
;

//---------------dance-single - ----------------
#NOTES:
     dance-single:
     :
     Easy:
     2:
     0.129870,0.138258,0.007576,0.431818,0.000000,120.000000,119.000000,1.000000,57.000000,0.000000,0.000000,0.129870,0.138258,0.007576,0.431818,0.000000,120.000000,119.000000,1.000000,57.000000,0.000000,0.000000:
0000
0000
0000
0000
,
0000
0000
0000
0000
,
0000
0000
0000
0000
,
0000
0000
0000
0000
,
0002
0000
0003
0000
,
0000
0000
0000
0000
,
0000
0000
0000
0000
,
0000
0000
0000
0000
,
2000
0000
3100
0000
,
0100
0000
0010
0002
,
0000
0000
1003
0000
,
2000
0000
3010
0000
,
0200
0000
0300
0000
,
0002
0003
1000
0002
,
0000
0000
0013
0000
,
0200
0000
1300
0000
,
2000
0000
3010
0000
,
0020
0030
0100
0002
,
0000
0000
1003
0000
,
2000
0000
3100
0000
,
0020
0000
0130
0000
,
2000
3000
0001
2000
,
0000
0000
3001
0000
,
0200
0000
0310
0000
,
0020
0000
1000
0000
,
0000
0000
0100
0000
,
0000
0000
0001
0000
,
0000
0000
0100
0030
,
2000
0000
0100
0000
,
0000
0000
0001
0000
,
0000
0000
0010
0000
,
0000
0000
0001
3000
,
0002
0000
0013
0000
,
0200
0000
1300
0002
,
0000
0000
0103
0000
,
0020
0000
2030
0000
,
3200
0000
0310
0000
,
0002
0000
1003
0002
,
0000
0000
0103
0000
,
0020
0000
0030
0000
,
2000
0000
3001
0000
,
0002
0000
0013
0000
,
0020
0000
0130
0000
,
2000
0000
3001
0000
,
0002
0000
0103
0000
,
0200
0000
0310
0000
,
0020
0000
1030
0000
,
0002
0000
1003
0000
,
2000
0000
0001
0000
,
0100
0000
0000
0100
0000
0000
0100
0000
,
0000
0000
0001
0000
,
3100
0000
0020
0000
,
0032
0000
0103
0000
,
0000
0000
0100
0200
,
0000
0300
0000
0000
0000
0000
0020
0000
,
0000
0030
0000
0000
,
0002
0000
0013
0000
,
0010
0000
0100
2000
,
0000
0000
3001
0000
,
0002
0000
0103
0000
,
0020
0000
1030
0000
,
2000
3000
0001
2000
,
0000
0000
3100
0000
,
0020
0000
0031
0000
,
0002
0000
0103
0000
,
0200
0300
0010
2000
,
0000
0000
3001
0000
,
0002
0000
0013
0000
,
0200
0000
0310
0000
,
0002
0003
1000
0002
,
0000
0000
1003
0000
,
0020
0000
0130
0000
,
2002
0000
0000
0000
,
3003
0000
0000
0000
;
