#TITLE:Total Stranger;
#SUBTITLE:;
#ARTIST:Dead or Alive;
#TITLETRANSLIT:;
#SUBTITLETRANSLIT:;
#ARTISTTRANSLIT:;
#GENRE:;
#CREDIT:;
#BANNER:[Round D] - Total Stranger.png;
#BACKGROUND:[Round D] - Total Stranger-bg.png;
#LYRICSPATH:;
#CDTITLE:;
#MUSIC:[Round D] - Total Stranger.ogg;
#OFFSET:-0.647370;
#SAMPLESTART:50.743820;
#SAMPLELENGTH:12.000000;
#SELECTABLE:YES;
#BPMS:0.000000=119.900002
;
#STOPS:
;
#BGCHANGES:;
#KEYSOUNDS:;
#ATTACKS:;

//---------------dance-single - ----------------
#NOTES:
     dance-single:
     :
     Hard:
     7:
     0.357373,0.483266,0.205411,0.315453,0.187071,341.000000,313.000000,28.000000,43.000000,0.000000,0.000000,0.357373,0.483266,0.205411,0.315453,0.187071,341.000000,313.000000,28.000000,43.000000,0.000000,0.000000:
0000
0000
0000
0000
,
0000
0000
0000
0000
,
0000
0000
0000
0000
,
0000
0000
0000
0000
,
0000
0000
0000
0000
,
0000
0000
0000
0000
,
0000
0000
0000
0000
,
0000
0000
0000
0000
,
0000
0000
0000
0000
,
0000
0000
0000
0000
,
2000
0000
0000
0100
0000
0000
3200
0000
0000
0000
0310
0000
0000
0001
0000
0000
,
0200
0000
0000
0010
0000
0000
0320
0000
0000
0000
1030
0000
0000
0100
0000
0000
,
0010
0000
0000
0001
1000
0000
0000
1000
0010
0000
0000
0010
0100
0000
0010
0000
,
2000
0000
0000
0100
0000
0000
3200
0000
0000
0000
0010
0000
0320
0000
0000
0000
,
0032
0000
0000
1000
0000
0000
1003
0020
0000
0000
0130
0000
0000
0001
0000
0000
,
2000
0000
0000
0100
0000
0000
3100
0020
0000
0000
0031
0000
0000
1000
0000
0000
,
0020
0000
0000
0100
0000
0000
0130
0002
0000
0000
1003
0000
0000
0001
0000
0000
,
2000
0000
0000
3010
0000
0000
0110
0000
0000
0000
1000
0000
1001
0000
0000
0000
,
1000
0100
0100
1000
0100
0000
0010
0010
,
0010
0001
0010
0200
0000
2300
0000
3010
,
0100
0001
0001
0100
0001
0000
0100
0100
,
0100
0010
1000
0200
0000
0320
0000
0031
,
0010
0100
0100
0010
0100
0000
0100
0100
,
0100
1000
0001
0200
0000
0320
0000
1030
,
0001
0010
0010
0100
0010
0000
0010
0010
,
0010
0001
1000
0010
0000
0100
1001
0000
,
0001
0100
0020
0000
1000
0000
1000
0000
,
0100
0000
0100
0000
0001
0000
0031
0010
,
1000
0100
0020
0000
0001
0000
0001
0000
,
1000
0000
1000
0000
0100
0000
0130
1000
,
0010
0200
1000
0000
1000
0000
0010
0000
,
0320
0000
0001
0000
0031
0000
0010
1000
,
0001
0020
1000
0000
1000
0000
0100
0000
,
0130
0000
1000
0010
0000
0100
0000
0000
,
0001
0020
1000
0000
1000
0000
0100
0000
,
0100
0000
0000
0000
0001
0000
0000
0000
0031
0000
0100
0001
0100
0000
0010
0000
,
1000
0200
0001
0000
0001
0000
0010
0000
,
0010
0000
1000
0000
1300
0000
0010
1000
,
0010
0200
0001
0000
0001
0000
0010
0000
,
0320
0000
1000
0000
1000
0000
0130
0001
,
1000
0200
0001
0000
0001
0000
0010
0000
,
0310
0000
0100
1000
0000
0001
0000
0000
,
1001
0000
0000
0001
0000
0000
0100
0020
0000
0000
1030
0000
0000
0001
0000
0000
,
0021
0000
0000
0100
0000
0000
0130
2000
0000
0000
3010
0000
0000
0100
0000
0000
,
0201
1000
0301
1000
,
0021
0000
0000
0000
0130
0000
1000
0000
0010
0000
0000
0100
0000
0000
0001
0000
,
0201
0000
0000
0010
0000
0000
0301
2000
0000
0000
3100
0000
0000
0010
0000
0000
,
0012
0000
0000
1000
0000
0000
0103
0020
0000
0000
0031
0000
0000
0010
0000
0000
,
0110
0000
0000
0001
1000
0000
0010
0000
0100
0000
0000
0000
0001
0000
0010
0000
,
0100
0000
0000
0100
1000
0000
0000
1000
0010
0000
0100
0000
0001
0000
2000
0000
,
0100
0100
0001
0001
,
0010
0000
0000
0000
3010
0000
0100
0000
0001
0000
0000
0010
0000
0000
0100
0000
,
1100
0000
0000
0110
0000
0000
0011
0000
0000
0000
1001
0000
0000
0000
0000
0000
,
0101
0000
0000
0110
0000
0000
1010
0000
1001
0000
0000
0000
0110
0000
0000
0000
,
1001
0000
1000
0001
0011
0000
0100
1000
,
0020
0000
0001
0000
1030
0010
0100
0010
,
1000
0000
0000
0001
0000
0000
0010
0000
0000
0000
0100
0000
0010
0000
0001
0000
,
0100
0000
0000
0010
0000
0000
1000
0000
0000
0000
0001
0000
0010
0000
0000
0000
,
0100
0000
0000
0000
0200
0000
0000
0300
1001
0000
0000
1000
0000
0000
0100
0000
,
0000
1000
0000
0000
0010
0000
0000
0000
0100
0000
0000
0001
0000
0000
0010
0000
,
0000
0001
0000
0000
0100
0000
0010
0000
1000
0000
0000
0100
0000
0000
0001
0000
,
0000
0100
0000
0000
1000
0000
0000
0000
0001
0000
0000
0100
0000
0000
1000
0000
,
0000
0100
0000
0000
0002
0000
0000
0000
0010
0000
0000
0000
0013
0000
0100
0000
,
1000
0000
1010
0000
0101
0000
1000
0001
,
0010
1100
0101
0110
,
1001
0000
0000
1000
0001
0010
0000
0001
0010
0000
0100
0000
1000
0000
0001
0000
;

//---------------dance-single - ----------------
#NOTES:
     dance-single:
     :
     Challenge:
     10:
     0.514576,0.653029,0.205411,0.535536,0.561213,491.000000,463.000000,28.000000,73.000000,0.000000,0.000000,0.514576,0.653029,0.205411,0.535536,0.561213,491.000000,463.000000,28.000000,73.000000,0.000000,0.000000:
// measure 0
0000
0000
0000
0000
,  // measure 1
0000
0000
0000
0000
,  // measure 2
0000
0000
0000
0000
,  // measure 3
0000
0000
0000
0000
,  // measure 4
0000
0000
0000
0000
,  // measure 5
0000
0000
0000
0000
,  // measure 6
0000
0000
0000
0000
,  // measure 7
0000
0000
0000
0000
,  // measure 8
0000
0000
0000
0000
,  // measure 9
0000
0000
0000
0000
1000
0000
0000
1000
0000
0010
0100
0000
0001
0000
0000
0000
,  // measure 10
0010
0000
0000
0000
0011
0000
0000
0010
0100
1000
0100
0000
0010
0000
0000
0000
,  // measure 11
0100
0000
0000
0000
1100
0000
0000
1000
0010
0100
0010
0000
1000
0000
0000
0001
,  // measure 12
0010
0001
0000
0001
0100
0001
0000
1000
0010
1000
0000
1000
0100
1000
0001
0010
,  // measure 13
0100
0000
0000
0000
1100
0000
0000
1000
0100
0010
0100
0000
1000
0000
0000
0001
,  // measure 14
1000
0000
0010
0000
1010
0000
0000
0010
0100
0001
0100
0010
1000
0001
1000
0001
,  // measure 15
0010
0000
0100
0000
0110
0000
0000
0001
0010
0100
0010
0000
0001
1000
0001
1000
,  // measure 16
0010
0000
0100
0000
0101
0000
0000
1000
0001
0010
0001
1000
0010
0100
0000
0100
,  // measure 17
0010
0000
0000
0000
1010
1000
0000
1000
0100
1000
0000
0001
0010
0100
0010
0001
,  // measure 18
0100
0010
0010
0100
0001
0000
0011
0010
,  // measure 19
0010
0000
0100
0000
1000
0000
0000
0010
1000
0100
1000
0000
0001
0000
0000
0001
,  // measure 20
1000
0010
0010
1000
0001
0000
0011
0010
,  // measure 21
0010
0000
0001
0000
1000
0000
0010
0100
0000
0001
0000
0100
0010
1000
0010
1000
,  // measure 22
0001
0010
0010
0001
1000
0000
1010
0010
,  // measure 23
0010
0000
1000
0000
0001
0000
0000
0010
0100
1000
0010
0000
1000
0000
0000
0000
,  // measure 24
0001
0010
0010
0100
1000
0000
1010
0010
,  // measure 25
0010
0000
0100
0001
1000
0001
0000
0001
0010
0001
0010
0001
0100
0010
0100
0010
,  // measure 26
1000
0000
0100
0000
0020
0000
0000
0000
0002
0003
0000
0200
0300
0000
2000
3000
,  // measure 27
0230
0000
0000
0000
0010
0000
0300
0001
0100
0010
0200
0000
2300
0000
3200
0000
,  // measure 28
0320
0000
0002
0003
0230
0000
1300
0002
,  // measure 29
0203
0000
0302
0000
0010
0000
0000
0013
0100
1000
0200
0000
0320
0000
0230
0000
,  // measure 30
2300
0000
0020
0030
3002
0000
0010
0000
,  // measure 31
0203
0000
0000
0000
0010
0000
0000
1300
0100
0010
0100
0000
0001
0000
0000
0000
,  // measure 32
0021
0000
0130
0200
0000
2300
0000
3020
,  // measure 33
0100
0000
1000
2030
0000
0002
0000
3003
,  // measure 34
0001
0000
0100
0000
0010
1000
0001
0000
0020
0000
0000
0000
0230
0000
0000
0000
,  // measure 35
2300
0000
0000
0002
0003
0000
3002
0003
1000
0000
0010
0100
0001
0000
0010
0001
,  // measure 36
0100
0000
0010
0000
0200
0000
0001
0000
0302
0000
0000
0023
0000
0000
0230
0000
,  // measure 37
0000
0000
2300
0000
3200
0000
0000
1300
0010
1000
0002
0000
0203
0000
0302
0000
,  // measure 38
2003
0000
3200
0000
0320
0000
0100
0032
,  // measure 39
0023
0000
0032
0000
0100
0000
0000
0103
0010
0100
0001
0000
1000
0000
0200
0000
,  // measure 40
0320
0000
0000
0000
0001
0000
0032
0000
0000
0000
0013
0100
0010
0100
0000
0100
,  // measure 41
1000
0010
0000
1000
0100
1000
0001
0010
0100
0010
0100
0010
0001
0100
0010
1000
,  // measure 42
0002
0000
0000
0023
0000
0000
0100
0230
0000
0000
0001
0000
0000
0010
0000
0000
,  // measure 43
2300
0000
0000
3020
0000
0000
0100
0230
0000
0000
0002
0003
0002
0003
0020
0030
,  // measure 44
0302
0023
2030
0001
,  // measure 45
3020
0000
0000
0000
0001
0000
0032
0000
2000
3000
0000
0200
0300
0000
0020
0030
,  // measure 46
0023
0000
0000
0230
0000
0000
1300
2000
0000
0000
0001
0000
0000
0010
0000
0000
,  // measure 47
3002
0000
0000
0010
0000
0000
0103
0200
0000
0000
0010
0000
0000
1300
0000
0000
,  // measure 48
0110
0000
0000
0000
0001
0000
0000
0001
1000
0000
0000
0000
0100
0000
0000
0100
,  // measure 49
0010
0000
0000
0100
1000
0100
0000
0100
0001
0100
0010
0100
1000
0100
0010
0001
,  // measure 50
1000
0000
0000
0000
0110
0000
0000
0001
0010
0100
1000
0000
0001
0000
0000
0000
,  // measure 51
1000
0000
0000
0000
0101
0000
0000
0100
0010
1000
0001
0000
0010
0000
0100
0000
,  // measure 52
1100
0000
0000
0101
0000
0000
1100
0000
0000
0000
1001
0000
0000
0000
0000
0000
,  // measure 53
1000
0000
0000
0010
0100
0001
0100
0001
1000
0001
0010
0100
1000
0010
0100
0001
,  // measure 54
1000
0000
0000
0000
1100
0000
0000
0001
0010
0100
0010
0000
0001
0000
0000
0000
,  // measure 55
0100
0000
0000
0000
0101
0000
0000
0010
1000
0010
0100
0000
0001
0000
0010
0000
,  // measure 56
0100
0000
0000
0000
1000
0000
0000
0010
0100
0000
0000
0000
0010
0000
0000
0100
,  // measure 57
0001
0000
1000
0000
0001
0010
0000
0010
0001
0100
0001
0000
0010
0001
1000
0100
,  // measure 58
0001
0000
0100
0000
2000
0000
0000
3001
0100
0001
1000
0000
0100
0010
0100
0010
,  // measure 59
0001
0000
0100
0000
1000
0000
0000
0100
0001
0100
0000
0000
0010
0000
0000
0001
,  // measure 60
0010
0000
1000
0000
0100
0000
0000
0010
0100
0000
1000
0000
0010
0000
0100
0001
,  // measure 61
0100
0000
0000
0001
1000
0000
0000
0001
0010
0100
0000
0000
1100
0000
1000
0001
,  // measure 62
0100
0000
0000
0000
0110
0000
0000
0010
0001
0010
0000
0000
1010
0000
1000
0000
,  // measure 63
0100
0000
0000
0000
0100
0000
0000
0010
0001
0100
0000
0000
0101
0000
1000
0001
,  // measure 64
0100
0000
0000
0000
0110
0000
0000
0001
0010
1000
0000
0000
0110
0000
0000
0000
,  // measure 65
1001
0000
0000
0001
0010
0100
0000
1000
0001
0100
0010
0100
1000
0100
0001
1000
;

//---------------dance-single - ----------------
#NOTES:
     dance-single:
     :
     Medium:
     5:
     0.273532,0.313527,0.058689,0.036681,0.018340,261.000000,253.000000,8.000000,5.000000,0.000000,0.000000,0.273532,0.313527,0.058689,0.036681,0.018340,261.000000,253.000000,8.000000,5.000000,0.000000,0.000000:
0000
0000
0000
0000
,
0000
0000
0000
0000
,
0000
0000
0000
0000
,
0000
0000
0000
0000
,
0000
0000
0000
0000
,
0000
0000
0000
0000
,
0000
0000
0000
0000
,
0000
0000
0000
0000
,
0000
0000
0000
0000
,
0000
0000
0000
0000
,
1000
0000
0010
0000
0100
0001
0100
0000
,
0001
0000
0010
0000
0100
1000
0100
0000
,
0020
0001
1000
0130
,
1100
0000
0000
0110
0000
0000
0011
0000
,
0001
0000
0100
0000
0010
1000
0100
0000
,
0010
0000
0100
0000
1000
0010
0100
0000
,
0020
0001
1000
0130
,
0101
0000
0000
0110
0000
0000
1010
0000
,
0000
0001
0100
0000
0001
0000
0100
0001
,
0100
0001
0000
1000
,
0000
0100
1000
0000
0100
0000
1000
0100
,
1000
0100
0000
1000
,
0000
0010
1000
0000
0010
0000
1000
0010
,
1000
0001
0000
0010
,
0000
0100
0010
0000
0100
0000
0010
0100
,
0010
0000
0001
0000
0000
0100
0001
0000
,
1000
0100
1000
1000
,
0010
0000
0010
0000
0100
0000
0001
1000
,
0100
0100
0010
0010
,
0001
0000
1000
0000
0001
0000
0100
0010
,
1000
0001
1000
1000
,
0100
0000
0100
0000
0010
0000
0001
1000
,
0001
0010
0100
0100
,
0010
0000
0001
0100
0000
0010
0000
0000
,
1000
0100
1000
0000
0001
0000
0001
0000
,
0010
0000
0010
0000
0100
0000
0100
0010
,
0001
0010
0001
0000
1000
0000
1000
0000
,
0010
0000
0010
0000
0100
0000
0100
0010
,
1000
0010
1000
0000
0100
0000
0100
0000
,
0010
0000
0010
0000
0001
0000
1000
0001
,
0100
0001
0100
0000
0010
0000
0010
0000
,
1000
0000
0100
0010
0000
0001
0000
0000
,
1001
0000
0100
0000
0010
0000
1000
0100
,
1000
0000
0010
0000
0100
0000
0001
0010
,
0100
1000
0010
0001
,
0100
0000
0001
1000
0000
0000
0100
0000
,
0010
0000
0001
0000
0100
0000
0010
1000
,
0010
0000
1000
0000
0100
0000
0010
0001
,
0010
0000
0000
0100
0000
0000
2000
0000
0000
0000
0000
0000
3001
0000
0000
0000
,
0001
0000
0000
0100
0000
0000
0020
0000
0000
0000
0000
0000
1030
0000
0000
0000
,
0001
0001
1000
1000
,
0100
0000
0100
0010
0001
0000
1000
0001
,
0100
0000
0000
0100
0000
0000
0010
0000
0000
0000
0100
0000
0000
0000
0000
0000
,
0001
0000
0000
0001
0000
0000
1000
0000
0000
0000
0001
0000
0000
0000
0000
0000
,
0010
0000
0100
0000
1000
0000
0001
0100
,
0001
0000
0010
0000
0100
0000
1000
0010
,
1000
0010
0100
0001
,
0001
0000
0000
0010
0000
0000
0200
0000
0000
0000
0000
0000
1300
0000
0000
0000
,
0001
0000
1000
0000
0100
0000
1000
0010
,
0100
0000
0010
0000
1000
0000
0100
0010
,
0001
0000
1000
0000
0001
0000
0100
0001
,
1000
0000
0010
0000
1000
0100
1000
0100
,
1000
0000
0001
0000
0010
0100
0010
0100
,
1000
0000
0010
0000
0100
0001
0100
0001
,
0100
0010
1000
0001
,
1001
0000
0010
0100
;

//---------------dance-single - ----------------
#NOTES:
     dance-single:
     :
     Easy:
     3:
     0.148818,0.217057,0.044017,0.014672,0.000000,142.000000,136.000000,6.000000,2.000000,0.000000,0.000000,0.148818,0.217057,0.044017,0.014672,0.000000,142.000000,136.000000,6.000000,2.000000,0.000000,0.000000:
0000
0000
0000
0000
,
0000
0000
0000
0000
,
0000
0000
0000
0000
,
0000
0000
0000
0000
,
0000
0000
0000
0000
,
0000
0000
0000
0000
,
0000
0000
0000
0000
,
0000
0000
0000
0000
,
0000
0000
0000
0000
,
0000
0000
0000
0000
,
1000
0000
0000
0001
,
0100
0000
0000
0001
,
1000
0000
0000
0000
,
0100
0000
0010
0000
,
0001
0000
0000
0100
,
0010
0000
0000
1000
,
0001
0000
0000
0000
,
0010
0000
0100
0000
,
1000
1000
0100
1000
,
0100
1000
0000
0001
,
0000
0100
0001
0100
,
0001
0100
0000
0010
,
0000
0100
0010
0100
,
0010
0100
0000
0001
,
0000
1000
0001
1000
,
0001
1000
0000
0100
,
0010
0000
0001
0000
,
0001
0000
0001
1000
,
0010
0000
0100
0000
,
0100
0000
0010
1000
,
0100
0000
0200
0300
,
0010
0000
0010
0000
,
0001
1000
0001
0000
,
0100
0000
0000
0000
,
0010
0000
1000
0000
,
0010
0000
1000
0100
,
0010
0000
0001
0000
,
0010
0000
0001
1000
,
0010
0000
0100
0000
,
0001
0000
1000
0001
,
0010
0000
0100
0000
,
1000
0000
0000
0000
,
0001
0000
0100
0001
,
1000
0000
0100
0000
,
0010
0001
1000
0000
,
0001
0000
0100
0010
,
1000
0000
0001
1000
,
0100
0000
0010
0000
,
0001
0000
0100
0000
,
0010
0000
1000
0000
,
1001
0000
0000
0000
,
1000
0000
0001
0100
,
0201
0300
1000
0000
,
1100
0000
0001
0010
,
0001
0000
1001
0000
,
0110
0000
0000
1000
,
0001
0000
0100
0000
,
0010
0010
0010
1000
,
0010
0000
1001
0000
,
1000
0000
0100
1000
,
0100
0000
0010
0000
,
0001
0100
0001
0100
,
0001
0000
1000
0000
,
0010
0000
0100
0000
,
0001
0001
0001
0001
,
0001
0000
1000
0001
;

//---------------dance-single - ----------------
#NOTES:
     dance-single:
     :
     Beginner:
     1:
     0.093273,0.169464,0.014672,0.000000,0.000000,89.000000,87.000000,2.000000,0.000000,0.000000,0.000000,0.093273,0.169464,0.014672,0.000000,0.000000,89.000000,87.000000,2.000000,0.000000,0.000000,0.000000:
0000
0000
0000
0000
,
0000
0000
0000
0000
,
0000
0000
0000
0000
,
0000
0000
0000
0000
,
0000
0000
0000
0000
,
0000
0000
0000
0000
,
0000
0000
0000
0000
,
0000
0000
0000
0000
,
0000
0000
0000
0000
,
0000
0000
0000
0000
,
0001
0000
0000
0000
,
1000
0000
0000
0000
,
0010
0000
0000
0000
,
0100
0000
0001
0000
,
1000
0000
0000
0000
,
0100
0000
0000
0000
,
0010
0000
0000
0000
,
0001
0000
1000
0000
,
0001
0001
0001
0000
,
0100
0000
0000
0000
,
0001
0001
0001
0000
,
1000
0000
0000
0000
,
0100
0100
0100
0000
,
1000
0000
0000
0000
,
1000
1000
1000
0000
,
0010
0000
0000
0000
,
0100
0000
0000
0000
,
0001
0000
1000
0000
,
0001
0000
0000
0000
,
0010
0000
0100
0000
,
1000
0000
0000
0000
,
0001
0000
0001
0000
,
1000
0000
0000
0000
,
1000
0000
0000
0000
,
0010
0000
0000
0000
,
0010
0000
0010
0000
,
0100
0000
0000
0000
,
0100
0000
0100
0000
,
0001
0000
0000
0000
,
1000
0000
1000
0000
,
0001
0000
0000
0000
,
0001
0000
0000
0000
,
0010
0000
0000
0000
,
0100
0000
0000
0000
,
1000
0000
0001
0000
,
0100
0000
0010
0010
,
0010
0000
0000
0000
,
1000
0000
0000
0000
,
0001
0000
1000
0000
,
0001
0000
1000
0000
,
0100
0000
0000
0000
,
0010
0000
0001
0001
,
0001
0000
1000
0000
,
1001
0000
0000
0000
,
1000
0000
0000
0000
,
0010
0000
0000
0000
,
0100
0100
0000
0000
,
0001
0001
0001
0000
,
1000
0000
1001
0000
,
0000
0000
0001
0000
,
1000
0000
0100
0000
,
0000
0000
0010
0000
,
0001
0000
0000
0000
,
0100
0000
0000
0000
,
0010
0000
0010
0000
,
1000
0000
0000
0000
,
0001
0000
0000
0000
;
