#VERSION:0.83;
#TITLE:invoker;
#SUBTITLE:;
#ARTIST:Caladborg;
#TITLETRANSLIT:;
#SUBTITLETRANSLIT:;
#ARTISTTRANSLIT:;
#GENRE:Tribe Core;
#ORIGIN:;
#CREDIT:Quick Man;
#BANNER:;
#BACKGROUND:;
#PREVIEWVID:;
#JACKET:;
#CDIMAGE:;
#DISCIMAGE:;
#LYRICSPATH:;
#CDTITLE:;
#MUSIC:invoker.ogg;
#OFFSET:-0.555000;
#SAMPLESTART:103.942001;
#SAMPLELENGTH:9.846000;
#SELECTABLE:YES;
#DISPLAYBPM:97.500000:390.000000;
#BPMS:0.000=195.000,
32.000=390.000,
88.000=97.500,
90.000=195.000,
105.000=780.000,
109.000=195.000,
121.000=390.000,
129.000=195.000,
144.000=780.000,
148.000=195.000,
164.000=390.000,
212.000=780.000,
228.000=195.000,
232.000=390.000,
276.000=780.000,
280.000=390.000,
294.000=195.000,
295.000=390.000,
359.000=97.500,
363.000=195.000,
419.000=390.000,
427.000=97.500,
429.000=195.000,
433.000=97.500,
435.000=195.000,
466.000=780.000,
470.000=390.000,
500.000=780.000,
504.000=390.000,
592.000=780.000,
608.000=1.000;
#STOPS:245.000=0.305;
#DELAYS:;
#WARPS:;
#TIMESIGNATURES:0.000=4=4;
#TICKCOUNTS:0.000=4;
#COMBOS:0.000=1;
#SPEEDS:0.000=1.000=0.000=0;
#SCROLLS:0.000=1.000;
#FAKES:;
#LABELS:0.000=Song Start;
#BGCHANGES:;
#KEYSOUNDS:;
#ATTACKS:
;

//---------------dance-single - Blank----------------
#NOTEDATA:;
#CHARTNAME:;
#STEPSTYPE:dance-single;
#DESCRIPTION:Blank;
#CHARTSTYLE:;
#DIFFICULTY:Hard;
#METER:11;
#RADARVALUES:0.739269,1.519672,0.615867,0.583874,0.123973,647.000000,570.000000,77.000000,73.000000,4.000000,0.000000,4.000000,0.000000,0.000000,0.739269,1.519672,0.615867,0.583874,0.123973,647.000000,570.000000,77.000000,73.000000,4.000000,0.000000,4.000000,0.000000,0.000000;
#CREDIT:Quick Man;
#DISPLAYBPM:97.500000:390.000000;
#NOTES:
0000
0000
0000
0000
,
0000
0000
0000
0000
,
0000
0000
0000
0000
,
0000
0000
0000
0000
,
0000
0000
0000
0000
,
0000
0000
0000
0000
,
0000
0000
0000
0000
,
0000
0000
0000
0000
,
1001
0000
0000
0000
,
0000
0000
0000
0000
,
0000
0000
0000
0000
,
0000
0000
0000
0000
,
0001
0000
0000
0000
,
0000
0000
0000
0000
,
0100
0000
0000
0000
,
0000
0000
0010
0000
,
1100
0000
1000
0000
,
0000
0000
0100
0000
,
0010
0000
0100
0000
,
0000
0000
0100
0000
,
1100
0000
0100
0000
,
0000
0000
0100
0000
,
1000
0000
1000
0000
0100
0010
0100
1000
0001
0000
0010
0100
0010
0100
1000
0000
0100
0000
0000
0000
1000
0000
0000
0000
0100
0000
0000
0000
1000
0000
0000
0000
,
0010
1000
0010
1000
0001
1000
0001
1000
,
0100
0100
0100
0010
0100
0010
0100
0010
,
0001
0010
0001
0010
1000
0010
1000
0010
,
0001
1000
0040
0000
0000
0000
0000
0000
,
0000
0000
0130
0010
0100
0010
0001
0010
,
0001
0010
1000
0010
1000
0010
0100
0100
,
0100
0001
0100
0001
1000
0001
1000
0001
,
0010
0001
0200
0300
2000
3000
0200
0300
,
0002
0003
0020
0030
2000
3000
0020
0030
,
0002
0013
0100
0000
1100
0000
0100
0000
,
0110
0000
0010
0000
0011
0000
0001
1000
,
1001
0001
0011
0010
,
0110
0100
1100
1000
,
1040
0000
0000
0000
,
1030
1001
0001
0011
,
0010
0000
0110
0000
0100
1000
1100
0000
,
0100
1100
1000
1010
,
0010
0000
1000
0000
0100
1000
0100
0000
0010
0000
0001
0100
0001
0100
0001
0000
,
1000
0100
0001
0100
,
1000
0010
0001
0010
,
1000
0100
0001
0100
,
1000
0010
0001
0010
,
1000
0100
0010
0001
,
0010
1000
0010
0001
,
1000
0100
0010
1000
,
0010
0001
0100
0010
,
0100
0000
0110
0000
,
0110
0000
0010
0000
,
1000
0000
0100
0010
,
0000
0001
0100
0000
,
2002
0000
0000
0000
,
0000
0000
0000
0000
,
0000
0000
0000
0000
,
0000
0000
3003
0000
,
0001
0000
1000
0000
0100
0010
0100
0010
0001
0000
1000
0000
0010
0100
0010
0100
,
0010
0100
0001
0011
,
0001
0010
0100
0000
1100
0000
0100
0010
,
0100
0000
1000
0001
0010
0000
0011
0000
,
0001
1000
0001
0000
1001
0000
1000
0000
,
0100
0000
0110
0000
0010
0001
0100
0000
,
0010
0100
0010
0100
0001
0000
1000
0001
,
0010
0000
0110
0000
0010
0100
1000
0000
,
0100
1000
0001
0000
0011
0000
0001
0010
,
0100
0000
1000
0001
0100
0000
0110
0000
,
0010
0100
0001
0100
0010
0000
0100
0010
,
1000
0000
0100
0010
0001
1000
0010
0000
,
2020
3030
0000
0000
,
1010
0000
1000
0010
0100
0000
0110
0000
,
0010
0100
0001
1000
0100
0010
0100
0000
,
0110
0000
0100
1000
0001
0000
0011
0000
,
0001
0000
0100
0000
0001
0000
0000
0000
0001
0000
1000
0001
1000
0000
0000
0000
,
0000
1001
0001
0000
,
0010
0000
0110
0000
0100
0010
0100
0000
,
0000
1100
1000
0000
,
1000
1100
0000
1100
,
0100
1000
0010
0000
0010
0100
0010
0100
,
0001
1000
0001
1000
0100
0010
0100
0000
,
0000
0100
1000
0000
0101
0000
0000
0000
,
0001
0000
0000
0000
0000
0000
0100
0000
0010
0000
0100
0000
0010
0000
0000
0000
0000
0000
0200
0000
0000
0300
0000
0000
,
0002
0003
0200
0300
2000
3000
0002
0003
,
0020
0030
2000
3000
0200
0300
0020
0030
,
0002
0003
0200
0300
0020
0030
2000
3000
,
0200
0300
1100
0000
0000
0000
1100
0000
,
0000
1000
1010
0000
,
0010
0000
0100
0010
0100
0001
1000
0000
,
0000
0000
0001
0000
0110
0000
0010
0100
,
1000
0000
0001
1000
0001
0000
2002
0000
,
0000
0000
0000
0000
3003
1MM1
2MM2
0000
,
0000
0000
0000
0000
,
0000
0000
0000
0000
3003
0000
2002
3003
,
0000
0000
0000
0000
,
0000
0000
0011
2200
,
0000
0000
0000
0000
,
0000
0000
0000
3300
,
0000
0000
0000
0000
,
0000
0000
0000
0000
,
0000
0000
0000
0000
,
0000
0000
0000
0000
0000
0000
1000
0100
,
0001
1000
0010
0001
0010
1000
0001
0100
,
1000
0001
0010
1000
0010
0001
1000
0100
,
0001
1000
0010
0001
0010
1000
0001
0100
,
1000
0001
0100
1000
0100
0001
1001
0000
,
0000
0000
0000
0000
,
0000
0000
0000
0000
0000
0000
0000
0000
0000
0000
0000
0000
2000
3200
0302
0203
,
2300
0000
0000
0000
0000
0000
0000
0000
0000
0000
0000
0000
3020
0000
0000
0000
0000
0000
0000
0000
0000
0000
0000
0000
0230
0000
0000
0000
0000
0000
0000
0000
0000
0000
0000
0000
0302
0000
0000
0000
0000
0000
0000
0000
0000
0000
0000
0003
1001
0000
0000
0000
0000
0000
0000
0000
0000
0000
0000
0000
0000
0000
0000
0000
0000
0000
0000
0000
0000
0000
0000
0000
0000
0000
0000
0000
0000
0000
0000
0000
0000
0000
0000
0000
0000
0000
0000
0000
0000
0000
0000
0000
0000
0000
0000
0000
0000
0000
0000
0000
0000
0000
0000
0000
0000
0000
0000
0000
0000
0000
0000
0000
0000
0000
0000
0000
0000
0000
0000
0000
0000
0000
0000
0000
0000
0000
0000
0000
0000
0000
0000
0000
0000
0000
0000
0000
0000
0000
0000
0000
0000
0000
0000
0000
0000
0000
0000
0000
0000
0000
0000
0000
0000
0000
0000
0000
0000
0000
0000
0000
0000
0000
0000
0000
0000
0000
0000
0000
0000
0000
0000
0000
0000
0000
0000
0000
0000
0000
0000
0000
0000
0000
0000
0000
0000
0000
0000
0000
0000
0000
0000
0000
,
0000
0000
0000
0000
0000
0000
0000
0000
1000
0000
0010
0100
0001
0000
0010
0100
1000
0100
1000
0001
0010
0000
0100
0000
1000
0000
0000
0000
0000
0000
0000
0000
,
0000
0000
0000
0101
,
0000
0000
0000
1010
,
0000
0000
0000
0101
,
0000
0000
0000
1001
,
0000
0110
0000
1001
,
0000
0110
0000
1100
,
0011
0000
1100
0000
0011
0000
0110
1001
,
1100
1001
0101
1001
1001
0000
0000
0000
,
0000
0000
0000
0000
0001
0010
0100
0000
,
0010
0100
1000
0000
0010
0100
0001
0000
,
1000
0100
0010
0000
0100
0010
1000
0000
,
1000
0010
0001
0000
0011
0000
0101
0000
,
1001
0000
0001
0000
1000
0010
0100
0000
,
0010
0100
0001
0000
0010
0100
1000
0000
,
0001
0100
1000
0000
0100
0001
1000
0000
,
0010
0100
1000
0000
0100
0001
0010
0000
,
0110
0000
0000
0000
,
0100
1000
0001
0000
0010
0001
0100
0000
,
0010
0100
1000
0000
0100
0010
1000
0000
,
0100
0010
0001
0000
0010
0001
1000
0000
,
1100
1010
1001
1000
,
0100
1000
0001
0000
0010
0001
0100
0000
,
0010
0100
1000
0000
0100
0001
1000
0000
,
0010
0100
0001
0000
1000
0100
0010
0000
,
0100
1000
0001
0000
1000
0000
0001
0000
,
2000
3000
0200
0300
0002
0003
2000
3000
,
0020
0030
0002
0003
2000
3000
0002
0003
,
2000
3000
0020
0030
0002
0003
2000
3000
,
0200
0300
0002
0003
0020
0030
0200
0300
,
2000
3000
0002
0003
0020
0030
2000
3000
,
0002
0003
0200
0300
2000
3000
0002
0003
,
0200
0300
0020
0030
2000
3000
0200
0300
,
0002
0003
2000
3000
0020
0030
0000
0000
,
0100
0100
0010
0010
,
0100
0100
1000
1000
,
0001
0001
0100
0100
,
0010
0010
1000
1000
,
0010
0100
0001
0010
0100
1000
0010
0100
,
0001
0010
0100
1000
0010
0100
0001
0010
,
0400
0000
4000
0000
0000
0000
0000
0000
0000
0000
0000
0000
,
0000
0000
0000
0000
,
0000
0000
0000
0000
,
0000
0000
3300
0000
,
1100
0000
0000
0000
;

//---------------dance-single - ----------------
#NOTEDATA:;
#CHARTNAME:;
#STEPSTYPE:dance-single;
#DESCRIPTION:;
#CHARTSTYLE:;
#DIFFICULTY:Medium;
#METER:9;
#RADARVALUES:0.523316,1.094164,0.319931,0.055988,0.035992,458.000000,418.000000,40.000000,7.000000,4.000000,0.000000,0.000000,0.000000,0.000000,0.523316,1.094164,0.319931,0.055988,0.035992,458.000000,418.000000,40.000000,7.000000,4.000000,0.000000,0.000000,0.000000,0.000000;
#CREDIT:;
#NOTES:
0000
0000
0000
0000
,
0000
0000
0000
0000
,
0000
0000
0000
0000
,
0000
0000
0000
0000
,
0000
0000
0000
0000
,
0000
0000
0000
0000
,
0000
0000
0000
0000
,
0000
0000
0000
0000
,
1001
0000
0000
0000
,
0000
0000
0000
0000
,
0000
0000
0000
0000
,
0000
0000
0000
0000
,
0000
0000
0000
0000
,
0000
0000
0000
0000
,
0000
0000
0000
0000
,
0000
0000
1000
0000
,
1001
0000
0000
0000
,
0000
0000
0000
0000
,
0000
0000
0000
0000
,
0000
0000
0000
0000
,
1001
0000
0000
0000
,
0000
0000
0000
0000
,
1000
0100
1000
0100
0010
0001
0100
0000
0001
0000
0000
0000
0010
0000
0100
0000
,
0010
0000
0001
1000
0100
0001
0100
1000
,
0010
0100
0010
0000
1000
0010
0100
0000
,
0100
0001
0100
1000
0100
0001
0010
0000
,
0100
1000
0100
0000
0000
0000
0000
0000
,
0000
0000
1000
0000
0100
0010
0001
0000
,
0010
0100
0001
0100
1000
0010
0100
0001
,
1000
0000
0001
1000
0100
0000
0010
0001
,
1000
0100
1000
0000
0100
0000
0001
0000
,
0100
1000
0010
0001
,
0010
1000
1001
0010
,
0110
0000
0100
0000
1001
0000
0010
0010
,
0011
0100
1001
0010
,
0101
1000
1100
0100
,
0110
0000
0000
0000
,
0010
1100
0001
1100
,
0010
0000
1100
0000
0001
0001
1100
0000
,
1000
0101
0010
0101
,
0001
1000
0001
1000
0001
1000
0001
0000
,
2002
0000
0000
0000
,
0000
0000
0000
0000
,
0000
0000
0000
0000
,
0000
0000
0000
0000
,
0000
0000
0000
0000
,
3003
0000
0000
0000
,
0000
0000
0000
0000
,
0000
0000
0000
0000
,
0001
1000
0001
0000
,
0010
0100
0010
0000
,
0100
1000
0001
0010
,
0100
1000
0010
0100
,
M001
0000
0000
0000
,
0000
0000
0000
0000
,
0000
0000
0000
0000
,
0000
0000
0000
0000
,
1000
0010
0100
0001
1000
0100
1100
0000
,
1000
0001
1000
0001
,
1000
0100
1000
0100
,
1000
0100
0010
0001
,
0100
0110
0010
0100
,
0010
0100
0001
0100
,
0001
0100
1000
0100
,
0001
0010
0100
1000
,
0100
0000
1000
0000
0100
0000
1000
0000
0000
0100
0000
0000
,
0010
0100
1000
0100
,
0001
0100
1000
0001
,
0010
1000
0020
0001
,
000M
0000
0000
0000
,
0031
0010
0100
1000
,
0010
0100
0001
0100
,
1000
0100
0010
0100
,
0001
0000
0000
0000
0000
0000
0000
0000
0000
0000
0000
0000
0000
0000
0000
0000
0000
0000
0000
0000
0000
0000
0000
0000
0000
0000
0000
0000
0000
0000
0000
0000
0000
0000
0000
0000
0000
0000
0000
0000
0000
0000
0000
0000
0000
0000
0000
0000
1000
0000
0000
0000
0000
0000
0000
0000
0000
0000
0000
0000
0000
0000
0000
0000
0000
0000
0000
0000
0000
0000
0000
0000
0000
0000
0000
0000
0000
0000
0000
0000
0000
0000
0000
0000
0000
0000
0000
0000
0000
0000
0000
0000
0000
0000
0000
0000
2002
3003
0000
0000
0000
0000
0000
0000
0000
0000
0000
0000
0000
0000
0000
0000
0000
0000
0000
0000
0000
0000
0000
0000
0000
0000
0000
0000
0000
0000
0000
0000
0000
0000
0000
0000
0000
0000
0000
0000
0000
0000
0000
0000
0000
0000
0000
0000
1000
0000
0000
0000
0000
0000
0000
0000
0000
0000
0000
0000
0000
0000
0000
0000
0000
0000
0000
0000
0000
0000
0000
0000
0000
0000
0000
0000
0000
0000
0000
0000
0000
0000
0000
0000
0000
0000
0000
0000
0000
0000
0000
0000
0000
0000
0000
0000
,
0010
0100
0001
0010
,
1000
0010
0001
0100
,
0010
0100
0001
0010
,
0100
0010
0001
1000
,
0100
1000
0010
0100
,
0001
0010
0100
0010
,
0001
1000
0100
0001
,
0100
1000
0010
0100
,
0010
0100
0001
0100
,
0010
1000
0100
1000
,
0010
0100
0001
1000
,
0100
1000
0010
0100
,
0001
0010
0100
1000
,
0100
0010
0100
1000
,
0001
0100
1000
0100
,
0001
0010
0001
0010
,
0000
0000
0000
0000
0000
0010
1001
0000
,
0000
0000
0000
0000
,
0000
0000
0000
1001
,
0000
0000
0000
0000
,
0000
0000
1001
1001
,
0000
0000
0000
0000
,
0000
0000
0000
0000
,
0000
0000
0000
0000
,
0000
0000
0000
0000
,
0000
0000
0000
0000
,
0000
0000
0000
0000
,
0000
0000
0000
0000
,
0000
0000
0000
0000
,
0000
0000
0000
0000
,
0000
0000
0000
1001
,
0000
0000
0000
0000
,
0000
0000
0000
0000
,
0000
1001
1001
0000
0000
0000
0000
0000
,
0000
0000
0000
0000
0001
1000
0001
1000
0001
1000
0001
1000
0001
0000
0000
0000
,
0000
0000
0000
1001
,
0000
0000
0000
1001
,
0000
0000
0000
1001
,
0000
0000
0000
1001
,
0000
1001
0000
1001
,
0000
1001
0000
1001
,
1001
0000
1001
0000
1001
0000
1000
0001
,
1000
0001
1000
0001
0M00
0000
0000
0000
,
0000
0000
0100
0010
,
0100
0010
0100
0010
,
0100
0010
0100
0001
,
0100
0001
0100
0001
,
0100
0010
0100
0000
0001
0000
0010
0000
,
0100
1000
0100
1000
,
0100
1000
0010
1000
,
0010
0000
0100
0000
0010
0100
0001
0000
,
00M0
0000
0000
0000
,
0001
1000
0001
1000
,
0010
1000
0010
1000
,
0100
0010
0001
0010
,
0100
1000
0100
1000
0100
0000
0010
0000
,
0001
1000
0100
0001
,
0100
1000
0010
0100
,
0001
0010
0001
0010
0001
0000
0010
0000
,
0100
1000
0001
0100
,
0010
0100
0010
0100
,
0001
0100
0001
0010
,
0100
1000
0100
0001
,
0100
1000
0010
0100
,
0001
1000
0100
0001
,
0010
1000
0100
0001
,
0010
1000
0001
0010
,
0100
1000
0001
0010
,
0100
0100
1000
1000
,
0001
0001
0010
0010
,
0100
0100
0010
0010
,
0001
0001
1000
1000
,
0001
0010
0100
1000
0001
0010
0100
1000
,
0001
0010
0100
1000
0001
0010
0100
2000
,
0002
0000
0000
0000
,
0000
0000
0000
0000
,
0000
0000
0000
0000
,
0000
0000
3003
0000
,
1001
0000
0000
0000
;

//---------------dance-single - ----------------
#NOTEDATA:;
#CHARTNAME:;
#STEPSTYPE:dance-single;
#DESCRIPTION:;
#CHARTSTYLE:;
#DIFFICULTY:Easy;
#METER:6;
#RADARVALUES:0.401056,0.911803,0.343926,0.111976,0.011997,351.000000,308.000000,43.000000,14.000000,2.000000,0.000000,0.000000,0.000000,0.000000,0.401056,0.911803,0.343926,0.111976,0.011997,351.000000,308.000000,43.000000,14.000000,2.000000,0.000000,0.000000,0.000000,0.000000;
#CREDIT:;
#NOTES:
0000
0000
0000
0000
,
0000
0000
0000
0000
,
0000
0000
0000
0000
,
0000
0000
0000
0000
,
0000
0000
0000
0000
,
0000
0000
0000
0000
,
0000
0000
0000
0000
,
0000
0000
0000
0000
,
1001
0000
0000
0000
,
0000
0000
0000
0000
,
0000
0000
0000
0000
,
0000
0000
0000
0000
,
0000
0000
0000
0000
,
0000
0000
0000
0000
,
0000
0000
0000
0000
,
0000
0000
1001
0000
,
1001
0000
0000
0000
,
0000
0000
0000
0000
,
0000
0000
0000
0000
,
0000
0000
0000
0000
,
1001
0000
0000
0000
,
0000
0000
0000
0000
,
2002
0000
0000
3003
0001
0000
1000
0000
,
0010
0100
1000
0100
,
0001
0010
0001
0000
0010
0000
0100
0000
,
1000
0001
0100
0010
,
1000
0001
0000
0000
,
0000
1000
0100
1000
,
0010
0000
0100
0000
0001
0000
0010
0100
,
1000
0100
0010
0001
,
1000
0220
0000
0000
,
0000
0000
0000
0330
,
0000
1000
0010
0100
,
0110
0000
0010
0000
0100
0000
0001
0100
,
0001
0001
0010
0100
,
1100
1000
0010
0100
,
0110
0000
0000
0000
,
0010
1010
1000
0100
,
0010
0000
0110
0000
0010
0100
0010
0000
,
0001
0011
0001
1000
,
0001
1000
0001
1000
0001
1000
0001
0000
,
1001
0000
0000
0000
,
0000
0000
0000
0000
,
0000
0000
0000
0000
,
0000
0000
0000
0000
,
0000
0000
0000
0000
,
0000
0000
0000
0000
,
0000
0000
0000
0000
,
0000
0000
0000
0000
,
0000
0000
0000
0000
,
0000
0000
0000
0000
,
0000
0000
0000
0000
,
0000
0000
0000
0000
,
2002
0000
0000
0000
,
0000
0000
0000
0000
,
0000
0000
0000
0000
,
0000
0000
3003
0000
,
0220
0000
0000
0330
,
1000
0000
1000
0001
,
0000
0000
0001
0100
,
0001
0000
0001
1000
,
0000
0001
1000
0000
,
0100
0010
0000
0001
,
0000
1000
0010
0000
,
0100
0010
0100
0010
,
0100
0000
0010
0000
0100
0000
0010
0000
0000
0000
0000
0000
,
1000
0010
0000
0100
,
0001
0000
0010
0000
,
0100
1000
0000
0001
,
2000
3000
0000
0000
0000
0000
0000
0000
0000
0000
0000
0000
0000
0000
0000
0000
0000
0000
0000
0000
0000
0000
0000
0000
0000
0000
0000
0000
0000
0000
0000
0000
0000
0000
0000
0000
0000
0000
0000
0000
0000
0000
0000
0000
0000
0000
0000
0000
0000
0000
0000
0000
0000
0000
0000
0000
0000
0000
0000
0000
0000
0000
0000
0000
0000
0000
0000
0000
0000
0000
0000
0000
0000
0000
0000
0000
0000
0000
0000
0000
0000
0000
0000
0000
0000
0000
0000
0000
0000
0000
0000
0000
0000
0000
0000
0000
0000
0000
0000
0000
0000
0000
0000
0000
0000
0000
0000
0000
0000
0000
0000
0000
0000
0000
0000
0000
0000
0000
0000
0000
0000
0000
0000
0000
0000
0000
0000
0000
0000
0000
0000
0000
0000
0000
0000
0000
0000
0000
0000
0000
0000
0000
0000
0000
0000
0000
0000
0000
0000
0000
0000
0000
0000
0000
0000
0000
0000
0000
0000
0000
0000
0000
0000
0000
0000
0000
0000
0000
0000
0000
0000
0000
0000
0000
0000
0000
0000
0000
0000
0000
0000
0000
0000
0000
0000
0000
0000
0000
0000
0000
0000
0000
,
0001
0000
0010
0100
,
0000
0010
0001
1000
,
0010
0000
0100
0001
,
1000
0100
0010
0010
,
0000
0011
0010
0000
,
0001
1001
1000
0100
,
0000
0110
0100
0000
,
0100
1100
0000
1000
,
0100
1000
0100
0010
,
0001
0010
0001
1000
,
0100
0010
0001
0010
,
0100
0000
1000
0100
1000
0000
1000
0000
,
0000
1010
0010
0000
,
0010
0110
0010
0100
,
0000
0101
0001
0000
,
1000
1100
0000
1000
,
0100
1000
0100
0010
,
0001
0010
0001
1000
,
0100
0001
1000
0010
,
0001
0000
1000
0100
1000
0000
0002
0000
,
0000
0000
0000
0000
0000
1000
1003
0000
,
0000
0000
0000
0000
,
0000
0000
0000
1001
,
0000
0000
0000
0000
,
0000
0000
1001
1001
,
0000
0000
0000
0000
,
0000
0000
0000
2002
,
0000
0000
0000
0000
,
0000
0000
0000
0000
,
0000
0000
0000
0000
,
0000
0000
0000
0000
,
0000
0000
0000
0000
,
0000
0000
0000
0000
,
0000
0000
0000
0000
,
3003
0000
0000
1001
,
0000
0000
0000
0000
,
0000
0000
0000
0000
,
0000
1001
1001
0000
0000
0000
0000
0000
,
0000
0000
0000
0000
1000
0000
0001
0000
1000
0001
1000
0000
1001
0000
0000
0000
,
0000
0000
0000
0011
,
0000
0000
0000
1100
,
0000
0000
0000
0110
,
0000
0000
0000
1100
,
0000
0101
0000
1010
,
0000
0011
0000
1001
,
1001
0000
1001
0000
1001
0000
1000
0100
,
0010
0001
1000
0100
0000
0000
0000
0000
,
0000
0000
1000
0001
,
0010
0000
0100
1000
,
0000
1000
0100
0010
,
0001
0000
0010
0100
,
0000
0100
1000
0001
,
0100
0000
0100
0010
,
0000
0010
0100
0001
,
1000
0000
0100
1000
,
0000
0000
0000
0000
,
1000
0001
0010
0000
,
0010
0100
0000
0100
,
1000
0001
0100
0000
,
0010
0010
0010
0000
,
1000
0100
0010
0000
,
0100
1000
0000
0001
,
0010
1000
0001
0100
,
1000
0001
0010
0000
,
0010
0100
1000
0000
,
1000
0100
0010
0000
,
0001
0010
0100
0000
,
0100
0010
0001
0000
,
1000
0010
0100
0001
,
0100
1000
0100
0001
,
0010
1000
0010
0001
,
1000
0000
1001
0000
,
0001
1000
0010
1000
,
0001
1000
0010
1000
,
0100
0010
0001
0010
,
0100
0010
1000
0010
,
0001
0100
0010
0100
,
0001
1000
0100
0020
,
0002
0000
0000
0000
,
0000
0000
0000
0000
,
0000
0000
0000
0000
,
0000
0000
0000
0000
,
MM33
0000
0000
0000
;

//---------------dance-single - ----------------
#NOTEDATA:;
#CHARTNAME:;
#STEPSTYPE:dance-single;
#DESCRIPTION:;
#CHARTSTYLE:;
#DIFFICULTY:Beginner;
#METER:6969;
#RADARVALUES:0.067414,2.613835,0.007998,0.000000,0.091980,59.000000,56.000000,1.000000,0.000000,0.000000,1.000000,0.000000,0.000000,0.000000,0.067414,2.613835,0.007998,0.000000,0.091980,59.000000,56.000000,1.000000,0.000000,0.000000,1.000000,0.000000,0.000000,0.000000;
#CREDIT:;
#DISPLAYBPM:97.500000:390.000000;
#NOTES:
// measure 0
0000
0000
0000
0000
,  // measure 1
0000
0000
0000
0000
,  // measure 2
0000
0000
0000
0000
,  // measure 3
0000
0000
0000
0000
,  // measure 4
0000
0000
0000
0000
,  // measure 5
0000
0000
0000
0000
,  // measure 6
0000
0000
0000
0000
,  // measure 7
0000
0000
0000
0000
,  // measure 8
0000
0000
0000
0000
,  // measure 9
0000
0000
0000
0000
,  // measure 10
0000
0000
0000
0000
,  // measure 11
0000
0000
0000
0000
,  // measure 12
0000
0000
0000
0000
,  // measure 13
0000
0000
0000
0000
,  // measure 14
0000
0000
0000
0000
,  // measure 15
0000
0000
0000
0000
,  // measure 16
0000
0000
0000
0000
,  // measure 17
0000
0000
0000
0000
,  // measure 18
0000
0000
0000
0000
,  // measure 19
0000
0000
0000
0000
,  // measure 20
0000
0000
0000
0000
,  // measure 21
0000
0000
0000
0000
,  // measure 22
0000
0000
0000
0000
,  // measure 23
0000
0000
0000
0000
,  // measure 24
0000
0000
0000
0000
,  // measure 25
0000
0000
0000
0000
,  // measure 26
0000
0000
0000
0000
,  // measure 27
0000
0000
0000
0000
,  // measure 28
0000
0000
0000
0000
,  // measure 29
0000
0000
0000
0000
,  // measure 30
0000
0000
0000
0000
,  // measure 31
0000
0000
0000
0000
,  // measure 32
0000
0000
0000
0000
,  // measure 33
0000
0000
0000
0000
,  // measure 34
0000
0000
0000
0000
,  // measure 35
0000
0000
0000
0000
,  // measure 36
0000
0000
0000
0000
,  // measure 37
0000
0000
0000
0000
,  // measure 38
0000
0000
0000
0000
,  // measure 39
0000
0000
0000
0000
,  // measure 40
0000
0000
0000
0000
,  // measure 41
0000
0000
0000
0000
,  // measure 42
0000
0000
0000
0000
,  // measure 43
0000
0000
0000
0000
,  // measure 44
0000
0000
0000
0000
,  // measure 45
0000
0000
0000
0000
,  // measure 46
0000
0000
0000
0000
,  // measure 47
0000
0000
0000
0000
,  // measure 48
0000
0000
0000
0000
,  // measure 49
0000
0000
0000
0000
,  // measure 50
0000
0000
0000
0000
,  // measure 51
0000
0000
0000
0000
,  // measure 52
0000
0000
0000
0000
,  // measure 53
0000
0000
0000
0000
,  // measure 54
0000
0000
0000
0000
,  // measure 55
0000
0000
0000
0000
,  // measure 56
0000
0000
0000
0000
,  // measure 57
0000
0000
0000
0000
,  // measure 58
0000
0000
0000
0000
,  // measure 59
0000
0000
0000
0000
,  // measure 60
0000
0000
0000
0000
,  // measure 61
0000
0000
0000
0000
,  // measure 62
0000
0000
0000
0000
,  // measure 63
0000
0000
0000
0000
,  // measure 64
0000
0000
0000
0000
,  // measure 65
0000
0000
0000
0000
,  // measure 66
0000
0000
0000
0000
,  // measure 67
0000
0000
0000
0000
,  // measure 68
0000
0000
0000
0000
,  // measure 69
0000
0000
0000
0000
,  // measure 70
0000
0000
0000
0000
,  // measure 71
0000
0000
0000
0000
,  // measure 72
0000
0000
0000
0000
,  // measure 73
0000
0000
0000
0000
,  // measure 74
0000
0000
0000
0000
,  // measure 75
0000
0000
0000
0000
,  // measure 76
0000
0000
0000
0000
,  // measure 77
0000
0000
0000
0000
,  // measure 78
0000
0000
0000
0000
,  // measure 79
0000
0000
0000
0000
,  // measure 80
0000
0000
0000
0000
,  // measure 81
0000
0000
0000
0000
,  // measure 82
0000
0000
0000
0000
,  // measure 83
0000
0000
0000
0000
,  // measure 84
0000
0000
0000
0000
,  // measure 85
0000
0000
0000
0000
,  // measure 86
0000
0000
0000
0000
,  // measure 87
0000
0000
0000
0000
,  // measure 88
0000
0000
0000
0000
,  // measure 89
0000
0000
0000
0000
,  // measure 90
0000
0000
0000
0000
,  // measure 91
0000
0000
0000
0000
,  // measure 92
0000
0000
0000
0000
,  // measure 93
0000
0000
0000
0000
,  // measure 94
0000
0000
0000
0000
,  // measure 95
0000
0000
0000
0000
,  // measure 96
0000
0000
0000
0000
,  // measure 97
0000
0000
0000
0000
,  // measure 98
0000
0000
0000
0000
,  // measure 99
0000
0000
0000
0000
,  // measure 100
0000
0000
0000
0000
,  // measure 101
0000
0000
0000
0000
,  // measure 102
0000
0000
0000
0000
,  // measure 103
0000
0000
0000
0000
,  // measure 104
0000
0000
0000
0000
,  // measure 105
0000
0000
0000
0000
,  // measure 106
0000
0000
0000
0000
,  // measure 107
0000
0000
0000
0000
,  // measure 108
0000
0000
0000
0000
,  // measure 109
0000
0000
0000
0000
,  // measure 110
0000
0000
0000
0000
,  // measure 111
0000
0000
0000
0000
,  // measure 112
0000
0000
0000
0000
,  // measure 113
0000
0000
0000
0000
,  // measure 114
0000
0000
0000
0000
,  // measure 115
0000
0000
0000
0000
,  // measure 116
0000
0000
0000
0000
,  // measure 117
0000
0000
0000
0000
,  // measure 118
0000
0000
0000
0000
,  // measure 119
0000
0000
0000
0000
,  // measure 120
0000
0000
0000
0000
,  // measure 121
0000
0000
0000
0000
,  // measure 122
0000
0000
0000
0000
,  // measure 123
0000
0000
0000
0000
,  // measure 124
0000
0000
0000
0000
,  // measure 125
0000
0000
0000
0000
,  // measure 126
0000
0000
0000
0000
,  // measure 127
0000
0000
0000
0000
,  // measure 128
0000
0000
0000
0000
,  // measure 129
0000
0000
0000
0000
,  // measure 130
0000
0000
0000
0000
,  // measure 131
0000
0000
0000
0000
,  // measure 132
0000
0000
0000
0000
,  // measure 133
0000
0000
0000
0000
,  // measure 134
0000
0000
0000
0000
,  // measure 135
0000
0000
0000
0000
,  // measure 136
0000
0000
0000
0000
,  // measure 137
0000
0000
0000
0000
,  // measure 138
0000
0000
0000
0000
,  // measure 139
0000
0000
0000
0000
,  // measure 140
0000
0000
0000
0000
,  // measure 141
0000
0000
0000
0000
,  // measure 142
0000
0000
0000
0000
,  // measure 143
0000
0000
0000
0000
,  // measure 144
0000
0000
0000
0000
,  // measure 145
0000
0000
0000
0000
,  // measure 146
0000
0000
0000
0000
,  // measure 147
0000
0000
0000
0000
,  // measure 148
1000
0100
0010
0001
0100
0010
1000
0100
,  // measure 149
0010
0001
0100
0010
1000
0100
0010
0001
,  // measure 150
0100
0010
1000
0100
0010
0001
0100
0010
,  // measure 151
1000
0000
0000
0000
0000
0000
0000
0000
0000
0000
0000
0000
0000
0000
0000
0000
0000
0000
0000
0000
0000
0000
0000
0000
0100
0000
0000
0000
0000
0000
0000
0000
0000
0000
0000
0000
0000
0000
0000
0000
0000
0000
0000
0000
0000
0000
0000
0000
0010
0000
0000
0000
0000
0000
0000
0000
0000
0000
0000
0000
0000
0000
0000
0000
0000
0000
0000
0000
0000
0000
0000
0000
0001
0000
0000
0000
0000
0000
0000
0000
0000
0000
0000
0000
0000
0000
0000
0000
0000
0000
0000
0000
0000
0000
0000
0000
0100
0000
0000
0000
0000
0000
0000
0000
0000
0000
0000
0000
0000
0000
0000
0000
0000
0000
0000
0000
0000
0000
0000
0000
0010
0000
0000
0000
0000
0000
0000
0000
0000
0000
0000
0000
0000
0000
0000
0000
0000
0000
0000
0000
0000
0000
0000
0000
1000
0000
0000
0000
0000
0000
0000
0000
0000
0000
0000
0000
0000
0000
0000
0000
0000
0000
0000
0000
0000
0000
0000
0000
0100
1000
0100
0010
0001
0010
0100
1000
0100
0010
0001
0010
0100
1000
0100
0010
0001
0010
0100
1000
0100
0010
0001
0010
,  // measure 152
1111
0000
0000
0000
;
