#TITLE:FuturePANIC!;
#SUBTITLE:;
#ARTIST:あるふぁ;
#TITLETRANSLIT:;
#SUBTITLETRANSLIT:;
#ARTISTTRANSLIT:alpha;
#GENRE:;
#CREDIT:;
#BANNER:[Round D] - FuturePANIC!.png;
#BACKGROUND:[Round D] - FuturePANIC!-bg.png;
#LYRICSPATH:;
#CDTITLE:;
#MUSIC:[Round D] - FuturePANIC!.mp3;
#OFFSET:-0.500000;
#SAMPLESTART:99.300003;
#SAMPLELENGTH:12.000000;
#SELECTABLE:YES;
#BPMS:0.000000=170.000000
;
#STOPS:
;
#BGCHANGES:;
#KEYSOUNDS:;
#ATTACKS:;

//---------------dance-single - ----------------
#NOTES:
     dance-single:
     :
     Easy:
     3:
     0.203262,0.266273,0.113827,0.105696,0.000000,175.000000,161.000000,14.000000,13.000000,0.000000,0.000000,0.203262,0.266273,0.113827,0.105696,0.000000,175.000000,161.000000,14.000000,13.000000,0.000000,0.000000:
// measure 0
0000
0000
0000
0000
,  // measure 1
0000
0000
0000
0000
,  // measure 2
0000
0000
0000
0000
,  // measure 3
0000
0000
0000
0000
,  // measure 4
0000
0000
0000
0000
,  // measure 5
0000
0000
0000
0000
,  // measure 6
0000
0000
0000
0000
,  // measure 7
0000
0000
0000
0000
,  // measure 8
0000
0000
0000
0000
,  // measure 9
0000
0000
0000
0000
,  // measure 10
1000
0000
1000
0000
,  // measure 11
0001
0000
0000
0000
,  // measure 12
0001
0000
0001
0000
,  // measure 13
1000
0000
0000
0000
,  // measure 14
1000
0000
1000
0000
,  // measure 15
0100
0000
0000
0000
,  // measure 16
0001
0000
0001
0000
,  // measure 17
0100
0000
0010
0000
,  // measure 18
0110
0000
1000
0000
,  // measure 19
0001
0000
0100
0000
,  // measure 20
0001
0000
1000
0000
,  // measure 21
0100
0000
0010
0000
,  // measure 22
0110
0000
1000
0000
,  // measure 23
0001
0000
0100
0000
,  // measure 24
0010
0000
1000
0000
,  // measure 25
0002
0000
1003
0000
,  // measure 26
1001
0000
0001
0000
,  // measure 27
0100
0000
0001
1000
,  // measure 28
0100
0000
1000
0000
,  // measure 29
0010
0000
1000
0001
,  // measure 30
0010
0000
0001
0000
,  // measure 31
1000
0000
0100
0010
,  // measure 32
0001
0000
1000
0000
,  // measure 33
0001
0000
0100
0000
,  // measure 34
1001
0000
0001
0000
,  // measure 35
0200
0000
0300
0000
,  // measure 36
1000
0000
0001
0000
,  // measure 37
0200
0000
0300
0000
,  // measure 38
1001
0000
0100
0000
,  // measure 39
2000
0000
3000
0000
,  // measure 40
0002
0000
0003
0000
,  // measure 41
0200
0000
0300
0001
,  // measure 42
0101
0000
0100
0000
,  // measure 43
0001
0000
0000
1000
0000
0000
0000
0000
,  // measure 44
0001
0000
0000
0000
0100
0000
0000
0001
,  // measure 45
0000
0000
0001
0000
,  // measure 46
1001
0000
0100
0000
,  // measure 47
0001
0000
0000
1000
0000
0000
0000
0000
,  // measure 48
0002
0000
0003
0000
,  // measure 49
1000
1000
0001
0001
,  // measure 50
1001
0000
0010
0000
,  // measure 51
0001
0010
0100
0000
,  // measure 52
1001
0000
0100
0000
,  // measure 53
1000
0100
0010
0000
,  // measure 54
0110
0000
1000
0000
,  // measure 55
0001
0100
0010
0000
,  // measure 56
2000
0000
3001
0000
,  // measure 57
1000
0001
0100
0010
,  // measure 58
1000
0000
0100
0000
,  // measure 59
1000
0001
0100
0000
,  // measure 60
0001
0000
0010
0000
,  // measure 61
0001
1000
0010
0000
,  // measure 62
1001
0000
0100
0000
,  // measure 63
1000
0100
0010
0000
,  // measure 64
0002
0003
1000
0000
,  // measure 65
0001
0100
0001
0010
,  // measure 66
0100
0000
0100
0000
,  // measure 67
1000
0001
1000
0100
,  // measure 68
0010
0000
0010
0000
,  // measure 69
0002
0003
1000
0000
,  // measure 70
1010
0000
1000
0000
,  // measure 71
0001
0010
0001
0100
,  // measure 72
0020
0000
0030
0000
,  // measure 73
1000
0100
0010
0100
,  // measure 74
1000
0000
1000
0000
,  // measure 75
0001
1000
0001
0100
,  // measure 76
0001
0000
0001
0000
,  // measure 77
2000
3000
0100
0010
,  // measure 78
0001
0000
0001
0000
,  // measure 79
1000
0001
0100
0001
,  // measure 80
2000
0000
3000
0000
,  // measure 81
0100
0000
0000
0000
1001
0000
0000
1001
;

//---------------dance-single - ----------------
#NOTES:
     dance-single:
     :
     Medium:
     5:
     0.383294,0.465978,0.105696,0.300828,0.000000,330.000000,317.000000,13.000000,37.000000,0.000000,0.000000,0.383294,0.465978,0.105696,0.300828,0.000000,330.000000,317.000000,13.000000,37.000000,0.000000,0.000000:
// measure 0
0000
0000
0000
0000
,  // measure 1
0000
0000
0000
0000
,  // measure 2
0000
0000
0000
0000
,  // measure 3
0000
0000
0000
0000
,  // measure 4
0000
0000
0000
0000
,  // measure 5
0000
0000
0000
0000
,  // measure 6
0000
0000
0000
0000
,  // measure 7
0000
0000
0000
0000
,  // measure 8
0000
0000
0000
0000
,  // measure 9
0000
0000
0000
0000
,  // measure 10
1000
0001
1000
0100
,  // measure 11
1000
0000
0001
0100
0000
0000
0100
0000
,  // measure 12
0001
1000
0001
0100
,  // measure 13
0001
0000
1000
0100
0000
0000
0100
0000
,  // measure 14
0010
1000
0100
0001
,  // measure 15
0100
0000
1000
0001
0000
0000
0001
0000
,  // measure 16
0200
0000
0301
0000
,  // measure 17
1000
0000
0001
0100
0000
0010
0100
0001
,  // measure 18
0101
0000
0100
0000
,  // measure 19
0001
0000
0000
0000
1000
0100
0010
0001
,  // measure 20
0100
0000
0001
0000
,  // measure 21
1000
0000
0100
0000
1000
0010
0100
0001
,  // measure 22
1000
0000
0001
0000
,  // measure 23
0100
0000
0000
0000
0001
0010
0100
1000
,  // measure 24
0010
0000
1000
0000
,  // measure 25
0001
0000
0000
0000
0001
0010
0100
1000
,  // measure 26
1100
0000
0001
0000
,  // measure 27
1000
0000
0000
0000
1000
0010
0100
0001
,  // measure 28
0000
0000
0000
0000
1000
0100
0010
0001
,  // measure 29
0000
1000
0000
0001
0010
0100
1000
0000
,  // measure 30
1001
0000
0001
0000
,  // measure 31
0100
0000
0000
0000
0001
1000
0010
0000
,  // measure 32
0100
0000
0000
0000
0001
0010
0100
1000
,  // measure 33
0001
0100
1000
0100
,  // measure 34
0101
1000
0100
1000
,  // measure 35
0001
0000
0100
0001
0000
0100
0001
1000
,  // measure 36
0010
1000
0010
0001
,  // measure 37
0200
0000
0301
1000
0000
0001
1000
0100
,  // measure 38
1100
0010
0001
0100
,  // measure 39
0001
0000
1000
0100
0000
1000
0001
0100
,  // measure 40
0020
0000
0030
0010
0200
0000
0300
0100
,  // measure 41
0001
0100
0001
1000
0001
0010
0100
1000
,  // measure 42
1001
0100
0001
0100
,  // measure 43
0001
0000
0100
0010
0000
0100
0001
0010
,  // measure 44
0100
0000
1000
0000
0100
0000
1000
0002
,  // measure 45
0000
0000
2003
0000
,  // measure 46
3010
0100
0010
0001
,  // measure 47
0010
0000
1000
0100
0000
0100
0010
0001
,  // measure 48
0200
0000
0302
0000
,  // measure 49
1003
0100
1000
0000
0002
0000
0203
0000
,  // measure 50
0310
0000
1000
0000
0010
0000
0000
1000
,  // measure 51
0100
0010
0001
0100
0000
0100
0001
0010
,  // measure 52
0100
0000
0001
0000
1000
0000
0000
0100
,  // measure 53
0010
0001
0100
0010
1000
0000
0001
0000
,  // measure 54
0110
0000
0001
0000
0100
0000
0000
0010
,  // measure 55
0100
0001
1000
0100
0000
0100
0010
0001
,  // measure 56
0200
0000
0302
0000
0103
0010
0100
0001
,  // measure 57
1000
0100
0010
0001
2000
0000
3020
0000
,  // measure 58
0130
0000
0001
0000
0010
0000
0000
1000
,  // measure 59
0100
0010
0001
0100
0000
0100
0001
0010
,  // measure 60
0100
0000
1000
0000
0010
0000
0000
0100
,  // measure 61
0001
0010
0100
1000
0000
1000
0100
0010
,  // measure 62
0001
0000
0100
0000
0010
0000
0000
1000
,  // measure 63
0010
0100
0001
1000
0000
1000
0001
0100
,  // measure 64
0020
0000
0030
0000
0100
0001
0000
0001
,  // measure 65
1000
0100
0010
0100
2000
0000
3001
0000
,  // measure 66
1001
0100
0001
0100
,  // measure 67
0002
2003
3020
0230
,  // measure 68
0301
0100
0001
0100
,  // measure 69
0020
0000
1030
0100
0000
0100
1000
0001
,  // measure 70
1001
0100
0001
0100
,  // measure 71
0020
2030
3200
0320
,  // measure 72
0032
0000
0003
0000
,  // measure 73
1000
0001
1000
0000
0001
0000
0100
0000
,  // measure 74
0110
0001
0100
0010
,  // measure 75
2000
3200
0320
0032
,  // measure 76
1003
0100
1000
0100
,  // measure 77
0020
0031
0200
0301
,  // measure 78
1001
0100
0001
0100
,  // measure 79
0020
2030
3200
0320
,  // measure 80
0032
0000
0003
0000
,  // measure 81
1000
0100
0010
0001
0011
0000
0000
1001
;

//---------------dance-single - ----------------
#NOTES:
     dance-single:
     :
     Hard:
     8:
     0.524997,0.698967,0.130088,0.284567,0.174805,452.000000,436.000000,16.000000,35.000000,0.000000,1.000000,0.524997,0.698967,0.130088,0.284567,0.174805,452.000000,436.000000,16.000000,35.000000,0.000000,1.000000:
// measure 0
0000
0000
0000
0000
,  // measure 1
0000
0000
0000
0000
,  // measure 2
0000
0000
0000
0000
,  // measure 3
0000
0000
0000
0000
,  // measure 4
0000
0000
0000
0000
,  // measure 5
0000
0000
0000
0000
,  // measure 6
0000
0000
0000
0000
,  // measure 7
0000
0000
0000
0000
,  // measure 8
0000
0000
0000
0000
,  // measure 9
0000
0000
0000
0000
,  // measure 10
1000
0100
0001
0100
,  // measure 11
1000
0000
0001
0100
0000
0100
0010
0001
,  // measure 12
0011
0100
1000
0100
,  // measure 13
0001
0000
1000
0100
0000
0100
0010
0001
,  // measure 14
0011
1000
0100
0001
,  // measure 15
0100
0000
1000
0001
0000
0100
0001
1000
,  // measure 16
0200
0000
0320
0000
,  // measure 17
0031
0000
0001
0100
0000
0010
0100
0001
,  // measure 18
0001
1000
0000
0100
0000
0100
0010
0001
,  // measure 19
0100
0010
0000
1000
0100
0010
0001
1000
,  // measure 20
0100
0001
0000
0100
1000
0010
0100
0001
,  // measure 21
1000
0001
0100
0001
1000
0010
0100
0001
,  // measure 22
1000
0010
0000
0100
0000
0001
0010
0100
,  // measure 23
1000
0010
0000
1000
0001
0010
0100
1000
,  // measure 24
0010
0000
0100
0000
1000
0100
0001
0010
,  // measure 25
0100
0000
0001
0000
0000
1000
0000
0100
0000
0010
0100
0000
1000
0000
0001
0000
,  // measure 26
1000
0010
0000
0100
0000
0001
0010
0100
,  // measure 27
1000
0001
0000
0010
1000
0010
0100
0001
,  // measure 28
1000
0001
0000
0010
1000
0100
0010
0001
,  // measure 29
0000
1000
0000
0001
0010
0100
1000
0000
,  // measure 30
1001
0100
0000
0001
0000
1000
0001
0010
,  // measure 31
0100
1000
0000
1000
0001
1000
0020
0000
,  // measure 32
0130
0000
0001
0000
0001
0010
0100
1000
,  // measure 33
0002
0103
2000
3100
,  // measure 34
0101
2000
3100
2000
,  // measure 35
3001
0000
0100
0001
0000
0100
0001
1000
,  // measure 36
0010
1000
0010
0001
,  // measure 37
0200
0000
0301
1000
0000
0001
1000
0100
,  // measure 38
1100
0001
0100
1000
,  // measure 39
0100
0000
0001
0100
0000
1000
0001
0100
,  // measure 40
0020
0000
0030
0010
0200
0000
0300
0100
,  // measure 41
0001
0010
0100
1000
0001
0010
0100
1000
0001
0000
0100
0000
0010
0000
1000
0000
,  // measure 42
1001
0000
0100
0010
1000
0000
0100
0001
,  // measure 43
0010
0000
0100
0010
0000
0100
0001
0010
,  // measure 44
0100
0000
1000
0010
0100
0000
1000
1001
,  // measure 45
0000
0000
0000
0000
0000
0000
0001
0100
0010
0000
0100
0000
0001
0000
1000
0000
,  // measure 46
1100
0000
0100
1000
0010
0000
0100
0001
,  // measure 47
0010
0000
0100
0010
0000
0100
0010
0001
,  // measure 48
2000
0000
0000
3100
0020
0000
0000
0000
,  // measure 49
0031
0000
1000
0000
0100
0010
0001
0000
1000
0000
0001
0000
0200
0000
0000
0000
,  // measure 50
1301
0000
0000
0000
0000
0000
1000
0000
0000
0000
0000
0000
0001
0000
0000
0000
1000
0000
0000
0000
0000
1000
0000
0000
,  // measure 51
0100
0010
0001
0100
0000
0100
0001
0010
,  // measure 52
0100
0000
0000
0000
0000
0000
0001
0000
0000
0000
0000
0000
1000
0000
0000
0000
0100
0000
0000
0000
0000
0100
0000
0000
,  // measure 53
0010
0001
0100
0010
1000
0000
0001
0000
,  // measure 54
0110
0000
0000
0000
0000
0000
0001
0000
0000
0000
0000
0000
0100
0000
0000
0000
0010
0000
0000
0000
0000
0010
0000
0000
,  // measure 55
0100
0001
1000
0100
0000
0100
0010
0001
,  // measure 56
1000
0100
1000
0000
0001
0100
0001
0000
0100
0000
0010
0000
0100
0000
0001
0000
,  // measure 57
1000
0100
0010
0001
1000
0010
0100
0001
,  // measure 58
1001
0000
0000
0000
0000
0000
0001
0000
0000
0000
0000
0000
0010
0000
0000
0000
1000
0000
0000
0000
0000
1000
0000
0000
,  // measure 59
0100
0010
0001
0100
0000
0100
0001
0010
,  // measure 60
0100
0000
0000
0000
0000
0000
1000
0000
0000
0000
0000
0000
0010
0000
0000
0000
0100
0000
0000
0000
0000
0100
0000
0000
,  // measure 61
0001
0010
0100
1000
0000
1000
0100
0010
,  // measure 62
0001
0000
0000
0000
0000
0000
0100
0000
0000
0000
0000
0000
0010
0000
0000
0000
1000
0000
0000
0000
0000
1000
0000
0000
,  // measure 63
0010
0100
0001
1000
0000
1000
0001
0100
,  // measure 64
0010
0000
1000
0000
0010
0100
0000
0010
,  // measure 65
1000
0100
0010
0100
2000
0000
3001
0000
,  // measure 66
1001
0000
0000
0000
0000
0000
0100
0000
0000
0000
0000
0000
0010
0000
0000
0000
0000
0000
0000
0000
0001
0000
0000
0000
0000
0000
0000
0001
0000
0000
0000
0000
0000
1000
0000
0000
0100
0000
0000
0000
0000
0000
0010
0000
0000
0000
0000
0000
,  // measure 67
0002
2003
3020
0230
,  // measure 68
0301
0000
0000
0000
0000
0000
1000
0000
0000
0000
0000
0000
0100
0000
0000
0000
0000
0000
0000
0000
0001
0000
0000
0000
0000
0000
0000
0001
0000
0000
0000
0000
0000
1000
0000
0000
0100
0000
0000
0000
0000
0000
1000
0000
0000
0000
0000
0000
,  // measure 69
0020
0000
1030
0100
0000
0100
1000
0001
,  // measure 70
1001
0000
0000
0000
0000
0000
0100
0000
0000
0000
0000
0000
0010
0000
0000
0000
0000
0000
0000
0000
1000
0000
0000
0000
0000
0000
0000
1000
0000
0000
0000
0000
0000
0001
0000
0000
0010
0000
0000
0000
0000
0000
0001
0000
0000
0000
0000
0000
,  // measure 71
0020
2030
3200
0320
,  // measure 72
2030
0000
0000
3100
0020
0000
0000
0000
,  // measure 73
1030
0100
1000
0000
0001
0000
0000
0000
0010
0000
0000
0000
0100
0000
0000
0000
,  // measure 74
1010
0000
0000
0000
0000
0000
0100
0000
0000
0000
0000
0000
1000
0000
0000
0000
0000
0000
0000
0000
0001
0000
0000
0000
0000
0000
0000
0001
0000
0000
0000
0000
0000
1000
0000
0000
0010
0000
0000
0000
0000
0000
1000
0000
0000
0000
0000
0000
,  // measure 75
2000
3200
0320
0032
,  // measure 76
1003
0000
0000
0000
0000
0000
0010
0000
0000
0000
0000
0000
0100
0000
0000
0000
0000
0000
0000
0000
1000
0000
0000
0000
0000
0000
0000
1000
0000
0000
0000
0000
0000
0001
0000
0000
0100
0000
0000
0000
0000
0000
0010
0000
0000
0000
0000
0000
,  // measure 77
0020
0031
0200
0301
,  // measure 78
1001
0000
0010
0000
0100
0000
1000
0000
0000
1000
0000
0001
0100
0000
0010
0000
,  // measure 79
0020
2030
3200
0320
,  // measure 80
0031
0000
0000
0000
0000
0000
1000
0000
0000
0000
0000
0000
0010
0000
0000
0000
0000
0000
0000
0000
1000
0000
0000
0000
0000
0000
0000
1000
0000
0000
0000
0000
0000
0001
0000
0000
1000
0000
0000
0000
0000
0000
0100
0000
0000
0000
0000
0000
,  // measure 81
1000
0100
0010
0001
1000
0100
0010
0001
1000
0000
0100
0001
0000
0000
1001
0000
;
