#TITLE:East Tokyo;
#SUBTITLE:;
#ARTIST:fu_mou;
#TITLETRANSLIT:;
#SUBTITLETRANSLIT:;
#ARTISTTRANSLIT:;
#GENRE:;
#CREDIT:;
#BANNER:[Round D] - East Tokyo.png;
#BACKGROUND:[Round D] - East Tokyo-bg.png;
#LYRICSPATH:;
#CDTITLE:;
#MUSIC:[Round D] - East Tokyo.ogg;
#OFFSET:-2.192000;
#SAMPLESTART:82.908997;
#SAMPLELENGTH:16.299999;
#LASTBEATHINT:219.647995;
#SELECTABLE:YES;
#BPMS:0.000000=110.000000
;
#STOPS:
;
#BGCHANGES:;
#KEYSOUNDS:;
#ATTACKS:;

//---------------dance-single - Might be a 10?----------------
#NOTES:
     dance-single:
     :
     Hard:
     9:
     0.601009,0.580778,0.442849,0.237240,0.604963,532.000000,476.000000,56.000000,30.000000,20.000000,0.000000,0.601009,0.580778,0.442849,0.237240,0.604963,532.000000,476.000000,56.000000,30.000000,20.000000,0.000000:
// measure 0
M0M0
0000
0000
0000
0000
0M0M
0000
M00M
,  // measure 1
0000
0000
0MM0
00MM
,  // measure 2
MM00
0000
0000
0000
0000
0MM0
0000
M00M
,  // measure 3
0000
0000
0000
0000
,  // measure 4
1001
0000
0000
0001
0000
0000
0010
0000
0000
0100
1000
0100
1000
0000
0000
1010
0000
0000
0010
0000
0000
0101
0000
0000
,  // measure 5
0000
0000
0000
0001
0010
0001
0010
0000
0000
0100
1000
0100
1000
0000
0000
0010
0000
0010
1000
0000
0001
0100
0000
0000
,  // measure 6
0001
0010
1100
0000
2000
3001
0010
1001
,  // measure 7
0000
0000
0000
0002
0103
0000
0110
0000
,  // measure 8
1010
0000
0000
0010
1000
0010
1000
0000
0000
0001
0010
0001
0010
0000
0000
0100
0000
0000
1000
0000
0000
2002
0000
0000
,  // measure 9
0000
0000
0000
0000
0000
0000
0000
0000
0000
0000
0000
0000
3003
0000
0000
0000
0000
0000
0001
0000
0000
1000
0000
0000
0100
0000
0000
0000
0000
0000
0010
0000
0001
0000
0100
0000
0001
0000
0000
0000
0000
0000
1000
0000
0010
0000
1000
0000
,  // measure 10
0100
0000
0000
0100
0000
0000
1000
0000
0100
1000
0000
0000
0001
0000
0000
0001
0000
0000
0010
0000
0001
0020
0000
0000
,  // measure 11
0000
0000
0000
0031
0000
0001
1000
0000
1000
0010
0000
0010
0100
0000
0100
0000
0100
0000
2002
0000
0000
0000
3003
0000
,  // measure 12
1010
0000
0000
1000
0000
1000
0001
0000
0010
0100
0000
0000
1000
0000
0000
0100
0000
0001
0000
0000
0100
2000
0000
0000
,  // measure 13
0000
0000
0000
3001
0000
0001
1000
0010
0100
0001
0000
0000
1000
0000
0000
0100
0000
0010
0001
0000
0000
0100
0000
0010
,  // measure 14
1000
0000
0000
0001
0000
0001
1000
0000
0010
0100
0000
0000
0001
0000
0000
0010
0000
1000
0000
0000
0010
0002
0000
0000
,  // measure 15
0000
0000
0000
1003
0000
1000
0001
0010
0100
1000
0000
0000
0001
0000
0000
0100
0000
0000
0010
0000
0000
1000
0000
0000
,  // measure 16
0101
0000
0000
0001
0000
0001
1000
0000
0100
0010
0000
0000
0001
0000
0000
0010
0000
1000
0000
0000
0010
0002
0000
0000
,  // measure 17
0000
0000
0000
1003
0000
1000
0001
0100
0010
1000
0000
0000
0001
0000
0000
0010
0000
0100
1000
0000
0000
0010
0000
0100
,  // measure 18
0001
0000
0000
1000
0000
1000
0001
0000
0100
0010
0000
0000
1000
0000
0000
0100
0000
0001
0000
0000
0100
2000
0000
0000
,  // measure 19
0000
0000
0000
3010
0000
0010
0100
0000
0100
0001
0000
0000
1100
0000
0000
0010
0000
0000
0101
0000
0000
0010
0000
0000
,  // measure 20
1001
0000
0000
1000
0000
0000
1000
0000
0000
0010
0000
0100
0000
0000
0000
0101
0000
0000
0010
0000
0000
1100
0000
0000
,  // measure 21
0000
0000
0000
1000
0010
1000
0010
0000
0000
0100
0001
0100
0001
0000
0000
0010
0000
0100
1000
0000
0001
0100
0000
0000
,  // measure 22
1001
0000
0000
0001
0000
0000
0001
0000
0000
0010
0000
0100
0000
0000
0000
1100
0000
0000
0010
0000
0000
0101
0000
0000
,  // measure 23
0000
0000
0000
0001
0010
0001
0010
0000
0100
1000
0000
0000
1001
0000
0000
0010
0000
0000
0110
0000
0000
0100
0000
0000
,  // measure 24
1001
0000
0000
0001
1000
0001
1000
0000
0000
0000
0000
0000
1100
0000
0000
0100
0000
0000
0010
0000
0000
0022
0000
0000
,  // measure 25
0000
0000
0000
0030
0000
0000
0003
0000
0000
0100
0001
1000
0100
0000
0000
0100
0000
0000
0000
0000
0110
0000
0000
0000
,  // measure 26
1001
0000
1000
0100
0000
0000
1001
0000
0001
0100
0000
0000
0010
0000
0000
1000
0000
0000
0100
0000
0000
2002
0000
0000
,  // measure 27
0000
0003
0010
3002
0100
1003
1001
0110
,  // measure 28
2001
0000
0000
0000
0000
3000
0100
0000
0000
0000
0010
0100
1000
0000
0000
0010
0000
0010
1000
0000
1000
0002
0000
0000
,  // measure 29
0000
0000
0000
1003
0000
1000
0200
0000
0000
0310
0000
0010
0002
0000
0000
0103
0000
0000
0010
0000
0000
0100
0000
0000
,  // measure 30
0001
1000
0010
1000
0100
0010
0001
2000
,  // measure 31
0000
0000
0000
3001
0000
0001
0020
0000
0000
0130
0000
0100
1000
0000
0000
1010
0000
0000
0000
0000
0010
1000
0000
0001
,  // measure 32
0010
0000
0000
0001
0000
0000
1000
0000
0000
0100
0000
0000
1000
0000
0000
0010
0000
0010
0100
0000
0100
0002
0000
0000
,  // measure 33
0000
0000
0000
1003
0100
1000
0100
0000
0000
0010
0000
0010
0001
0000
0000
0100
0000
0100
0010
0000
1000
0001
0000
0000
,  // measure 34
1000
0000
0000
0100
0000
0010
0001
0000
0000
0100
0000
0010
1000
0000
0010
0100
0000
0000
0001
0000
0000
1001
0000
0000
,  // measure 35
0000
0000
0000
0001
0000
0001
0010
0000
0000
0100
1000
0100
1000
0000
0000
0010
0000
0010
0100
0000
0100
0001
0000
0001
,  // measure 36
1000
0000
0000
1100
0000
0000
0000
0000
0101
0000
0000
0000
1001
0000
0000
0000
0000
0000
MMMM
0000
0000
0000
0000
0000
,  // measure 37
1001
0000
0000
1000
0000
1000
0010
0000
1000
0100
0000
0000
1000
0000
0000
0010
0000
0100
0001
0000
0100
0010
0000
0000
,  // measure 38
0000
0000
0000
1000
0000
1000
0000
0000
0010
0100
0000
0000
0101
0000
0000
0010
0000
1000
0100
0000
0000
0110
0000
0000
,  // measure 39
1001
0000
0000
0001
0000
0001
1000
0000
0010
0100
0000
0000
0001
0000
0000
0100
0000
0010
1000
0000
0010
0200
0000
0000
,  // measure 40
0000
0001
0010
0301
1010
0100
0011
0100
,  // measure 41
1001
0000
0000
0001
0000
0001
0100
0000
0001
0010
0000
0000
0001
0000
0000
0100
0000
0010
1000
0000
0010
0100
0000
0000
,  // measure 42
0000
0000
0000
0001
0000
0001
0000
0000
0100
0010
0000
0000
1010
0000
0000
0100
0000
0001
0010
0000
0000
0110
0000
0000
,  // measure 43
1001
0000
0000
1000
0000
1000
0001
0000
0100
0010
0000
0000
1010
0000
0000
0000
0000
0101
0000
0000
0000
2001
0000
0000
,  // measure 44
0000
0000
0000
3010
0000
0010
1000
0000
1000
0100
0000
0100
1000
0000
0001
0010
0000
0000
0110
0000
0000
0011
0000
0000
,  // measure 45
0101
0000
0000
0001
0000
0001
1000
0000
0100
0010
0000
0000
0001
0000
0000
0010
0000
1000
0000
0000
0010
0002
0000
0000
,  // measure 46
0000
0000
0000
1003
0000
1000
0001
0100
0010
1000
0000
0000
0001
0000
0000
0010
0000
0100
1000
0000
0000
0010
0000
0100
,  // measure 47
0001
0000
0000
1000
0000
1000
0001
0000
0100
0010
0000
0000
1000
0000
0000
0100
0000
0001
0000
0000
0100
2000
0000
0000
,  // measure 48
0000
0000
0000
3001
0000
0001
1000
0100
0010
0001
0000
0000
1000
0000
0000
0010
0000
0000
0100
0000
0000
0001
0000
0000
,  // measure 49
1010
0000
0000
1000
0000
1000
0001
0000
0010
0100
0000
0000
1000
0000
0000
0100
0000
0001
0000
0000
0100
2000
0000
0000
,  // measure 50
0000
0000
0000
3001
0000
0001
1000
0010
0100
0001
0000
0000
1000
0000
0000
0100
0000
0010
0001
0000
0000
0100
0000
0010
,  // measure 51
1000
0000
0000
0001
0000
0001
1000
0000
0010
0100
0000
0000
0011
0000
0000
0000
0000
1100
0000
0000
0000
2002
0000
0000
,  // measure 52
0000
0000
0000
0000
0000
0000
0000
0000
0000
0000
0000
3003
0000
0000
0000
0000
0000
0000
0000
0000
0000
0000
0000
0000
;

//---------------dance-single - ----------------
#NOTES:
     dance-single:
     :
     Beginner:
     2:
     0.146863,0.166068,0.086988,0.086988,0.000000,130.000000,119.000000,11.000000,11.000000,12.000000,0.000000,0.146863,0.166068,0.086988,0.086988,0.000000,130.000000,119.000000,11.000000,11.000000,12.000000,0.000000:
M000
0000
0000
0000
0000
000M
0000
0M00
,
0000
0000
00M0
M000
,
000M
0000
0000
0000
0000
00M0
0000
0M00
,
0000
0000
0000
0000
,
1001
0000
0000
0000
0000
1000
0000
0100
,
0000
0000
0010
0001
,
1001
0000
0000
0000
0000
1000
0000
0010
,
0000
0000
0100
0001
,
1001
0000
0000
0000
1000
0000
0000
0100
,
0000
0000
0010
0010
,
0001
0000
0001
0000
1000
0000
0000
2002
,
0000
0000
0000
0000
0000
3003
0000
0000
,
1000
0000
1000
1000
,
1000
0000
0010
0100
,
0001
0000
0001
0001
,
0001
0000
0100
0001
,
0010
0000
0010
0010
,
0100
0000
1000
0001
,
0100
0000
0000
0000
0100
0000
0000
0020
,
0000
0000
0030
1001
,
1000
0000
0000
0000
0000
0100
0000
0010
,
0000
0000
0000
1001
,
0001
0000
0000
0000
0000
0100
0000
0010
,
0000
0000
1000
1000
,
1000
0000
0000
0000
0010
0000
0000
0200
,
0000
0000
0301
0000
,
0010
0000
0000
0000
0100
0000
0000
2002
,
0000
0000
0000
3003
0000
0000
0001
0000
,
0001
0000
0000
0000
0000
0100
0000
0100
,
0000
0000
0010
0010
,
0010
0000
1000
0000
,
0100
0000
0010
0000
,
2001
0000
0000
0000
3000
0100
0000
0100
,
0000
0000
0010
0010
,
0010
0000
0000
0000
0001
0000
0000
2000
,
0000
0000
3002
0000
,
0103
0000
0000
MMMM
,
1001
0000
1000
1000
,
1000
0000
0001
0001
,
0001
0000
0100
0100
,
0100
0000
0010
0000
,
1001
0000
0001
0001
,
0001
0000
1000
1000
,
1000
0000
0000
0000
0010
0000
0000
0020
,
0000
0000
0130
0000
,
1001
0000
0001
0001
,
0001
0000
0100
0010
,
1000
0000
1000
1000
,
1000
0000
0010
1000
,
0100
0000
0100
0100
,
0010
0000
0001
1000
,
0010
0000
0000
0000
0010
0000
0000
0200
,
0000
0000
0300
0000
;

//---------------dance-single - ----------------
#NOTES:
     dance-single:
     :
     Easy:
     3:
     0.219165,0.247916,0.181884,0.110712,0.000000,194.000000,171.000000,23.000000,14.000000,12.000000,0.000000,0.219165,0.247916,0.181884,0.110712,0.000000,194.000000,171.000000,23.000000,14.000000,12.000000,0.000000:
00M0
0000
0000
0000
0000
0M00
0000
000M
,
0000
0000
M000
0M00
,
00M0
0000
0000
0000
0000
000M
0000
M000
,
0000
0000
0000
0000
,
1002
0000
0103
0000
0001
0000
0000
0010
,
0000
0100
1000
0001
,
2001
0000
3100
0000
1000
0000
0000
0001
,
0000
0000
0100
0010
,
0120
0000
1030
0000
0010
0000
0000
0100
,
0000
0001
1000
0100
,
0120
0000
0031
0000
1000
0000
0000
2002
,
0000
0000
3003
1001
,
1000
0000
0010
0000
0100
0000
0001
0001
,
0000
0010
0001
0100
,
0001
0000
0010
0000
0100
0000
1000
1000
,
0000
0100
1000
0010
,
0100
0000
0001
0000
1000
0000
0010
0010
,
0000
1000
0001
0001
,
0010
0000
0100
0000
1000
0000
0000
2002
,
0000
3003
1010
0101
,
1001
0000
0001
0000
0000
1000
0000
1000
,
0000
0000
0000
0000
0000
0100
0000
0010
,
0001
0000
1000
0000
0000
0001
0000
0001
,
0000
0000
0100
0001
,
0010
0000
0100
0000
0010
0000
0000
0020
,
0000
0000
0000
0000
0031
0001
0000
0000
,
0100
0000
0010
0000
0100
0000
0000
0200
,
0000
0010
0010
0010
,
0301
0000
0010
0000
0100
0000
0000
1000
,
0000
0100
0010
0001
,
1000
0010
0100
0001
,
0100
0010
1000
1001
,
0100
0001
1000
0010
,
1000
0001
0100
0110
,
1001
0000
1000
0000
1001
0000
0001
0001
,
0000
0100
0010
1000
,
0001
0001
0001
MMMM
,
1000
0001
0001
0100
,
0010
1000
1010
0101
,
0001
1000
1000
0100
,
0010
0001
1100
0011
,
0010
0100
0100
1000
,
0001
0010
0110
1001
,
0100
0000
0010
0000
0010
0000
0000
2002
,
0000
0000
0000
0000
0000
3003
1001
0000
,
0001
0000
0100
0000
0010
0000
1000
1000
,
0000
0100
1000
0010
,
1000
0000
0100
0000
0010
0000
0001
0001
,
0000
0010
0001
0100
,
0010
0000
1000
0000
0001
0000
0100
0100
,
0000
0001
1000
1000
,
0100
0000
0010
0000
0001
0000
0000
2002
,
0000
3003
0000
0000
;

//---------------dance-single - ----------------
#NOTES:
     dance-single:
     :
     Medium:
     6:
     0.377325,0.414182,0.411217,0.173976,0.051402,334.000000,282.000000,52.000000,22.000000,20.000000,0.000000,0.377325,0.414182,0.411217,0.173976,0.051402,334.000000,282.000000,52.000000,22.000000,20.000000,0.000000:
M0M0
0000
0000
0000
0000
0M0M
0000
MM00
,
0000
0000
00MM
M0M0
,
0MM0
0000
0000
0000
0000
M0M0
0000
0M0M
,
0000
0000
0000
0000
,
1001
0001
0010
0100
1000
0001
0000
0101
,
0000
0100
0010
1000
0001
1000
0100
0010
,
1001
1000
0010
0000
0000
0100
0001
1000
,
0000
0000
0000
0100
0010
0000
0011
0000
,
1001
1000
0100
0000
1100
0100
0010
0120
,
0000
0000
0000
0130
1000
0000
0001
0000
,
0100
0010
1000
0010
0001
0010
0100
2002
,
0000
0000
0000
0000
0000
0000
0000
0000
0000
3003
0000
0000
1000
0000
0100
0000
0010
0000
0001
0000
0000
0000
0000
0000
,
1001
0000
0000
0000
0000
0000
0101
0000
0000
0000
0000
0000
0100
0000
0000
0000
0000
0010
0000
0000
0000
1000
0000
0000
,
0000
0100
0010
0001
0100
0001
1000
0010
,
0110
0000
0000
0000
0000
0000
1010
0000
0000
0000
0000
0000
1000
0000
0000
0000
0000
0010
0000
0000
0000
0100
0000
0000
,
0000
0001
0010
1000
0010
0100
1000
0001
,
1001
0000
0000
0000
0000
0000
1100
0000
0000
0000
0000
0000
0100
0000
0000
0000
0000
0010
0000
0000
0000
0001
0000
0000
,
0000
0100
0010
1000
0100
1000
0001
0010
,
0110
0000
0000
0000
0000
0000
0011
0000
0000
0000
0000
0000
1000
0000
0000
0000
0000
0010
0000
0000
0000
2002
0000
0000
,
3000
0010
2003
0100
3001
0110
1001
0000
,
1000
0100
0010
0000
0000
0001
0010
0100
,
0000
1000
1000
0001
0001
0010
0001
0100
,
0001
0100
0010
0000
0000
1000
0010
0100
,
0000
0010
0010
0100
0100
0000
0110
0000
,
1001
1000
0100
0000
0010
0001
0100
0220
,
0000
0000
0000
0000
0000
0000
0300
0000
0000
0130
0000
0000
0001
0000
0000
1000
0000
0000
0000
0000
0100
0000
0000
0000
,
0010
0010
0001
0001
1000
1000
0010
0220
,
0000
0030
0002
0300
0020
0003
0200
0030
,
1300
0001
0100
0001
0010
0011
0000
1100
,
0000
1000
0000
0100
0010
0000
0001
0100
,
0001
1000
0100
1000
0010
1000
0001
0010
,
0000
0000
0000
0100
0000
0000
1000
0000
0000
0001
0000
0000
0100
0000
0000
0100
0000
0000
0000
0000
0010
0000
0000
0000
,
1001
1000
0100
1000
0010
1010
0000
0201
,
0000
0002
0300
0020
0003
0130
1000
0100
,
0000
1000
0010
1000
0000
0001
0100
0001
,
0000
0010
0010
0100
0100
1000
1000
0010
,
0001
0010
1000
0001
0010
0000
MMMM
0000
,
1100
0000
1001
0000
0001
0200
0000
0310
,
0000
1000
0010
0100
0001
0010
1000
0010
,
0011
0000
1001
0000
1000
0020
0000
0130
,
0000
0001
0100
1000
0100
0001
0010
0001
,
0101
0000
1001
0000
1000
0200
0000
0310
,
0000
0001
0010
0100
1000
0010
0001
0010
,
1010
0000
0000
0000
0000
0000
1001
0000
0000
0000
0000
0000
0011
0000
0000
0000
0000
1100
0000
0000
0000
0201
0000
0000
,
0000
0001
0010
1000
0310
0110
1001
0000
,
0110
0000
0000
0000
0000
0000
1100
0000
0000
0000
0000
0000
1000
0000
0000
0000
0000
0001
0000
0000
0000
0010
0000
0000
,
0000
1000
0001
0100
1000
0100
0010
0001
,
1001
0000
0000
0000
0000
0000
0011
0000
0000
0000
0000
0000
0010
0000
0000
0000
0000
0001
0000
0000
0000
1000
0000
0000
,
0000
0100
0010
0001
0010
1000
0010
0100
,
1001
0000
0000
0000
0000
0000
1010
0000
0000
0000
0000
0000
1000
0000
0000
0000
0000
0001
0000
0000
0000
0100
0000
0000
,
0000
1000
0001
0010
1000
0010
0100
0001
,
1001
0000
0000
0000
0000
0000
0101
0000
0000
0000
0000
0000
1100
0000
0000
0000
0000
0011
0000
0000
0000
0220
0000
0000
,
0000
0000
0000
0330
0000
0000
0000
0000
;
