#TITLE:Daydream café;
#SUBTITLE:;
#ARTIST:Petit Rabbit's;
#TITLETRANSLIT:;
#SUBTITLETRANSLIT:;
#ARTISTTRANSLIT:;
#CREDIT:;
#BANNER:[Round D] - Daydream cafe.png;
#BACKGROUND:[Round D] - Daydream cafe-bg.png;
#LYRICSPATH:;
#CDTITLE:;
#MUSIC:[Round D] - Daydream cafe.mp3;
#OFFSET:-0.833;
#SAMPLESTART:41.633;
#SAMPLELENGTH:12.000;
#SELECTABLE:YES;
#BPMS:0.000=150.000;
#STOPS:;
#BGCHANGES:;

//---------------dance-single - ----------------
#NOTES:
     dance-single:
     :
     Hard:
     8:
     0.659,0.642,0.598,0.122,0.111:
0000
0000
0000
0000
,
0000
0000
0000
0000
,
0000
0000
0000
0000
,
0000
0000
0000
0000
,
0000
0000
2100
3001
,
0001
1000
0000
1010
0000
1000
0100
0020
,
0030
0000
0001
0100
0010
1000
0100
0010
,
0001
1000
1010
1001
0000
1001
0101
1000
,
0000
0000
0001
1000
0001
0000
1000
0000
0010
0000
1000
0000
0010
0000
1000
0000
,
0100
0001
0100
1000
0010
0100
0001
1000
,
0000
1100
0000
1000
0010
1000
0001
0100
,
0010
1000
0100
0001
0200
1300
0010
0200
,
0301
0000
1000
0001
1000
0001
0100
0001
1000
0000
0100
0000
1000
0000
0010
0000
,
1000
0100
1000
0010
0100
1000
0100
0001
,
0000
1001
0000
0001
0100
0010
0100
1000
,
0100
0001
1000
0001
1001
0000
0000
0110
,
0000
0000
1000
0001
0100
0000
0001
1000
0100
0000
1000
0000
0001
0000
1000
0000
,
0100
1000
0000
1001
0000
0001
0100
0001
,
1000
0010
0100
0001
1000
0100
0001
0100
,
1000
0100
0001
0100
0000
1100
0000
1000
,
0001
1000
0001
0100
0010
1000
0001
1000
,
0010
1000
0000
1001
0000
0001
1000
0100
,
0010
0001
1000
0100
1000
0010
0001
0010
,
1000
0010
0100
0101
0000
1100
0000
1000
,
0001
0000
0100
0001
1000
0001
0100
0001
1000
0000
0100
0000
0001
0000
0100
0000
,
1000
0010
0001
0010
0100
0001
0010
1000
,
0010
0001
2000
3000
0000
0001
0100
0000
,
1000
0100
0000
0110
0000
1000
0001
0001
,
0100
0010
1100
1000
0001
0100
0010
0100
,
0001
0100
0010
1000
0001
1000
0100
0001
,
0100
0000
1000
0001
1000
0000
0010
0000
0100
0000
0001
0100
0001
0100
0010
0000
,
1000
0000
0001
0000
0100
0000
0110
0000
0000
0000
1000
0100
1000
0000
0100
0000
,
0010
0100
1000
1001
0000
0001
1000
1100
,
0000
1000
0100
0110
0000
0010
0001
0101
,
0000
0100
0010
1001
0000
1000
0010
0100
,
0000
0000
0010
1000
0010
1000
0001
0000
0000
0000
0001
0000
0101
0000
1001
0000
,
0000
0001
0100
0010
1010
0000
1001
0000
,
0001
0010
0000
0110
0000
0100
1000
0001
,
0100
0010
1000
0001
0102
0000
1003
0000
,
1100
0000
0100
1000
0100
0000
0010
0000
0000
0000
1000
0000
0010
0000
0100
0000
,
1000
0001
0001
0100
0101
0000
1001
0000
,
1000
0100
0000
0110
0000
0010
0001
1001
,
0000
0000
1000
0001
1000
0010
0001
1000
,
0100
0001
1000
1001
0000
1000
1100
0101
,
0000
0001
0100
0010
1010
0000
1100
0000
,
0100
0010
0000
0110
0000
0010
0001
0100
,
1000
0100
0001
1000
2100
0000
3001
0000
,
0101
0000
0100
0001
0100
0000
0010
0000
0000
0000
0001
0000
0010
0000
0100
0000
,
0001
1000
1000
0100
1100
0000
1010
0000
,
0010
0100
0000
0110
0000
0010
1000
1001
,
0000
0000
0001
1000
0001
0010
1000
0001
,
0100
0000
1000
0000
0001
0000
1000
0000
0000
0000
0001
0010
0001
0000
1000
0000
,
0010
0001
0010
1000
0000
1010
1010
0001
,
0000
0000
0100
0000
0001
0000
1000
0000
1001
0000
0000
1000
0100
0000
0110
0000
,
0000
0010
0001
0000
2002
0000
3003
0000
0000
0000
1100
0000
0101
0000
2002
0000
,
0000
3003
0000
0000
;

//---------------dance-single - ----------------
#NOTES:
     dance-single:
     :
     Medium:
     6:
     0.515,0.459,0.908,0.111,0.000:
0000
0000
0000
0000
,
0000
0000
0000
0000
,
0000
0000
0000
0000
,
0000
0000
0000
0000
,
0000
0000
1000
1000
,
0100
0010
0000
1001
0000
0001
0100
0010
,
0000
1000
0001
0010
,
0100
0000
1000
0002
0000
1000
1003
0000
,
0000
0000
1100
0101
,
1100
0000
0101
0000
0011
0000
0001
0010
,
0000
0010
0100
0000
1100
0000
1010
0000
,
1100
0000
1010
0000
0101
0000
0001
0010
,
0000
0100
1000
0000
1010
0000
0011
0000
,
1010
0000
0011
0000
1001
0000
1000
0010
,
0000
0010
0100
0000
0101
0000
0011
0000
,
1010
0000
1100
0000
1001
0000
0000
1001
,
0000
1000
0001
0101
,
1000
0100
0000
1100
0000
0000
1000
0000
,
0010
0100
0001
0000
0101
0000
0101
0000
,
1100
0000
0100
1000
0000
1100
0000
1000
,
0001
0100
0010
1010
,
0100
0011
0100
1010
,
0100
0011
1010
1010
,
0011
0000
0010
0001
0000
0011
0000
0001
,
2000
0100
3010
1001
,
0010
1001
0100
1001
,
0100
0000
1001
0000
0000
1000
0100
0000
,
0001
0100
0000
1001
0000
1000
0010
0100
,
0001
0101
0012
0100
,
1003
0001
1000
0000
2010
0000
0100
0000
,
3001
1000
0001
1000
0200
0000
0001
0000
,
0010
1300
0020
0001
,
0100
0000
1030
0001
0000
1000
0001
0100
,
0000
0100
0001
1000
0000
1000
0001
1000
,
0000
0001
1000
0010
0000
0010
1000
0001
,
0000
0001
0100
0010
0000
1010
1100
1001
,
0000
0000
1001
1001
,
1100
1100
0110
1001
,
0110
1001
0101
0010
,
1100
0010
2001
0010
,
0100
3001
0101
1001
,
1000
0100
0000
0110
0000
0010
0001
1000
,
0000
0000
0010
0000
1000
0100
1000
0001
,
0100
0001
1000
0001
0000
0001
1000
0110
,
0000
0100
1001
1001
,
0101
0101
0110
1001
,
0110
1001
0101
0010
,
1100
0010
2001
0100
,
0010
3001
1010
1001
,
0001
0010
0000
0110
0000
0100
1000
0001
,
0000
0000
1000
0001
1000
0001
0010
0001
,
1000
0010
1000
0001
0000
0100
1000
0100
,
0001
0100
0010
1000
0000
1001
1000
0001
,
0000
0010
0100
1000
1100
0000
0000
1001
,
0000
0000
0101
0000
0000
0110
0100
2002
,
0000
3003
0000
0000
;

//---------------dance-double - ----------------
#NOTES:
     dance-double:
     :
     Hard:
     8:
     0.640,0.611,0.542,0.044,0.083:
00000000
00000000
00000000
00000000
,
00000000
00000000
00000000
00000000
,
00000000
00000000
00000000
00000000
,
00000000
00000000
00000000
00000000
,
00000000
00000000
00021000
00030100
,
00000010
00000001
00000000
00000101
00000000
00000001
00000100
00001000
,
00000000
00001000
01000000
00100000
10000000
00010000
00100000
00010000
,
10000000
01000000
11000000
10010000
00000000
10010000
01010000
00010000
,
00000000
00000000
10000000
00010000
10000000
00000000
01000000
00000000
00010000
00000000
01000000
00000000
10000000
00000000
01000000
00000000
,
00010000
00001000
00010000
01000000
00100000
00010000
00001000
00000100
,
00000010
00000001
00000000
00000001
00000100
00001000
00000100
00000001
,
00000010
00001000
00010000
01000000
10000000
00100000
10000000
01000000
,
00100000
00000000
00010000
10000000
00010000
10000000
01000000
10000000
00010000
00000000
00100000
00000000
10000000
00000000
00100000
00000000
,
00010000
00100000
10000000
00100000
00001000
00000010
00000001
00001000
,
00000010
00000100
00000001
00001000
00000001
00000010
00001000
00010000
,
01000000
10000000
00100000
01000000
01010000
00000000
00000000
00011000
,
00000000
00010000
00000100
00001000
00000001
00000010
00000001
00000100
,
00001000
00000100
00000001
00001000
00000000
00000010
00001000
00000100
,
00000010
00000001
00000100
00001000
00010000
01000000
00100000
01000000
,
10000000
01000000
00100000
01000000
00000000
11000000
00000000
01010000
,
10000000
01000000
00100000
00001000
00010000
00000010
00000100
00000010
,
00000001
00000010
00001000
00000001
00000000
00000010
00000001
00000100
,
00001000
00010000
01000000
00100000
00010000
01000000
10000000
01000000
,
00010000
01000000
10000000
01000000
00000000
01100000
00000000
10100000
,
00010000
00000000
00100000
00010000
10000000
00010000
00100000
00010000
10000000
00000000
01000000
00000000
00100000
00000000
01000000
00000000
,
10000000
00100000
01000000
00010000
00100000
00001000
00010000
00000010
,
00000100
00000001
00002000
00003000
00000000
00000001
00000010
00000000
,
00001000
00010000
00000000
00011000
00000000
00001000
00100000
01000000
,
10000000
00010000
10000000
00100000
10000000
01000000
00010000
00001000
,
00000100
00001000
00010000
00100000
00000000
00100000
10000000
01000000
,
00010000
00001000
00000100
00000001
00001000
00000100
00000001
00000100
,
00001000
00000000
00000010
00000000
00000100
00000000
00000101
00000000
00000000
00000000
00000001
00000100
00000001
00000000
00000010
00000000
,
00001000
00010000
01000000
01100000
00000000
00100000
00010000
01000000
,
00000000
01000000
00100000
10100000
00000000
10000000
01000000
00010000
,
00000000
00010000
00001000
00000110
00000000
00000100
00000001
00001000
,
00000000
00000000
00001000
00000001
00001000
00000001
00000010
00000000
00000000
00000000
00000110
00000000
00001001
00000000
00000110
00000000
,
00000000
00000001
00000100
00001000
00011000
00000000
00011000
00000000
,
00100000
00010000
00000000
10010000
00000000
00010000
01000000
00100000
,
10000000
01000000
00010000
00001000
00000100
00000000
00000110
00000000
,
00001001
00000000
00001000
00000001
00001000
00000000
00000010
00000000
00000000
00000000
00000001
00000000
00000010
00000000
00001000
00000000
,
00000001
00000010
00000010
00000100
00001001
00000000
00001100
00000000
,
00010000
00001000
00000000
01001000
00000000
01000000
00100000
10100000
,
00000000
00000000
10000000
00010000
10000000
01000000
00010000
10000000
,
00100000
00010000
00001000
00000100
00000000
00000010
00000011
00001001
,
00000000
00000001
00000100
00001000
00011000
00000000
00011000
00000000
,
01000000
00010000
00000000
10010000
00000000
00010000
01000000
00100000
,
10000000
01000000
00010000
00001000
00000100
00000000
00000110
00000000
,
00001001
00000000
00000001
00001000
00000001
00000000
00000010
00000000
00000000
00000000
00000010
00000000
00000001
00000000
00000100
00000000
,
00001000
00010000
01000000
10000000
10010000
00000000
10010000
00000000
,
10000000
01000000
00000000
01100000
00000000
01000000
00100000
00101000
,
00000000
00000000
00000100
00001000
00000001
00000100
00001000
00000001
,
00000010
00000000
00001000
00000000
00010000
00000000
01000000
00000000
00000000
00000000
01000000
00100000
01000000
00000000
00010000
00000000
,
10000000
01000000
00010000
00011000
00000000
00010100
00011000
00010000
,
00000000
00000000
00010000
00000000
00000010
00000000
00000100
00000000
00000101
00000000
00000000
00000001
00001000
00000000
00001001
00000000
,
00000000
00001000
00000100
00000000
00001100
00000000
00000000
00000000
00000000
00000000
00011000
00000000
00100100
00000000
02000020
00000000
,
00000000
03000030
00000000
00000000
;

//---------------dance-double - ----------------
#NOTES:
     dance-double:
     :
     Medium:
     6:
     0.534,0.550,1.000,0.066,0.000:
00000000
00000000
00000000
00000000
,
00000000
00000000
00000000
00000000
,
00000000
00000000
00000000
00000000
,
00000000
00000000
00000000
00000000
,
00000000
00000000
00011000
00011000
,
00010000
00001000
00000000
00000110
00000000
00000100
00000001
00001000
,
00000000
00000100
00001100
00011000
,
01010000
00000000
10000000
01000000
00000000
01000000
00100000
00000000
,
00000000
00110000
00011000
00001100
,
00001010
00000000
00011000
00000000
00110000
00000000
00010000
00100000
,
00000000
00100000
01000000
00000000
11000000
00000000
10010000
00000000
,
01010000
00000000
10010000
00000000
10100000
00000000
10000000
01000000
,
00000000
01000000
00010000
00000000
00011000
00000000
01010000
00000000
,
00110000
00000000
00011000
00000000
00001100
00000000
00001000
00000100
,
00000000
00000100
00000010
00000000
00000011
00000000
00000101
00000000
,
00001100
00000000
00011000
00000000
01010000
00000000
00000000
11000000
,
00000000
10000000
01010000
00100000
,
11000000
00100000
01010000
00100000
,
11000000
00000000
00100000
00010000
00001000
00000000
00001010
00000000
,
00000001
00000000
00000010
00000001
00000000
00000011
00000000
00001000
,
00000001
00000100
00011000
01000000
,
00011000
00000100
00011000
00100000
,
00011000
00000010
00011000
01000000
,
10010000
00000000
00010000
10000000
00000000
01100000
00000000
10000000
,
00010000
10000000
10010000
01000000
,
10010000
00100000
00001001
00000100
,
00001001
00000000
00000010
00000000
00000000
00000001
00000100
00000000
,
00001000
00010000
00000000
00011000
00000000
00001000
00100000
00010000
,
10000000
01000000
10000000
00000000
02100000
00000000
10000000
00000000
,
00100000
03010000
00000200
00000001
,
00000010
00001300
00002001
00000100
,
00000010
00003001
00012000
01000000
,
00010000
00000000
00103000
00010000
00000000
00010000
00100000
01000000
,
00000000
01000000
10000000
00010000
00000000
00010000
01000000
00001000
,
00000000
00001000
00010000
00000010
00000000
00000010
00000100
00000001
,
00000000
00000001
00001000
00000010
00000000
00000010
00010010
00011000
,
00000000
01000000
10010000
10010000
,
11000000
01010000
00011000
00000110
,
00001001
00000110
00011000
00100100
,
00011000
01010000
10100000
11000000
,
00110000
01010000
00011000
00010100
,
00011000
00000000
00010010
00000000
00011000
00000000
00010000
00000100
,
00000000
00000000
00000010
00000001
00001000
00000001
00000100
00000001
,
00001000
00000100
00000010
00000001
00000000
00000001
00000100
00000110
,
00000000
00000001
00001001
00001001
,
00000101
00001100
00011000
01100000
,
10010000
01100000
00011000
01000010
,
00011000
00001100
00000101
00000011
,
00001010
00011000
01001000
00011000
,
00001000
00100000
00000000
01100000
00000000
01000000
10000000
10010000
,
00000000
00000000
10000000
00100000
10000000
00010000
01000000
00010000
,
10000000
01000000
00100000
00010000
00000000
00010000
10000000
01000000
,
00010000
00001000
00000100
00000001
00000000
00000010
00000011
00000001
,
00000000
00000001
00000100
00001000
00011000
00000000
00000000
01010000
,
00000000
00000000
11000000
00000000
00000000
01000000
00010000
00022000
,
00000000
00033000
00000000
00000000
;

//---------------dance-double - ----------------
#NOTES:
     dance-double:
     :
     Easy:
     5:
     0.351,0.397,0.277,0.144,0.000:
00000000
00000000
00000000
00000000
,
00000000
00000000
00000000
00000000
,
00000000
00000000
00000000
00000000
,
00000000
00000000
00000000
00000000
,
00000000
00000000
00001000
00010000
,
00001000
00000000
00010000
01000000
,
00100000
00010000
10000000
00010000
,
10000000
00200000
00000000
00300000
,
00000000
01100000
01000000
00010000
,
10000000
01000000
00010000
00001000
,
00000100
00001000
00010000
00000100
,
00000010
00000001
00001000
00000010
,
00000100
00000001
00001000
00000010
,
00001000
00010000
00100000
01000000
,
10000000
00010000
10000000
01000000
,
00100000
00000000
00001000
00000000
00011000
00000000
00000000
00011000
,
00000000
00010000
00000010
00000001
,
00000010
00000000
00001000
00000001
,
00000010
00000100
00000001
00000100
,
00010000
00001000
01000000
00100000
,
10010000
10000000
01000000
00010000
,
01000000
00000000
10000000
00100000
,
00010000
00001000
00000100
00000010
,
00001000
00000000
00000000
00001100
00000000
00000102
00000000
00000000
,
00001003
00000001
00000200
00001300
,
00020000
00130000
02000000
03010000
,
00002000
00000000
00003010
00000000
00000000
00002000
00003000
00000000
,
00000020
00000030
00000000
00000001
00000000
00000000
00000010
00000000
,
00000100
00000001
00000011
00000001
,
00001000
00000100
00011000
01000000
,
00010000
10000000
10010000
10000000
,
02000000
00000000
03100000
00001000
,
00010000
00000000
00000100
00001000
00000000
00001000
00000000
00000100
,
00000000
00000100
00000000
00000001
00000000
00000001
00000000
00000100
,
00000000
00000100
00000000
00100000
00000000
00100000
00000000
00010000
,
00000000
10000000
00000000
10010000
00000000
10000000
00010000
00010000
,
00000000
00000000
10010000
00011000
,
00001001
00000000
00000001
00000100
,
00001000
00000100
00000001
00000010
,
00000001
00000000
00001000
00000010
,
00000100
00001000
00012000
01003000
,
01010000
00000000
01000000
00100000
,
10000000
01000000
00010000
00001000
,
00000010
00000000
00000001
00001000
00000000
00000100
00000010
00000010
,
00000000
00000000
00001001
00011000
,
10010000
00000000
10000000
01000000
,
00010000
01000000
10000000
00100000
,
10000000
00000000
00010000
00100000
,
01000000
00010000
00021000
00030100
,
00001100
00000000
00000000
00001100
00000000
00000010
00000000
00000101
,
00000000
00000100
00000001
00000100
,
00001000
00000000
00020000
00001000
00000000
00000000
00000100
00000000
,
00000010
00000000
00031000
00010000
00000000
00001000
00010000
00000000
,
00000000
00000000
00000000
00000000
00011000
00000000
00000000
00100100
,
00000000
00000000
01000010
00000000
00000000
00010000
00001000
00020000
,
00000000
00030000
00000000
00000000
00000000
00000000
00000000
00000000
;

//---------------dance-single - ----------------
#NOTES:
     dance-single:
     :
     Beginner:
     2:
     0.166,0.270,0.133,0.000,0.000:
0000
0000
0000
0000
,
0000
0000
0000
0000
,
0000
0000
0000
0000
,
0000
0000
0000
0000
,
0000
0000
0000
1000
,
0000
1000
0000
0100
,
0000
0010
0000
0001
,
0000
1001
0000
0000
,
0000
0000
1000
1000
,
1000
0000
0100
0000
,
0100
0000
0001
0001
,
0001
0000
0010
0000
,
0010
0000
1000
1000
,
1000
0000
0100
0000
,
0100
0000
0001
0001
,
0001
0000
0100
0000
,
0000
0000
1000
0000
,
0100
0000
0001
0000
,
0100
0000
0010
0000
,
0000
0000
0000
0000
,
0000
0000
0001
0000
,
0100
0000
1000
0000
,
0100
0000
0010
0000
,
0000
0000
0000
0000
,
0000
0000
1000
1000
,
1000
0000
0001
0001
,
0001
0000
0000
0000
,
0000
0000
0100
0000
,
0100
0000
0010
0010
,
0010
0000
0100
0100
,
0100
0000
0001
0000
,
0010
0000
1000
0000
,
0001
0000
1001
0000
,
0000
0000
0000
0000
,
0000
0000
0000
0000
,
0000
0000
0001
0001
,
0000
0000
1001
1001
,
1001
0000
1000
0000
,
0001
0000
0100
0000
,
0010
0000
1000
0000
,
0010
0000
0100
0000
,
0100
0000
0001
0000
,
0001
0000
1000
0000
,
0001
0000
0010
0000
,
0100
0000
1001
1001
,
1001
0000
1000
0000
,
0010
0000
0100
0000
,
0001
0000
0010
0000
,
0001
0000
1000
0000
,
0010
0000
0110
0000
,
1001
0000
1000
0000
,
0100
0000
0010
0000
,
0001
0000
1000
0000
,
0000
0000
1001
0000
,
0000
1001
0000
0000
;

//---------------dance-single - ----------------
#NOTES:
     dance-single:
     :
     Easy:
     4:
     0.335,0.367,0.232,0.111,0.000: // measure 1
0000
0000
0000
0000
,  // measure 2
0000
0000
0000
0000
,  // measure 3
0000
0000
0000
0000
,  // measure 4
0000
0000
0000
0000
,  // measure 5
0000
0000
1000
0001
,  // measure 6
1000
0000
1000
0100
,  // measure 7
0010
0001
1000
0001
,  // measure 8
1000
0020
0000
0030
,  // measure 9
0000
0000
1000
0100
,  // measure 10
0001
0100
1000
0100
,  // measure 11
0110
0000
0001
0100
,  // measure 12
1000
0100
0001
0100
,  // measure 13
0010
0000
1000
0010
,  // measure 14
0001
0010
1000
0010
,  // measure 15
0110
0000
0001
0010
,  // measure 16
1000
0000
0010
0000
0001
0000
0000
0001
,  // measure 17
0000
0100
0001
1000
,  // measure 18
0001
0000
1000
0001
,  // measure 19
0010
0001
1000
1000
,  // measure 20
0001
0001
0100
0010
,  // measure 21
0110
1000
0001
0100
,  // measure 22
0001
0000
1000
0100
,  // measure 23
0010
0100
1000
1000
,  // measure 24
0010
0000
0000
0110
0000
2001
0000
0000
,  // measure 25
3100
1000
0002
0103
,  // measure 26
2000
3100
0002
0013
,  // measure 27
2000
0000
3100
0000
0000
0002
0003
0000
,  // measure 28
2000
3000
0000
1001
0000
0000
0001
0000
,  // measure 29
0010
0100
1000
0100
,  // measure 30
0001
0000
1000
0100
,  // measure 31
0001
1000
0001
0010
,  // measure 32
0200
0000
0000
1300
0000
0000
0001
0000
,  // measure 33
1000
0000
0010
0100
0000
0001
0000
1000
,  // measure 34
0000
0100
0000
1100
0000
1000
0000
0001
,  // measure 35
0000
0100
0000
0101
0000
0001
0000
1000
,  // measure 36
0000
0010
0000
0110
0000
1000
0001
0001
,  // measure 37
0000
1000
1100
0101
,  // measure 38
1100
0000
1000
0100
,  // measure 39
0001
0100
1000
0001
,  // measure 40
1000
0000
0001
0100
,  // measure 41
1000
0100
0101
1100
,  // measure 42
0101
0000
0000
0001
0000
0100
0000
0010
,  // measure 43
0000
1000
0100
0001
,  // measure 44
0100
0000
1000
0001
0000
0100
0010
0010
,  // measure 45
0000
1000
1010
0011
,  // measure 46
1010
0000
1000
0100
,  // measure 47
0001
0100
1000
0001
,  // measure 48
1000
0000
1000
0010
,  // measure 49
0100
0001
0010
0100
,  // measure 50
1000
0001
0000
0100
0000
0010
0000
1000
,  // measure 51
0000
0000
1000
0100
,  // measure 52
0001
0000
0100
0010
0000
0000
0001
0000
,  // measure 53
0100
0000
0010
0100
0000
0001
1000
0000
,  // measure 54
0000
0000
0000
0000
1001
0000
0000
0110
,  // measure 55
0000
0000
1001
0000
0000
1000
0001
2000
,  // measure 56
0000
3000
0000
0000
;

//---------------dance-single - Copied from----------------
#NOTES:
     dance-single:
     Copied from:
     Challenge:
     6:
     0.500,0.489,0.830,0.111,0.017:
0000
0000
0000
0000
,
0000
0000
0000
0000
,
0000
0000
0000
0000
,
0000
0000
0000
0000
,
0000
0000
0001
0001
,
0100
0010
0000
1001
0000
1000
0100
0010
,
0000
MMMM
0001
0010
,
0100
0000
1000
0002
0000
1000
1003
0000
,
0000
MMMM
1100
0101
,
1100
0000
0101
0000
0011
0000
0001
0010
,
0000
0010
0100
0000
1100
0000
1010
0000
,
1100
0000
1010
0000
0101
0000
0001
0010
,
0000
0100
1000
0000
1010
0000
0011
0000
,
1010
0000
0011
0000
1001
0000
1000
0010
,
0000
0010
0100
0000
0101
0000
0011
0000
,
1010
0000
1100
0000
MMMM
0000
0000
MMMM
,
0000
1000
0001
0101
,
1000
0100
0000
1100
0000
0000
1000
0000
,
0010
0100
0001
0000
0101
0000
0101
0000
,
1100
0000
0100
1000
0000
1100
0000
1000
,
0001
0100
0010
1010
,
0100
0011
0100
1010
,
0100
0011
1010
1010
,
0011
0000
0010
0001
0000
0011
0000
0001
,
2000
0100
3010
MMMM
,
0010
MMMM
0100
MMMM
,
0100
0000
MMMM
0000
0000
1000
0100
0000
,
0001
0100
0000
1001
0000
1000
0010
0100
,
0001
0101
0012
0100
,
1003
0001
1000
0000
2010
0000
0100
0000
,
3001
1000
0001
1000
0200
0000
0001
0000
,
0010
1300
0020
0001
,
0100
0000
1030
1001
0000
1000
0001
0100
,
0000
0100
0001
1001
0000
1000
0001
1000
,
0000
0001
1000
1010
0000
0010
1000
0001
,
0000
0001
0100
0110
0000
0010
0100
1001
,
0000
MMMM
1001
1001
,
1100
1100
0110
1001
,
0110
1001
0101
0010
,
1100
0010
2001
0010
,
0100
3001
0101
1001
,
1000
0100
0000
0110
0000
0010
0001
1000
,
0000
0000
MMMM
0000
1000
0100
1000
0001
,
0100
0001
1000
0001
0000
0001
1000
0110
,
0000
MMMM
1001
1001
,
0101
0101
0110
1001
,
0110
1001
0101
0010
,
1100
0010
2001
0100
,
0010
3001
1010
1001
,
0001
0010
0000
0110
0000
0100
1000
0001
,
0000
0000
1000
0001
1000
0001
0010
0001
,
1000
0010
1000
0001
0000
0100
1000
0100
,
0001
0100
0010
1000
0000
1001
1000
0001
,
0000
0000
0010
0000
0100
0000
1000
0000
1100
0000
0000
1000
0100
0000
0010
0000
,
0000
0010
0001
0000
1000
0000
0000
1000
0010
0000
0100
0000
0001
0000
2002
0000
,
0000
3003
0000
0000
;

//---------------dance-double - Copied from----------------
#NOTES:
     dance-double:
     Copied from:
     Challenge:
     6:
     0.522,0.550,1.000,0.066,0.017:
00000000
00000000
00000000
00000000
,
00000000
00000000
00000000
00000000
,
00000000
00000000
00000000
00000000
,
00000000
00000000
00000000
00000000
,
00000000
00000000
00011000
00011000
,
00010000
00001000
00000000
MMMMMMMM
00000000
00000100
00000001
00001000
,
00000000
00000100
00001100
00011000
,
01010000
00000000
MMMMMMMM
00000000
00000000
00010000
10000000
00000000
,
00010000
00110000
00011000
00001100
,
00001010
00000000
00011000
00000000
00110000
00000000
00010000
00100000
,
00000000
00100000
01000000
00000000
11000000
00000000
10010000
00000000
,
01010000
00000000
10010000
00000000
10100000
00000000
10000000
01000000
,
00000000
01000000
00010000
00000000
00011000
00000000
01010000
00000000
,
00110000
00000000
00011000
00000000
00001100
00000000
00001000
00000100
,
00000000
00000100
00000010
00000000
00000011
00000000
00000101
00000000
,
00001100
00000000
00011000
00000000
MMMMMMMM
00000000
00000000
MMMMMMMM
,
00000000
10000000
01010000
00100000
,
11000000
00100000
01010000
00100000
,
11000000
00000000
00100000
00010000
00001000
00000000
00001010
00000000
,
00000001
00000000
00000010
00000001
00000000
00000011
00000000
00001000
,
00000001
00000100
00011000
01000000
,
00011000
00000100
00011000
00100000
,
00011000
00000010
00011000
01000000
,
10010000
00000000
00010000
10000000
00000000
01100000
00000000
10000000
,
00010000
10000000
MMMMMMMM
01000000
,
MMMMMMMM
00000100
MMMMMMMM
00100000
,
MMMMMMMM
00000000
00000010
00000000
00000000
00000001
00000100
00000000
,
00001000
00010000
00000000
00011000
00000000
00001000
00100000
00010000
,
10000000
01000000
10000000
00000000
02100000
00000000
10000000
00000000
,
00100000
03010000
00000200
00000001
,
00000010
00001300
00002001
00000100
,
00000010
00003001
00012000
01000000
,
00010000
00000000
00103000
00110000
00000000
00010000
00100000
01000000
,
00000000
01000000
10000000
10010000
00000000
00010000
01000000
00001000
,
00000000
00001000
00010000
00010010
00000000
00000010
00000100
00000001
,
00000000
00000001
00001000
00001010
00000000
00000010
00010010
00011000
,
00000000
MMMMMMMM
10010000
10010000
,
11000000
01010000
00011000
00000110
,
00001001
00000110
00011000
00100100
,
00011000
01010000
10100000
11000000
,
00110000
01010000
00011000
00010100
,
00011000
00000000
00010010
00000000
00011000
00000000
00010000
00000100
,
00000000
00000000
00000010
00000001
00001000
00000001
00000100
00000001
,
00001000
00000100
00000010
00000001
00000000
00000001
00000100
00000110
,
00000000
MMMMMMMM
00001001
00001001
,
00000101
00001100
00011000
01100000
,
10010000
01100000
00011000
01000010
,
00011000
00001100
00000101
00000011
,
00001010
00011000
01001000
00011000
,
00001000
00100000
00000000
01100000
00000000
01000000
10000000
10010000
,
00000000
00000000
10000000
00100000
10000000
00010000
01000000
00010000
,
10000000
01000000
00100000
00010000
00000000
00010000
10000000
01000000
,
00010000
00001000
00000100
00000001
00000000
00001001
00000011
00000001
,
00000000
00000000
00000001
00000000
00000100
00000000
00001000
00000000
00011000
00000000
00000000
00010000
01000000
00000000
10000000
00000000
,
00000000
10000000
01000000
00000000
00010000
00000000
00000000
00010000
00001000
00000000
00000100
00000000
00001000
00000000
00022000
00000000
,
00000000
00033000
00000000
00000000
;
