#TITLE:Colors;
#SUBTITLE:;
#ARTIST:FLOW;
#TITLETRANSLIT:;
#SUBTITLETRANSLIT:;
#ARTISTTRANSLIT:;
#CREDIT:;
#BANNER:Colors.png;
#BACKGROUND:Colors-bg.png;
#LYRICSPATH:;
#CDTITLE:;
#MUSIC:[Round D] - Colors.ogg;
#OFFSET:-0.395;
#SAMPLESTART:8.557;
#SAMPLELENGTH:14.779;
#SELECTABLE:YES;
#BPMS:0.000=136.000;
#STOPS:;
#BGCHANGES:;

//---------------dance-single - ----------------
#NOTES:
     dance-single:
     :
     Hard:
     7:
     0.334,0.379,0.000,0.211,0.000:
0000
0000
0000
0000
,
0000
0000
0000
0000
,
0000
0000
0000
0000
,
0000
0000
0000
0000
,
0000
0000
0000
0000
,
2000
0000
3000
0000
0100
0100
0000
0010
,
0000
0001
0000
0010
0000
0100
0000
1000
,
0020
0000
0030
0000
0100
0000
0100
0001
,
0000
0001
1000
2000
0000
0000
3000
0100
,
0001
0000
0001
0100
0000
1000
0000
0010
,
0000
1000
0100
0001
0100
1000
0010
0200
,
0000
0000
0000
0000
0000
0000
0000
0300
,
0000
0000
0001
0010
0100
1000
0010
0100
,
0000
0000
0001
0000
0001
0000
1000
0100
,
1000
0001
0100
0001
,
0020
0000
0000
0000
0030
0000
0100
0100
,
2000
0000
0000
0000
0000
0000
0000
3000
,
1000
0000
0010
0000
0100
0000
0001
0100
,
0001
0010
1000
0010
,
0200
0000
0000
0000
,
0300
0001
0100
0001
,
1000
0010
0000
0100
0010
0100
0000
0001
,
0100
0001
0000
0010
1000
0010
0000
0100
,
0001
0100
0000
0010
1000
0100
0000
0001
,
0100
0010
1000
0002
0000
0003
0100
0001
,
0100
0100
0000
0010
1000
0010
0000
1000
,
0010
0100
0000
0001
0100
0001
0000
0010
,
1000
0000
1000
0010
0000
0100
0000
0100
,
0000
0000
0001
0020
0000
0000
0000
0030
,
0100
1000
0100
0001
0000
0010
1000
0010
,
0000
0001
0100
0001
0000
0010
1000
0100
,
1000
0001
0100
0010
0000
1000
0010
0200
,
0000
0000
0000
0300
0000
0000
1000
0001
,
0002
0000
0003
0000
0100
0010
0000
0010
,
0000
1000
0000
0100
0000
0001
0000
0100
,
0020
0000
0030
0000
1000
0000
0100
1000
,
0000
0010
0100
0020
0000
0000
0030
0100
,
0001
0000
0001
0100
0000
1000
0000
0001
,
0100
0000
0100
0001
0000
0010
0000
0100
,
2000
0000
0000
0000
3000
0100
0010
0002
,
0000
0000
0000
0003
0000
0100
0001
1000
,
2000
0000
3000
0000
0010
0100
0000
0010
,
0000
1000
0000
0100
0000
0001
0000
0100
,
0020
0000
0030
0000
1000
0000
0010
0100
,
0000
0100
0010
2000
0000
3000
0000
0001
,
0100
0000
0100
0001
0000
0010
0000
0100
,
0000
1000
0100
0001
0100
1000
0010
0200
,
0000
0000
0000
0000
0000
0000
0000
0300
,
0000
0001
0010
0100
1000
0010
0100
0001
;

//---------------dance-single - ----------------
#NOTES:
     dance-single:
     :
     Medium:
     5:
     0.253,0.271,0.055,0.177,0.000:
0000
0000
0000
0000
,
0000
0000
0000
0000
,
0000
0000
0000
0000
,
0000
0000
0000
0000
,
0000
0000
0000
0000
,
1000
0000
0000
0000
0010
0100
0000
0100
,
0000
0001
0000
0010
0000
0001
0000
1000
,
1000
0000
0000
0000
0010
0000
0010
0100
,
0000
0100
0001
0001
0000
0000
0000
1000
,
0010
0000
0010
1000
0000
0100
0000
0001
,
0000
0100
0000
1000
0000
0001
0010
0002
,
0000
0000
0000
0000
0000
0000
0000
0003
,
0000
0000
0100
0000
0000
0000
0010
0010
,
0000
1000
1000
0001
,
0001
0100
0010
0100
,
0002
0000
0003
0000
,
2000
0000
0000
0000
0000
0000
0000
3000
,
0000
0001
0100
1000
,
0100
0001
1000
0001
,
0200
0000
0000
0000
,
0300
0010
1000
0001
,
1000
0000
0110
0000
,
0001
0000
0101
0000
,
0010
0000
1010
0000
,
0100
0000
0000
0200
0000
0300
0000
0000
,
0001
0000
1001
0000
,
1000
0000
0110
0000
,
0001
0000
0000
0001
0000
1000
0000
1000
,
0000
0000
0010
0020
0000
0000
0000
0030
,
0100
0000
0100
0001
0000
0001
0000
1000
,
0000
0010
0000
0100
0000
0010
1000
0000
,
1000
0100
0000
0100
0000
0010
0100
0002
,
0000
0000
0000
0003
0000
0000
0100
0000
,
0200
0000
0300
0000
0010
0010
0000
1000
,
0000
0100
0000
0001
0000
0100
0000
1000
,
2000
3000
0010
0100
,
0000
0000
0010
0020
0000
0000
0030
0000
,
1000
0000
1000
0010
0000
0010
0000
0100
,
0001
0000
0001
0100
0000
0010
0000
0100
,
0200
0000
0000
0000
0300
0000
0000
0002
,
0000
0000
0000
0003
0000
0000
1000
0000
,
2000
0000
3000
0000
0010
0010
0000
0100
,
0000
0001
0000
0100
0000
0010
0000
1000
,
2000
0000
3000
0000
0010
0000
0100
0100
,
0000
0000
0001
0002
0000
0003
0000
0100
,
0010
0000
1000
0100
0000
0100
0000
0001
,
0000
0010
0000
1000
0000
0010
0100
0002
,
0000
0000
0000
0000
0000
0000
0000
0003
,
0000
1000
1000
0000
0100
0000
0001
0001
;

//---------------dance-single - ----------------
#NOTES:
     dance-single:
     :
     Easy:
     2:
     0.112,0.135,0.000,0.022,0.000: // measure 1
0000
0000
0000
0000
,  // measure 2
0000
0000
0000
0000
,  // measure 3
0000
0000
0000
0000
,  // measure 4
0000
0000
0000
0000
,  // measure 5
0000
0000
0000
0000
,  // measure 6
0010
0000
0000
0000
0000
0000
0000
1000
,  // measure 7
0000
0100
0000
1000
0000
0000
0000
0000
,  // measure 8
0001
0000
0000
0000
0000
0000
0000
0100
,  // measure 9
0000
0000
0000
0010
0000
0000
0000
0000
,  // measure 10
1000
0000
0000
0000
,  // measure 11
0001
0100
0001
0000
,  // measure 12
1000
0000
0000
0000
,  // measure 13
0000
0010
0000
0000
,  // measure 14
1000
0000
0001
0000
,  // measure 15
0100
0000
0001
0000
,  // measure 16
2000
0000
0000
0000
,  // measure 17
0000
0000
0000
0000
0000
0000
0000
3000
,  // measure 18
0000
0000
0001
0000
,  // measure 19
0100
0000
0001
0000
,  // measure 20
0200
0000
0000
0000
0000
0000
0000
0300
,  // measure 21
0000
0000
0000
0000
,  // measure 22
1000
0000
0010
0000
,  // measure 23
1000
0000
0001
0000
,  // measure 24
0100
0000
0001
0000
,  // measure 25
0010
0000
0010
0000
,  // measure 26
1000
0000
1000
0000
,  // measure 27
0001
0000
0100
0000
,  // measure 28
0010
0000
0000
0000
,  // measure 29
1000
0000
0000
0000
,  // measure 30
0010
0000
0000
0000
0000
0000
0000
0100
,  // measure 31
0000
0000
0000
0000
,  // measure 32
0001
0000
0000
0000
0000
0000
0000
0100
,  // measure 33
0000
0000
0000
0000
,  // measure 34
0001
0000
0000
0000
0000
0000
0000
1000
,  // measure 35
0000
0010
0000
1000
0000
0000
0000
0000
,  // measure 36
0100
0000
0001
0000
,  // measure 37
0000
0000
0000
0100
0000
0000
0000
0000
,  // measure 38
0001
0000
0000
0000
,  // measure 39
1000
0000
0000
0000
,  // measure 40
0001
0000
0000
0000
0000
0000
0000
0100
,  // measure 41
0000
0000
0000
0010
,  // measure 42
0010
0000
0000
0000
1000
0000
0000
0001
,  // measure 43
0000
0100
0000
0001
0000
0000
0000
0000
,  // measure 44
1000
0000
0000
0000
0010
0000
0000
0010
,  // measure 45
0000
0000
0000
0100
0000
0000
0000
0000
,  // measure 46
0001
0000
0000
0001
0000
0000
0000
0000
,  // measure 47
1000
0000
1000
0000
0010
0000
0000
0010
,  // measure 48
0000
0000
0000
0000
,  // measure 49
0000
0100
0000
0100
;
