#TITLE:あいしてるよね;
#SUBTITLE:;
#ARTIST:Virtual Riot feat. Miss Neko;
#TITLETRANSLIT:Aishiteru Yo Ne;
#SUBTITLETRANSLIT:;
#ARTISTTRANSLIT:;
#GENRE:J-Dance;
#CREDIT:;
#BANNER:[Round D] - Aishiteru Yo Ne.png;
#BACKGROUND:[Round D] - Aishiteru Yo Ne-bg.png;
#LYRICSPATH:;
#CDTITLE:;
#MUSIC:[Round D] - Aishiteru Yo Ne.ogg;
#OFFSET:-0.279000;
#SAMPLESTART:96.268425;
#SAMPLELENGTH:14.769226;
#SELECTABLE:YES;
#BPMS:0.000000=130.000000
,48.000000=65.000000
,76.000000=130.000000
,236.500000=65.000000
;
#STOPS:
;
#BGCHANGES:;
#KEYSOUNDS:;
#ATTACKS:;

//---------------dance-single - ----------------
#NOTES:
     dance-single:
     :
     Hard:
     10:
     0.715343,1.114757,0.354297,0.094479,0.838503,636.000000,591.000000,45.000000,12.000000,0.000000,0.000000,0.715343,1.114757,0.354297,0.094479,0.838503,636.000000,591.000000,45.000000,12.000000,0.000000,0.000000:
// measure 0
0000
0000
0000
0000
,  // measure 1
0000
0000
0000
0000
,  // measure 2
0000
0000
0000
0000
,  // measure 3
0000
0000
0000
0000
,  // measure 4
0011
0000
0000
0000
1010
0000
0000
0000
1100
0000
0000
0000
0101
0000
0001
0100
,  // measure 5
0010
0001
1000
0001
0010
0001
1000
0001
,  // measure 6
0010
0000
0000
0000
0100
0000
0000
0000
0001
0000
0000
0100
0001
0000
0100
0001
,  // measure 7
1000
0100
0001
0100
0010
0100
0010
0100
,  // measure 8
0110
0000
0000
0000
0011
0000
0001
0100
0010
0000
0001
0010
0100
0000
0010
0100
,  // measure 9
0001
0010
1000
0010
0001
0010
1000
0010
,  // measure 10
0001
0000
0000
0000
1000
0000
0000
0000
0001
0000
0000
0000
0100
0000
0001
0100
,  // measure 11
0010
0000
0100
0000
0100
0000
0100
0000
0010
0100
0010
0100
0010
1000
0010
1000
,  // measure 12
0001
0000
1000
0000
0100
0000
0000
0010
0000
0000
0100
0010
0000
0100
0000
0010
0001
0000
1000
0000
0010
0000
0000
0100
0000
0000
0010
0100
0000
0010
0000
0100
,  // measure 13
0001
0000
1000
0000
0100
0000
0000
0010
0000
0000
0001
0100
0000
0010
0000
0100
0001
0000
0010
0000
0100
0000
0000
1000
0000
0000
0010
0100
0000
0010
0000
1000
,  // measure 14
0200
0000
0010
0000
2300
0000
0100
0000
3001
0000
1000
0001
0000
1000
0010
0000
2000
0000
0001
0000
3200
0000
1000
0000
0310
0000
0100
0010
0000
0010
0001
0000
,  // measure 15
2000
0000
0001
0000
3020
0000
1000
0000
0130
0000
0010
0100
0000
0010
1000
0000
0200
0000
0010
0000
2300
0000
0100
0000
3001
0000
1000
0001
0000
0001
0100
0000
,  // measure 16
0101
0000
0000
0000
0001
0000
0100
0000
0110
0000
0100
0010
1000
0010
1000
0001
1001
0000
0000
1100
0000
0000
1100
0000
0110
0000
0000
0100
0000
0000
1000
0000
,  // measure 17
1010
0000
0000
0000
1000
0000
0010
0000
0110
0000
0010
0100
0001
0100
0001
1000
1001
0000
0000
0011
0000
0000
0011
0000
0110
0000
0000
0000
1001
0000
0000
0000
,  // measure 18
0101
0000
0000
0000
0000
0000
0000
0000
0000
0000
0000
0000
0000
0000
0000
0000
0000
0000
0000
0000
0000
0000
0000
0000
0001
0000
0000
0000
0000
0000
0000
0000
0000
0000
0000
0000
0100
0000
0000
0000
0000
0000
0000
0000
0000
0000
0000
0000
0110
0000
0000
0000
0000
0000
0000
0000
0000
0000
0000
0000
0100
0000
0000
0000
0000
0000
0010
0000
0000
0000
0000
0000
1000
0000
0000
0000
0000
0000
0010
0000
0000
0000
0000
0000
1000
0000
0000
0000
0001
0000
0000
0000
1000
0000
0000
0000
0001
0000
0000
0000
0000
0000
0000
0000
0000
0000
0000
0000
0000
0000
0000
0000
0000
0000
1001
0000
0000
0000
0000
0000
0000
0000
0000
0000
0000
0000
0000
0000
0000
0000
0000
0000
1001
0000
0000
0000
0000
0000
0000
0000
0000
0000
0000
0000
1100
0000
0000
0000
0000
0000
0000
0000
0000
0000
0000
0000
0000
0000
0000
0000
0000
0000
1000
0000
0000
0000
0000
0000
0000
0000
0000
0000
0000
0000
0000
0000
0000
0000
0000
0000
0100
0000
0000
0000
1000
0000
0000
0000
0100
0000
0000
0000
,  // measure 19
1000
0000
0001
1000
0010
0000
0010
0000
0001
0000
1000
0001
0100
0000
0100
0000
,  // measure 20
1000
0000
1000
0000
0001
0000
0001
0000
1000
0001
1000
0010
1000
0000
0000
0000
,  // measure 21
1010
0000
0100
0000
1010
0000
0100
0000
1010
0000
0100
0000
0010
1000
0100
0010
,  // measure 22
0100
0000
0010
0000
0100
0000
0001
0000
0100
0000
0010
0000
0100
0010
0001
0010
,  // measure 23
0011
0000
0100
0000
0011
0000
0100
0000
0011
0000
0100
0000
0010
0001
0100
0010
,  // measure 24
0100
0000
0010
0000
0100
0000
1000
0000
0100
0010
0000
0010
1000
0000
0010
1000
,  // measure 25
0001
0000
1000
0100
0010
0000
0100
1000
0001
0000
0100
0000
0001
0100
0010
0100
,  // measure 26
0000
0100
0010
0100
1000
0000
0100
0000
0010
0000
0100
0000
1000
0100
0010
0000
,  // measure 27
1000
0000
0001
0010
0100
0000
0010
0001
1000
0000
0010
0000
1000
0010
0100
0010
,  // measure 28
0000
0010
0100
0010
0001
0000
0010
0000
0100
0010
0000
0010
1000
0000
0010
1000
,  // measure 29
0002
0000
0023
0000
2030
0000
3001
0100
1000
0000
0001
0000
0100
0001
0100
0010
,  // measure 30
0000
0000
0001
0000
0010
0000
0100
0000
1000
0000
0100
0000
0010
1000
0100
0010
,  // measure 31
0001
0000
1000
0000
0010
0000
0100
0000
0010
0000
1000
0000
0100
1000
0100
0010
,  // measure 32
0000
0000
1000
0000
0010
0000
0100
0000
1000
0001
0000
0001
0100
0000
0001
0100
,  // measure 33
0010
0000
0100
0000
0001
0000
1000
0000
0100
0000
0010
0000
0100
1000
0010
0100
,  // measure 34
0000
0000
1000
0000
0100
0000
0010
0000
0001
0000
0010
0000
0100
0001
1000
0100
,  // measure 35
0010
0000
0100
0000
1000
0000
0001
0000
0100
0000
0010
0000
0100
0001
0010
0100
,  // measure 36
0010
0001
0100
0110
0100
0010
1010
0010
1000
1001
1000
0001
,  // measure 37
0101
0000
0001
0100
0010
0000
0000
0100
0000
0000
0010
0100
0000
0010
0000
1000
,  // measure 38
0000
0000
0000
0000
1001
0000
0000
0000
1100
0000
1000
0100
0000
0010
0000
0100
,  // measure 39
1000
0000
1100
0000
0010
0000
0110
0000
0001
0000
0010
0001
0000
1001
0000
0001
,  // measure 40
0100
0000
0101
0000
0010
0000
0110
0000
1000
0010
0000
0010
0100
0000
0010
0100
,  // measure 41
0001
0000
0101
0000
1000
0000
1001
0000
0100
0000
1000
0100
0000
0010
0000
0100
,  // measure 42
1000
0000
1100
0000
0001
0000
1001
0000
0100
0000
0001
0100
0000
0010
0000
0100
,  // measure 43
0001
0010
0100
0010
0001
0010
0100
0010
,  // measure 44
0001
0000
0010
0000
0100
0000
1000
0000
0004
0100
0000
1000
0000
0100
0000
1003
,  // measure 45
0001
0100
0010
0000
1000
0100
0010
0000
0001
0100
0010
0001
0010
0100
0001
0010
,  // measure 46
0100
0000
0001
0000
0100
0000
0010
0000
0001
0100
0010
0001
0010
0100
0001
0000
,  // measure 47
1000
0100
0010
0000
0001
0100
0010
0000
1000
0100
0010
1000
0010
0100
1000
0010
,  // measure 48
0100
0000
1000
0000
0100
0000
0010
0000
0100
0010
0000
0010
1000
0000
0010
1000
,  // measure 49
0001
0000
0000
0010
0000
0000
0100
0000
0000
0000
0000
0000
1000
0000
0000
0010
0000
0000
0100
0000
0000
0000
0000
0000
0001
0000
0000
0010
0000
0000
0100
0000
0000
0001
0000
0000
0100
0000
0000
0010
0000
0000
0001
0000
0010
0000
0001
0000
,  // measure 50
0010
0000
0100
0000
0010
0000
0001
0000
0100
0010
0001
0010
0100
0001
1000
0100
,  // measure 51
0010
0000
0001
1000
0010
0000
0010
0000
0001
0000
1000
0001
0100
0000
0100
0000
,  // measure 52
1000
0000
1000
0000
0001
0000
0001
0000
1000
0001
1000
0001
1000
0010
1000
0010
,  // measure 53
1000
0000
0010
0000
0100
0000
0000
0000
0010
0000
0000
0000
0100
0010
0100
0010
,  // measure 54
1000
0000
0001
0000
0010
0000
0100
0000
0010
0000
0001
0000
1000
0000
0100
1000
,  // measure 55
0100
0000
1000
0000
0001
0000
0100
0000
0010
0000
0000
0000
0010
0100
0010
1000
,  // measure 56
0001
0000
0010
0000
0100
0000
0010
0000
0001
1000
0000
1000
0010
0000
1000
0010
,  // measure 57
0100
0010
1000
0000
0001
0000
0001
0010
,  // measure 58
0100
0010
0001
1000
0010
0100
0010
1000
,  // measure 59
0100
0000
0010
1000
0010
0100
1000
0002
0000
0000
0000
0000
0000
0000
0000
0000
,  // measure 60
0000
0003
0000
0000
;

//---------------dance-single - ----------------
#NOTES:
     dance-single:
     :
     Medium:
     9:
     0.533133,0.711547,0.188959,0.125972,0.342487,474.000000,450.000000,24.000000,16.000000,0.000000,0.000000,0.533133,0.711547,0.188959,0.125972,0.342487,474.000000,450.000000,24.000000,16.000000,0.000000,0.000000:
// measure 0
0000
0000
0000
0000
,  // measure 1
0000
0000
0000
0000
,  // measure 2
0000
0000
0000
0000
,  // measure 3
0000
0000
0000
0000
,  // measure 4
1100
0000
0011
0000
1100
0000
0011
0001
,  // measure 5
0100
0010
0100
0001
0010
0100
1000
0001
,  // measure 6
1001
0000
0110
0000
1001
0000
0110
0010
,  // measure 7
1000
0100
0010
0100
1000
0001
1000
0001
,  // measure 8
1001
0000
0101
0000
1001
0000
1010
1000
,  // measure 9
0001
0100
0010
0100
0001
0010
0100
1000
,  // measure 10
1100
0000
0110
0000
0011
0000
1001
0001
,  // measure 11
0100
0100
0100
0100
0001
0100
1000
0100
,  // measure 12
0001
0000
1000
0000
0000
0000
1000
0000
0000
1000
0000
0000
0000
0000
0000
0000
0000
0000
0001
0000
0000
0000
1000
0000
0000
0100
0000
0000
0000
0000
0000
0000
,  // measure 13
0000
0000
0010
0000
0000
0000
0010
0000
0000
0010
0000
0000
0000
0000
0000
0000
0000
0000
0100
0000
0000
0000
0010
0000
0000
0001
0000
0000
0000
0000
0000
0000
,  // measure 14
2000
0000
0000
0000
3002
0000
0000
0000
0203
0000
0000
0010
0000
0000
1000
0000
2300
0000
0000
0000
3200
0000
0000
0000
0320
0000
0000
0100
0000
0000
1000
0000
,  // measure 15
2030
0000
0000
0000
3002
0000
0000
0000
0023
0000
0000
0100
0000
0000
1000
0000
2030
0000
0000
0000
3020
0000
0000
0000
0230
0000
0000
0010
0000
0000
1000
0000
,  // measure 16
1300
0000
0000
0000
0000
0000
1000
0000
1100
0000
0000
0000
0001
0000
0100
0000
0010
0000
0000
0010
0000
0000
0010
0000
0110
0000
0000
0010
0000
0000
1000
0000
,  // measure 17
0001
0000
0000
0000
0000
0000
0001
0000
1001
0000
1000
0000
0100
0000
0010
0000
0100
0000
0000
0100
0000
0000
0100
0000
0110
0000
0000
0000
1001
0000
0000
0000
,  // measure 18
0001
0000
0000
0000
0000
0000
0100
0000
0101
0000
0000
0000
0001
0000
1000
0001
1000
0000
0000
1000
0000
0000
1000
0000
1001
0000
0000
0000
0001
0000
0100
0001
,  // measure 19
0100
0001
1000
0010
0100
0001
1000
0010
,  // measure 20
0100
0100
0100
0100
1000
0100
0001
0000
,  // measure 21
1000
0001
1000
0100
1000
0001
1000
0100
,  // measure 22
0001
0100
0010
0001
1000
0010
0100
0000
,  // measure 23
0001
1000
0001
0100
0001
1000
0001
0100
,  // measure 24
1000
0000
0100
0000
0010
0000
1000
0000
0100
1000
0000
0000
0001
0000
0000
0001
,  // measure 25
1000
0100
0001
0100
1000
0100
0010
1000
,  // measure 26
0010
0100
1000
0001
0100
0010
1000
1000
,  // measure 27
0001
0100
1000
0100
0001
0100
0010
0001
,  // measure 28
0010
0000
0100
0000
0001
0000
1000
0000
0100
1000
0000
0000
0001
0000
1000
0001
,  // measure 29
2000
0000
3200
0000
0320
0000
0031
0010
0001
0000
0010
0000
1000
0000
0010
0000
,  // measure 30
0001
0100
0010
0100
0001
0100
0010
1000
,  // measure 31
0001
0010
0100
1000
0001
0100
1000
0100
,  // measure 32
0001
0000
0010
0000
0100
0000
0010
0000
0001
0010
0000
0000
0001
0000
0000
0001
,  // measure 33
1000
0010
0100
0001
1000
0010
0001
0010
,  // measure 34
1000
0100
0010
0100
1000
0100
0010
0001
,  // measure 35
1000
0010
0100
0001
1000
0010
0001
0010
,  // measure 36
1000
0000
1000
0100
0000
0100
0010
0000
0010
0001
0000
0001
,  // measure 37
1000
0000
0001
0000
1001
0000
0000
0100
0000
0000
0010
0100
0000
0010
0000
1000
,  // measure 38
0000
0000
0000
0000
0001
0000
0000
0000
1000
0000
0001
1000
0000
0001
0000
1000
,  // measure 39
0001
0000
0010
0000
1000
0000
0010
0000
0001
0000
0010
0001
0000
1000
0000
0001
,  // measure 40
1000
0000
0010
0000
0001
0000
0010
0000
1000
0001
0000
0000
1000
0000
0000
1000
,  // measure 41
0100
0000
0010
0000
1000
0000
0010
0000
0100
0000
0010
0001
0000
0010
0000
0001
,  // measure 42
0010
0000
0100
0000
0001
0000
0100
0000
0010
0000
0100
1000
0000
0100
0000
1000
,  // measure 43
0100
0001
0100
1000
0100
0001
0100
1000
,  // measure 44
0100
0000
0100
0000
0010
0000
0010
0000
0001
0010
0001
0010
0001
0010
0001
0010
,  // measure 45
0001
0000
0100
0000
0010
0000
0100
0000
0001
0000
1000
0100
0000
0100
1000
0000
,  // measure 46
0100
0000
0010
0000
0100
0000
1000
0000
0001
0000
1000
0001
0000
1000
0001
0000
,  // measure 47
1000
0000
0010
0000
0100
0000
0010
0000
1000
0000
0001
0010
0000
0010
0001
0000
,  // measure 48
0010
0000
0100
0000
1000
0000
0001
0000
1000
0010
0000
0000
1000
0000
0000
1000
,  // measure 49
0001
0000
0100
0000
0010
0000
0100
0000
0001
0000
1000
0100
0000
0100
1000
0001
,  // measure 50
0010
0000
0100
0000
0010
0000
0001
0000
1000
0000
0001
1000
0000
0001
1000
0000
,  // measure 51
0010
1000
0001
0100
0010
1000
0001
0100
,  // measure 52
0010
0010
0010
0010
0001
0010
1000
0001
,  // measure 53
1000
0100
0010
0000
0000
0000
0100
0010
,  // measure 54
0001
0100
0010
1000
0100
0010
0001
1000
,  // measure 55
0010
0100
0010
1000
0000
0000
1000
0100
,  // measure 56
0010
0100
1000
0001
0100
0010
0100
0010
,  // measure 57
1000
0100
0010
0000
0000
0000
0001
0100
,  // measure 58
0010
0100
0001
1000
0100
0010
0100
1000
,  // measure 59
0001
0000
1000
0100
0010
0100
1000
0002
0000
0000
0000
0000
0000
0000
0000
0000
,  // measure 60
0000
0003
0000
0000
;

//---------------dance-single - ----------------
#NOTES:
     dance-single:
     :
     Easy:
     5:
     0.305933,0.476333,0.196832,0.023620,0.019683,272.000000,247.000000,25.000000,3.000000,2.000000,0.000000,0.305933,0.476333,0.196832,0.023620,0.019683,272.000000,247.000000,25.000000,3.000000,2.000000,0.000000:
0000
0000
0000
0000
,
0000
0000
0000
0000
,
0000
0000
0000
0000
,
0000
0000
0000
0000
,
0001
0100
1000
0010
,
0001
0100
0010
0010
,
0001
0010
1000
0100
,
0010
0100
1000
1000
,
0000
0000
0001
0100
,
0010
0001
0010
1000
,
1000
0100
0010
0001
,
0100
0000
0010
0000
0010
0000
0100
0010
,
0100
0010
0200
0000
0000
0000
0000
0000
,
0000
0000
0000
0000
,
0000
0000
0310
1000
0100
0010
0100
1000
,
0010
1000
0001
0100
0010
1000
0010
0100
,
0001
0010
0110
0000
1001
0000
0101
0000
,
0110
0010
1010
0000
1001
0000
1100
0000
,
0110
0010
0011
0000
0101
0000
1001
0000
,
1010
1000
1000
0010
,
0010
0001
0100
1000
,
0001
0101
0010
0101
,
0010
0100
0001
1000
,
0100
0010
1100
0010
,
1100
0010
0001
1000
,
1000
1001
0101
1001
,
0101
10M0
0010
0001
,
0100
1001
1100
1001
,
1100
00M1
0010
1000
,
1000
0000
0100
0000
0001
2000
3001
0000
,
0010
0000
1000
0000
0100
1000
0010
0000
,
0001
1000
0010
0001
,
0100
0001
0010
0000
1000
0000
0001
0000
,
0001
1000
0100
0001
,
0010
0001
0100
0000
0010
0000
0001
0000
,
0001
1000
0010
0001
,
0100
0000
0000
1000
0000
0001
0000
1000
0000
0001
0000
1000
,
0000
0001
0000
1000
0000
0000
1001
0000
0000
0100
0000
0000
,
0010
0100
0010
0000
1000
0000
0100
0000
,
0010
0100
0010
0000
0001
0000
0100
0001
,
0100
0010
0100
0000
0010
0000
1000
0000
,
0001
1000
0001
0000
0010
0000
0100
0000
,
0010
0001
0010
0000
0001
0000
0100
0000
,
0010
1000
0010
0000
0100
0000
0001
0000
,
1000
0000
0001
0000
0001
0000
1000
0001
,
1000
0001
1000
0000
0010
0000
0001
0000
,
0010
0001
0010
0000
1000
0000
0001
0000
,
1000
0001
1000
0000
0100
0000
0001
0000
,
0100
0001
0100
0000
1000
0000
0001
0000
,
0001
1000
0010
0001
,
0010
0001
0010
0000
1000
0000
0100
0000
,
0010
0100
0100
1000
,
1000
0000
0001
0000
0001
0000
1000
0001
,
1000
0001
1000
0000
0100
0000
0000
0000
,
0010
0010
0100
1000
,
0001
0001
0100
0010
,
0100
0001
0010
0100
,
1000
0010
0100
0010
,
1000
0100
0010
0100
,
1000
0000
0000
0000
0001
0000
0000
0000
0100
0000
0000
0020
0000
0000
0000
0000
,
0000
0000
0030
0000
;
