#TITLE:Ultimate Weapon pt.2;
#SUBTITLE:;
#ARTIST:Polysha;
#TITLETRANSLIT:;
#SUBTITLETRANSLIT:;
#ARTISTTRANSLIT:;
#CREDIT:;
#BANNER:;
#BACKGROUND:;
#LYRICSPATH:;
#CDTITLE:;
#MUSIC:[Round C] - Ultimate Weapon pt.2.ogg;
#OFFSET:0.000;
#SAMPLESTART:32.432;
#SAMPLELENGTH:12.000;
#SELECTABLE:YES;
#BPMS:0.000=185.000,36.000=92.500,68.000=185.000,132.000=92.500,148.000=185.000;
#STOPS:;
#BGCHANGES:;

//---------------dance-single - ----------------
#NOTES:
     dance-single:
     :
     Hard:
     9:
     0.703,0.724,0.358,0.050,0.429:
0000
0000
0000
0000
,
0000
0000
0000
0000
,
0000
0000
0000
0000
,
0000
0000
0000
0000
,
0000
0000
0000
0000
,
1000
0100
0010
0001
0010
0100
1000
0000
,
0001
0000
0000
1000
0000
0000
0100
0000
0010
0000
0000
0100
0000
0000
1000
0000
,
0001
0100
0010
1000
0010
0100
0001
1000
,
2002
3003
1100
0101
,
2001
0000
0000
0000
3010
0000
0000
0000
1000
0000
0000
0001
0000
0000
0100
0000
,
0001
0000
0000
0000
1000
0000
0001
0000
0000
0000
0000
0000
0000
0000
1000
0000
0001
0000
0000
0100
0000
0000
0001
0000
0010
0000
0000
0001
0000
0000
1000
0000
,
0100
0000
0000
0000
0000
0000
1000
0000
0100
0000
0000
0000
0000
0000
0100
0000
0010
0000
0000
0000
0001
0000
0010
0000
0001
0000
0000
1000
0000
0000
0010
0000
,
1000
0000
0000
0001
0000
0000
0010
0000
0010
0000
0000
0100
0000
0000
0010
0000
0001
0000
0000
0000
0000
0000
0000
0000
0000
0000
0000
0000
1000
0000
0000
0000
,
0001
1000
0000
0100
0000
0010
0000
0100
0000
1000
0000
0001
0000
1000
0000
0001
,
0000
1000
0000
0010
0000
0100
0000
0010
0000
1000
0000
0001
0000
1000
0000
0001
,
1001
1000
0000
0100
0000
0010
0000
0001
1001
1000
0000
0010
0000
0100
0000
0001
,
1001
0000
1000
0000
0000
0000
0100
0000
0000
0000
0010
0000
0000
0000
0001
0000
1001
0000
0000
1000
0000
0000
0001
0000
0101
0000
0000
0000
1100
0000
0000
0000
,
0001
0000
1001
0000
1000
0100
0010
0100
,
1000
0010
1000
0100
0010
0001
1000
0001
,
0100
0001
1000
0000
1000
0100
1000
0010
,
1000
0100
1000
0010
0100
0001
1000
0001
,
0100
0001
1000
0000
0001
0100
0001
0010
,
0001
0100
0001
0010
0100
1000
0001
1000
,
0100
1000
0001
0000
1000
0001
0100
0100
,
0000
0101
0000
1100
0000
1001
0000
1000
,
0001
0100
0010
0100
0001
0010
0100
1000
,
0001
1000
0001
1000
0100
0010
0001
1000
,
0100
1000
0001
1000
0100
0010
0100
1000
,
0001
1000
0001
0100
0010
1000
0100
0010
,
0001
0001
0100
0100
0010
0010
1000
1000
,
0001
0001
0010
0010
0100
0100
1000
1000
,
0001
0100
1000
0100
0001
0010
0001
0100
,
0010
1010
1001
0011
,
1002
0000
0000
0000
0013
0000
0000
0000
0001
0000
1000
0000
0010
0000
1000
0001
,
0000
0100
0001
0000
1000
0001
1000
0001
0000
0000
0000
0000
1000
0000
0100
0000
,
1000
0000
0000
0100
0000
0000
0010
0000
0100
0000
0000
0000
0010
0000
0000
0000
,
0100
0000
0000
0000
1000
0000
0000
0000
0001
0000
0000
1000
0000
0000
0100
0000
1000
0000
0000
0000
0000
0000
0000
0000
0001
0000
0000
0000
1000
0000
0000
0000
,
0001
0000
0000
0001
0000
0000
0001
0000
0000
0000
0000
0000
1001
0000
0000
0000
,
1100
0001
0100
0000
0101
1000
0100
1000
,
0010
0000
1000
0000
0100
0000
0100
0000
0001
0000
0100
0000
,
1000
0010
0001
0010
1000
0100
0001
0100
,
1000
0100
1000
0001
1000
0010
1000
0100
,
0010
0001
1000
0001
0100
0001
0010
0001
,
0100
0010
0100
0010
0100
0010
1000
0001
,
1001
0000
0000
0101
0000
0000
1100
0000
0000
1001
0000
0000
1010
0000
1000
0000
,
0001
0000
0100
0000
0001
0000
1000
0001
0000
1000
0001
0000
1000
0000
0100
0000
,
0010
0000
0100
0000
1000
0000
0001
0100
0000
0100
0001
0000
1000
0000
0100
0000
,
0010
0000
0100
0000
1000
0000
0001
1000
0000
0001
1000
0000
0010
0000
0100
0000
,
0001
0000
1000
0000
0001
0000
1000
0010
0000
0010
1000
0000
0001
0000
0010
0000
,
0001
0000
1000
0000
0100
0000
1000
0001
0000
1000
0001
0000
1000
0000
0010
0000
,
0100
0000
0001
0000
1000
0000
0001
0010
0000
0010
0001
0000
1000
0000
0001
0000
,
0100
0000
0010
0000
1000
0000
0001
1000
0000
0001
1000
0000
0100
0000
1000
0000
,
0001
0000
0010
0000
0001
0000
1000
0100
0000
0100
1000
0000
0001
0000
1000
0000
,
0100
0000
0010
0000
0100
0000
1000
0010
0000
0100
0010
0000
1000
0000
0001
0000
,
0010
0000
0100
0000
0010
0000
0001
1000
0000
1000
0010
0000
0100
0000
0001
0000
,
1000
0000
0100
0000
1000
0000
0010
0100
0000
0001
0100
0000
0001
0000
0010
0000
,
0100
0000
1000
0000
0100
0000
0010
0100
0000
0100
1000
0000
0001
0000
1000
0000
,
0010
0000
0100
0000
0001
0000
0100
0001
0000
1000
0001
0000
0010
0000
0100
0000
,
1000
0000
0100
0000
0010
0000
0100
1000
0000
0001
1000
0000
0001
0000
0100
0000
,
0010
0000
1000
0000
0001
0000
0010
0001
0000
1000
0010
0000
1000
0000
0001
0000
,
0011
0000
0000
1001
0000
0000
1100
0000
,
1001
0000
0000
0110
0000
0000
1001
0000
0000
0000
0000
0000
0000
0000
0000
0000
,
1100
0000
0000
1000
0000
0000
0001
0000
0010
0000
0000
0000
0001
0000
1000
0000
,
0010
0000
0100
0010
0000
1000
0010
0000
,
1000
0010
0001
0010
0100
0001
0010
0100
,
1000
0000
0100
1000
0000
0100
0010
0000
0001
0000
0100
0010
0000
1000
0010
0000
,
1000
0000
0010
0100
0000
0001
0100
0000
0001
0000
0000
0000
1000
0000
0001
0000
,
0101
0001
1000
1010
,
1001
0000
0001
0000
0100
0000
0010
0000
1000
0001
0000
1000
0001
0000
0100
0000
,
0010
0000
0100
0001
1001
0000
0100
1000
,
1001
0000
1000
0100
0001
0001
0100
1000
,
0001
0000
0100
0010
0000
0010
1000
0000
,
1000
0001
1000
0010
0100
0001
0010
0100
,
0010
0001
1000
0001
0010
0001
1000
0001
,
1000
0100
1000
0001
1000
0100
1000
0001
,
0101
1000
1100
0000
1100
0001
0100
0001
,
1001
0000
1000
0000
0010
0000
0100
0000
0001
0010
0100
0000
1000
0000
0001
0000
,
2002
0000
0000
0000
,
0000
0000
0000
0000
,
3003
0000
0000
0000
;

//---------------dance-single - ----------------
#NOTES:
     dance-single:
     :
     Medium:
     9:
     0.730,0.889,0.200,0.017,0.546:
0000
0000
0000
0000
,
0000
0000
0000
0000
,
0000
0000
0000
0000
,
0000
0000
0000
0000
,
0000
0000
0000
0000
,
1000
0000
0100
0000
0010
0000
0001
0000
0010
0000
0100
0000
1000
0000
0001
1000
,
0001
0000
0100
0000
0010
0000
1000
0000
0010
0000
0100
0000
0001
0000
1000
0001
,
1000
0100
0001
0100
1000
0010
0001
0010
,
2000
0000
0000
0000
0000
0000
0000
0000
3001
0010
0001
0000
1000
0100
1000
0100
,
1000
0000
0000
0000
0100
0000
0000
0000
0010
0000
0000
0100
0000
0000
1000
0000
,
0001
0000
0000
0000
1000
0000
0001
0000
0000
0000
0000
0000
0000
0000
1000
0001
1000
0000
0000
0100
0000
0000
1000
0000
0010
0000
0000
1000
0000
0000
0001
0000
,
1000
0000
0000
0000
0000
0000
0001
0100
0001
0000
0000
0000
0000
0000
1000
0100
1000
0000
0000
0000
0001
0010
0001
0010
0001
0000
0000
1000
0000
0000
0100
0000
,
1000
0000
0000
0001
0000
0000
0100
0000
1000
0000
0000
0100
0000
0000
0001
0000
1000
0000
0000
0000
0000
0000
0000
0000
0000
0000
0000
0000
0001
0000
0000
0000
,
0100
1000
0000
0100
0000
0001
0000
1000
0000
0100
0000
0001
0000
0100
0000
1000
,
0001
1000
0010
0000
0100
0001
1000
0001
0000
0001
0000
1000
0001
0100
0010
0100
,
1000
0100
0001
0000
0001
0100
0001
1000
0000
1000
0000
0001
0100
0001
1000
0001
,
0010
0000
0100
0000
0010
0000
0000
0000
0001
0000
0100
0000
0010
0000
1000
0000
0001
0000
0000
0101
0000
0000
1000
0000
0100
0000
0000
0000
1000
0000
0001
0000
,
1000
0000
1001
0000
1000
0100
1000
0001
,
0000
0010
0000
0100
1000
0010
0001
0010
,
1000
0000
1001
0000
0001
0100
0001
1000
,
0000
0010
0000
0100
0001
0010
1000
0010
,
0001
0000
1001
0000
1000
0100
0010
0100
,
0000
1000
0000
0010
1000
0100
0010
0001
,
1000
0000
1001
0000
0001
0100
0010
1000
,
0000
1100
0000
0101
0000
1001
1000
0010
,
0100
0001
0010
0000
0010
0100
1000
0010
,
0000
0010
0000
0010
0100
0001
0100
0010
,
1000
0100
0010
0000
0010
0001
0100
0010
,
0000
0010
0000
0010
1000
0100
0010
0001
,
1000
1000
0010
0010
0100
0100
0001
0001
,
0010
0010
0100
0100
1000
1000
0010
0010
,
0100
1000
0100
0001
0010
1000
0010
0001
,
1000
0000
0100
1000
0100
0000
1000
0001
1000
0000
0001
0100
0001
0000
1000
0001
,
1000
0000
0000
0000
0000
0000
0000
0000
0010
0000
0000
0000
0000
0000
0100
0010
0100
0000
0000
0000
0001
0000
0000
0000
1000
0000
0000
0000
0100
0000
0010
0000
,
0000
0000
0100
0000
1000
0000
0000
0000
0001
0000
1000
0000
0001
0000
1000
0000
0000
0000
0000
0000
0000
0000
0001
1000
0001
0000
0000
0000
1000
0000
0000
0000
,
0001
0000
0000
0100
0000
0000
0010
0000
1000
0000
0000
0000
0010
0000
0000
0000
,
0100
0000
0000
0000
0010
0000
0000
0000
1000
0000
0000
0010
0000
0000
0100
0000
0001
0000
0000
0000
0000
0000
0010
0000
0001
0000
0000
0000
0010
0000
0100
0000
,
1000
0000
0000
1000
0000
0000
1000
0000
0000
0000
0000
0000
1001
0000
0001
0000
,
1000
0100
0001
0001
0100
1000
0001
1000
,
1010
0000
1001
0000
0101
0000
1001
0000
1100
0000
1001
0000
,
0011
0000
0010
0001
0010
0000
0001
1000
0001
0000
1000
0010
1000
0000
0001
0000
,
1000
0100
0010
0100
1000
0010
0100
0001
,
0010
0001
0100
0010
0100
0001
0010
0100
,
1000
0001
1000
0010
0100
0010
1000
0001
,
1000
0000
0000
1100
0000
0000
0001
0000
0000
0101
0000
0000
0110
0000
1000
0000
,
0001
0000
0100
0000
0010
0000
1000
0100
0000
0010
0100
0000
1000
0000
0001
0000
,
1000
0000
1000
0000
0001
0000
0100
0010
0000
0100
0001
0000
1000
0000
0100
0000
,
1000
0000
0010
0000
0100
0000
0001
1000
0000
0100
1000
0000
0001
0000
0100
0000
,
0001
0000
0001
0000
1000
0000
0100
0010
0000
0001
0010
0000
0100
0000
1000
0000
,
0001
0000
1000
0000
0010
0000
0100
0001
0000
0100
0010
0000
1000
0000
0001
0000
,
1000
0000
1000
0000
0100
0000
0010
0001
0000
0100
0010
0000
1000
0000
0001
0000
,
1000
0000
0010
0000
0100
0000
0001
0010
0000
0100
0010
0000
0001
0000
0100
0000
,
0010
0000
0010
0000
1000
0000
0001
0100
0000
0010
0100
0000
0001
0000
1000
0000
,
0100
0000
0010
0000
0001
0000
0100
0001
0000
0001
1000
0000
0100
0000
1000
0000
,
0001
1000
0001
0000
1000
0000
0100
0010
0000
0010
0001
0000
1000
0000
0001
0000
,
0100
0000
0010
0000
1000
0000
0100
1000
0000
1000
0001
0000
0100
0000
0010
0000
,
0100
0010
0100
0000
0001
0000
0010
0100
0000
0100
1000
0000
0001
0000
1000
0000
,
0001
0100
1000
0100
0001
0100
1000
0100
,
0001
0010
1000
0010
0001
0010
1000
0010
,
0001
1000
0001
1000
0001
1000
0001
1000
0001
0000
1000
0000
0001
0000
1000
0000
,
0001
0000
0000
0101
0000
1000
0100
0010
,
0011
0000
0000
1001
0000
0000
1010
0000
0000
0000
1000
0000
0010
0000
1000
0000
,
0001
0100
0010
0000
0100
0010
0100
0001
,
1000
0000
1000
0100
0000
0100
0010
0000
,
0001
0010
0001
0100
1000
0100
0001
1000
,
0001
0000
0000
0100
0000
0000
0001
0000
1000
0000
0000
0100
0000
0000
1000
0000
,
0010
0000
0000
1000
0000
0000
0100
0000
0010
0000
0000
0000
0001
0000
0000
0000
,
1001
0000
0001
0100
0010
0100
0001
1000
,
0001
0000
0001
0000
1000
0000
1000
0000
0001
1000
0000
0001
1000
0000
0001
0000
,
1000
0000
0000
0000
0010
1000
0010
1000
0001
0000
0000
0000
0010
0001
0010
0001
,
1000
0000
0000
0100
0000
0000
1000
0000
0001
0000
1000
0000
0001
0000
1000
0000
,
0010
0000
0010
0100
0000
0100
0001
0000
,
1000
0010
1000
0001
1000
0100
1000
0001
,
1000
0000
0100
0000
0010
0000
0001
0000
0001
0000
0000
0100
0000
0000
0010
0000
,
1000
0010
0100
0001
1000
0000
0100
0000
,
1000
0100
1000
0100
1000
0100
1000
0100
0010
0001
0010
0001
0010
0001
0010
0001
,
1000
0010
0100
0001
1000
0001
0010
0100
,
2000
0000
0000
0000
,
0000
0000
0000
0000
,
3000
0000
0000
0000
;

//---------------dance-single - ----------------
#NOTES:
     dance-single:
     :
     Easy:
     5:
     0.352,0.428,0.233,0.067,0.025:
0000
0000
0000
0000
,
0000
0000
0000
0000
,
0000
0000
0000
0000
,
0000
0000
0000
0000
,
0000
0000
0000
0000
,
1000
0100
0010
0100
,
1000
0010
0100
0010
,
1000
0001
1000
0001
,
1002
0000
1000
1000
,
1003
0001
1000
0100
,
1000
0000
1000
0001
,
0100
0001
1000
0010
,
1000
1000
0001
0000
,
0001
0000
0000
0100
0000
0000
0000
0000
1000
0000
0000
0000
0100
0000
0000
0000
,
0001
0000
0000
0010
0000
0000
0100
0000
1000
0000
0000
0000
0001
0000
0000
0000
,
1001
0000
1100
0000
,
1001
1001
0001
1000
,
0000
0001
0100
0001
,
1000
0001
0100
0001
,
0000
1000
0100
1000
,
0001
1000
0100
1000
,
0000
0001
0010
0001
,
1000
0001
0010
0001
,
0000
0000
1000
0000
0001
0000
0000
0100
,
0000
0100
0000
0100
0000
0100
0000
0000
,
0001
1000
0001
0010
,
1000
0010
0001
1000
,
0000
0001
0100
0010
,
1000
0001
1000
0010
,
0000
1000
0010
0001
,
0010
0100
0001
1000
,
0000
0001
0010
0100
,
1001
0100
1001
0100
,
1001
0001
1000
0010
,
0100
0000
0001
0001
0000
0000
1000
0000
,
0010
0100
0001
1000
,
0001
0100
0001
0000
,
1001
0000
0000
1001
0000
0000
0000
0000
,
1000
0100
0001
0100
,
1000
0000
0100
0000
0001
0000
0100
0000
1000
0000
0100
0000
,
0020
0032
0203
2300
,
3100
0001
1000
0000
,
1000
0001
1000
0000
,
1000
0100
0010
0001
,
1001
0000
0000
0110
0000
0000
1001
0000
,
0000
1000
0100
0010
,
0100
1000
0100
0010
,
0000
0001
0100
0010
,
0100
0001
0100
0010
,
0000
1000
0010
0100
,
0010
1000
0010
0100
,
0000
0001
0010
0100
,
0010
0001
0010
0100
,
0000
1000
0100
0001
,
0100
1000
0100
0010
,
0000
0001
0100
1000
,
0100
0001
0100
0010
,
1000
0100
1000
0100
,
0010
0001
0010
0001
,
0100
0010
0100
0010
,
1001
0000
0000
1100
0000
0000
1001
0000
,
0001
0000
0000
0001
0000
0000
0001
0000
,
1000
0100
1000
0001
,
0100
0000
0000
0010
0000
0000
1000
0000
,
0001
0010
1000
0010
,
0100
1000
0010
1000
,
0100
0010
0001
0100
,
0002
0100
1000
0013
,
0001
1000
0010
0100
,
0101
1000
1100
0001
,
0011
1000
1010
0001
,
1001
0000
0000
1000
0000
0000
0010
0000
,
1000
0010
0100
0001
,
1000
0000
1000
0100
,
0110
0000
0001
0000
,
1001
1001
1100
1100
,
1001
0100
0010
1000
,
2002
0000
0000
0000
,
0000
0000
0000
0000
,
3003
0000
0000
0000
;

//---------------dance-single - ----------------
#NOTES:
     dance-single:
     :
     Beginner:
     2:
     0.190,0.289,0.108,0.000,0.000:
0000
0000
0000
0000
,
0000
0000
0000
0000
,
0000
0000
0000
0000
,
0000
0000
0000
0000
,
0000
0000
0000
0000
,
1000
0000
0000
0000
,
0001
0000
0000
0000
,
0010
0000
0000
0000
,
0100
0000
0000
0000
,
1000
0000
0000
0000
,
0001
0000
0010
0000
,
0100
0000
1000
0000
,
0001
0000
0001
0000
,
1001
0000
0000
0000
,
0000
0000
0000
0000
,
1001
0000
1001
0000
,
1001
0001
0001
0001
,
0000
0001
0000
0000
,
0000
0000
1000
0000
,
1000
0000
0000
0000
,
0000
0000
0100
0000
,
0100
0000
0000
0000
,
0000
0000
0010
0000
,
0010
0000
0001
0000
,
1000
0000
0000
0000
,
1000
0000
0001
0000
,
1000
0000
0001
0000
,
0100
0000
0010
0000
,
0100
0000
0010
0000
,
1000
0000
1000
0000
,
0001
0000
0001
0000
,
0010
0000
0010
0000
,
0100
0000
0100
0000
,
1001
0000
1000
0000
,
0010
0000
0100
0000
,
0001
0000
0010
0000
,
0100
0000
1000
0000
,
1001
0000
0000
0000
,
1000
0000
1000
1000
,
1000
0000
0100
0000
,
0010
0010
0010
0010
,
0010
0000
0001
0000
,
0100
0000
1000
0000
,
0010
0000
0001
0000
,
1000
0000
0000
0000
,
1000
1000
1000
0000
,
0100
0000
0100
0000
,
0001
0001
0001
0000
,
0010
0000
0010
0000
,
1000
1000
1000
0000
,
0100
0000
0100
0000
,
0001
0001
0001
0000
,
0100
0000
0100
0000
,
1000
1000
1000
0000
,
0010
0000
0010
0000
,
0001
0001
0001
0000
,
0010
0000
0010
0000
,
1000
1000
1000
0000
,
0001
0001
0001
0000
,
0110
0000
0110
0000
,
1001
0000
0000
0000
,
1001
0000
0000
1001
0000
0000
0000
0000
,
1000
0000
0100
0000
,
0001
0000
0100
0000
,
0010
0000
0001
0000
,
1000
0000
0001
0000
,
0010
0000
0001
0000
,
1000
0000
0010
0000
,
1000
0000
0001
0001
,
1001
0000
1000
0000
,
0100
0100
0100
0000
,
0010
0000
0001
0000
,
1000
1000
1000
1000
,
1000
0000
0010
0000
,
0100
0000
0001
0000
,
0010
0010
0010
0000
,
0001
1000
0001
1000
,
1001
0000
0000
0000
;

//---------------dance-double - ----------------
#NOTES:
     dance-double:
     :
     Easy:
     5:
     0.363,0.494,0.275,0.075,0.029:
00000000
00000000
00000000
00000000
,
00000000
00000000
00000000
00000000
,
00000000
00000000
00000000
00000000
,
00000000
00000000
00000000
00000000
,
00000000
00000000
00000000
00000000
,
00010000
00001000
00000010
00001000
,
00010000
00001000
00010000
00000000
,
00001000
00010000
01000000
00010000
,
00011000
00000000
00001000
00000100
,
00002001
00003010
00001000
00000100
,
00010000
00000000
00001000
00100000
,
00010000
10000000
00100000
00010000
,
00001000
00000000
00000100
00000000
00001000
00000000
00000000
00001000
,
00010000
00000000
00000000
01000000
00000000
00000000
00000000
00000000
10000000
00000000
00000000
00000000
01000000
00000000
00000000
00000000
,
00100000
00000000
00000000
00001000
00000000
00000000
00000100
00000000
00000010
00000000
00000000
00000000
00001000
00000000
00000000
00000000
,
00001001
00000000
00011000
00000000
,
10010000
00011000
00001001
00000110
,
00000000
00000101
00000001
00000100
,
00000010
00000100
00001000
00010000
,
00000000
01000000
00100000
01000000
,
10000000
00100000
01000000
00010000
,
00000000
10000000
01000000
00100000
,
01000000
00010000
00001000
00010000
,
00000000
00000000
00001000
00000000
00010000
00000000
00000000
00000010
,
00000000
00000010
00000000
00000100
00000000
00000001
00000000
00000000
,
00000000
00000010
00000001
00000100
,
00001000
00000100
00000010
00010000
,
00000000
01000000
10000000
01000000
,
00010000
01000000
00100000
00001000
,
00011000
00000100
00001000
00000000
,
00001001
00010000
00001000
00000000
,
00011000
00000000
01100000
00000000
,
10010000
01100000
10010000
00010000
,
01000000
00100000
10000000
01000000
,
00010000
00000000
00001000
00001000
00000000
00000000
00010000
00000000
,
00000010
00000100
00000001
00000010
,
00000001
00000100
00001000
00010000
,
00011000
00000000
00000000
00011000
00000000
00000000
00010000
00000000
,
01200000
00310000
02100000
13000000
,
10000000
00000000
01000000
00000000
00010000
00000000
00001000
00000000
00000100
00000000
00000001
00000000
,
00000200
00002300
00023000
02030000
,
13000000
01000000
00010000
00000000
,
00001000
00000100
00000001
00000000
,
00000001
00000100
00001000
00000000
,
00011000
00000000
00000000
00011000
00000000
00000000
00110000
00000000
,
00010000
10000000
00100000
00000000
,
00100000
01000000
00001000
00010000
,
00000000
00000100
00001000
00000001
,
00001000
00000010
00000100
00000001
,
00000000
00000001
00000100
00000010
,
00010000
00001000
00100000
00010000
,
00000000
00100000
00010000
10000000
,
00100000
10000000
01000000
00100000
,
00000000
00010000
10000000
00010000
,
00100000
01000000
00010000
00001000
,
00000000
00000010
00000100
00001000
,
00000001
00000100
00001000
00100000
,
00010000
01000000
00100000
01000000
,
00010000
00100000
01000000
00100000
,
00110000
00001000
00011000
00000010
,
00001000
00000000
00000000
00000100
00000000
00000000
00010000
00000000
,
00001000
00000000
00000000
00001000
00000000
00000000
00001000
00000000
00000000
00000000
00000000
00000000
00010000
00000000
00000000
00000000
,
00001000
01000000
00010000
10000000
,
01000000
00100000
01000000
10000000
,
00100000
00010000
00001000
00000100
,
00000001
00000001
00000010
00000010
,
00001000
00001000
00010000
00010000
,
01000000
00100000
00010000
01000000
,
00100000
00010000
00001000
00000100
,
00000010
00001000
00000001
00000010
,
00000001
00000000
00000100
00000100
,
00000010
00001000
00000100
00001000
,
00010000
00001000
00000100
00010000
,
00011000
00001000
01000000
00100000
,
10100000
10000000
01000000
00100000
,
00110000
00011000
00001100
00000001
,
00001001
00000000
00000000
00001100
00000000
00010000
00001000
00000000
,
00022000
00000000
00000000
00000000
,
00000000
00000000
00000000
00000000
,
00033000
00000000
00000000
00000000
;

//---------------dance-double - ----------------
#NOTES:
     dance-double:
     :
     Medium:
     9:
     0.732,0.856,0.217,0.025,0.542:
00000000
00000000
00000000
00000000
,
00000000
00000000
00000000
00000000
,
00000000
00000000
00000000
00000000
,
00000000
00000000
00000000
00000000
,
00000000
00000000
00000000
00000000
,
00010000
00000000
00000100
00000000
00010000
00000000
00001000
00000000
00010000
00000000
00000100
00000000
00010000
00000000
00001000
00010000
,
00001000
00100000
00001000
00010000
00001000
00100000
00001000
00010000
,
00001000
00000100
00000010
00000100
00001000
00010000
01000000
00100000
,
00010000
00000000
00000000
00000000
00000000
00000000
00000000
00000000
00010000
01000000
00010000
00000000
10000000
00100000
10000000
00100000
,
10000000
00000000
00000000
00000000
01000000
00000000
00000000
00000000
00010000
00000000
00000000
00001000
00000000
00000000
00000100
00000000
,
00001000
00000000
00000000
00000000
00010000
00000000
00001000
00000000
00000000
00000000
00000000
00000000
00000000
00000000
00010000
00001000
00010000
00000000
00000000
01000000
00000000
00000000
00010000
00000000
00001000
00000000
00000000
00010000
00000000
00000000
00000010
00000000
,
00000100
00000000
00000000
00000000
00000000
00000000
00000001
00000100
00000001
00000000
00000000
00000000
00000000
00000000
00001000
00000100
00001000
00000000
00000000
00000000
00000100
00001000
00000100
00010000
00001000
00000000
00000000
00010000
00000000
00000000
00001000
00000000
,
00100000
00000000
00000000
00010000
00000000
00000000
10000000
00000000
10000000
00000000
00000000
01000000
00000000
00000000
10000000
00000000
00010000
00000000
00000000
00000000
00000000
00000000
00000000
00000000
00000000
00000000
00000000
00000000
10000000
00000000
00000000
00000000
,
10010000
00010000
00000000
01000000
00000000
10000000
00000000
01000000
00000000
00010000
00000000
10000000
00000000
01000000
00000000
00010000
,
00001000
00000000
00010000
00000000
00000100
00001000
00000100
00000010
00000000
00000010
00000000
00000010
00000001
00000100
00001000
00010000
,
00001000
00000000
00100000
00000000
00010000
10000000
00010000
00100000
00010000
00000000
10000000
00000000
00100000
10000000
00010000
10000000
,
10100000
00000000
00000000
00000000
01000000
00000000
00000000
00000000
01010000
00000000
00000000
00000000
00000100
00000000
00000000
00000000
00010100
00000000
00000000
00100000
00000000
00000000
00010000
00000000
20010000
00000000
00000000
00000000
31000000
00000000
00000000
00000000
,
00000000
00000000
11000000
00000000
10000000
01000000
10000000
00010000
,
00000000
00010000
00000000
00010000
00100000
01000000
00010000
00001000
,
00000000
00000000
00010000
00000000
00001000
00000100
00001000
00010000
,
00000000
00010000
00000000
00010000
00001000
00000100
00000010
00001000
,
00000000
00000000
00000001
00000000
00000100
00001000
00000100
00000010
,
00000000
00000010
00000000
00000010
00010000
00001000
00100000
00010000
,
00000000
00000000
10000000
00000000
00010000
01000000
00010000
10000000
,
00000000
10010000
00000000
11000000
01000000
00010000
00001000
00000010
,
00000001
00000000
00000011
00000000
00000001
00000100
00000001
00001000
,
00000000
00000100
00000000
00000010
00000100
00001000
00000010
00000100
,
00001000
00000000
00010000
00000000
00001000
01000000
00001000
00010000
,
00000000
00010000
00000000
00010000
00001000
01000000
00100000
10000000
,
00010000
00100000
00010000
10000000
00010000
01000000
00001000
00010000
,
00000010
00001000
00000001
00001000
00000100
00001000
00000001
00001000
,
00000001
00000100
00001000
00010000
01000000
10000000
00100000
01000000
,
01010000
00000000
00010000
01000000
00010000
00000000
10000000
00010000
10000000
00000000
00100000
10000000
00100000
00000000
01000000
00100000
,
01000000
00000000
00000000
00000000
00000000
00000000
00000000
00000000
00000010
00000000
00000000
00000000
00000000
00000000
00001000
00000001
00001000
00000000
00000000
00000000
00000100
00000000
00000000
00000000
00000010
00000000
00000000
00000000
00000001
00000000
00000100
00000000
,
00000000
00000000
00001000
00000000
00010000
00000000
00000000
00000000
00001000
00000000
00100000
00000000
00001000
00000000
00100000
00000000
00000000
00000000
00000000
00000000
00000000
00000000
00100000
00010000
00100000
00000000
00000000
00000000
01000000
00000000
00000000
00000000
,
00100000
00000000
00000000
01000000
00000000
00000000
10000000
00000000
00010000
00000000
00000000
00000000
00100000
00000000
00000000
00000000
,
01000000
00000000
00000000
00000000
00100000
00000000
00000000
00000000
00001000
00000000
00000000
00010000
00000000
00000000
00000100
00000000
00001000
00000000
00000000
00000000
00000000
00000000
00000001
00000000
00001000
00000000
00000000
00000000
00000001
00000000
00000100
00000000
,
00000001
00000000
00000000
00000001
00000000
00000000
00001000
00000000
00000000
00000000
00000000
00000000
00001100
00000000
00000000
00000000
,
00011000
00000000
00001000
00000000
00010000
00001000
00010000
00000000
00001000
00000000
00001000
00000000
00010000
00000000
00010000
00000000
,
00011000
00000000
01010000
00000000
01100000
00000000
10010000
00000000
11000000
00000000
01010000
00000000
,
00011000
00000000
00010000
00000100
00010000
00000000
00000100
00001000
00000100
00000000
00001000
00000001
00001000
00000000
00000001
00000100
,
00000001
00000100
00000001
00000100
00000001
00000100
00000001
00000100
,
00000010
00001000
00000010
00001000
00000010
00001000
00000010
00010000
,
00001000
00010000
01000000
00010000
00001000
00000100
00000010
00001000
,
00000001
00000000
00000000
00000101
00000000
00000000
00001000
00000000
00000000
00001100
00000000
00000000
00010000
00000000
00001000
00000000
,
01000000
00000000
00010000
00000000
10000000
00000000
01000000
00100000
00000000
01000000
10000000
00000000
00010000
00000000
01000000
00000000
,
00001000
00000000
00001000
00000000
00010000
00000000
00000100
00001000
00000000
00000100
00000010
00000000
00000001
00000000
00001000
00000000
,
00000010
00000000
00000100
00000000
00000001
00000000
00000010
00000100
00000000
00000010
00000001
00000000
00001000
00000000
00000010
00000000
,
00000100
00000000
00000100
00000000
00001000
00000000
00010000
01000000
00000000
00100000
01000000
00000000
10000000
00000000
00010000
00000000
,
10000000
00000000
00100000
00000000
01000000
00000000
00001000
00010000
00000000
00001000
00000100
00000000
00000010
00000000
00001000
00000000
,
00000001
00000000
00000001
00000000
00000010
00000000
00000100
00001000
00000000
00000100
00000010
00000000
00000001
00000000
00000100
00000000
,
00001000
00000000
00100000
00000000
00010000
00000000
01000000
00100000
00000000
10000000
01000000
00000000
00100000
00000000
00001000
00000000
,
00010000
00000000
00010000
00000000
00000100
00000000
00001000
00000100
00000000
00000010
00000100
00000000
00001000
00000000
00000001
00000000
,
00000100
00000000
00000010
00000000
00010000
00000000
00001000
00100000
00000000
01000000
00100000
00000000
00010000
00000000
01000000
00000000
,
00010000
10000000
00010000
00000000
10000000
00000000
00100000
01000000
00000000
00010000
01000000
00000000
00001000
00000000
00010000
00000000
,
00000100
00000000
00001000
00000000
00000001
00000000
00001000
00000010
00000000
00000100
00000010
00000000
00001000
00000000
00000001
00000000
,
00001000
00000001
00001000
00000000
00000001
00000000
00000100
00000010
00000000
00010000
00001000
00000000
00100000
00000000
00010000
00000000
,
01000000
00000000
00010000
00000000
10000000
00000000
00100000
10000000
00000000
01000000
00100000
00000000
00001000
00000000
00010000
00000000
,
00001000
00010000
00001000
00000000
00010000
00000000
00000100
00000010
00000000
00000001
00000010
00000000
00000001
00000000
00001000
00000000
,
00000001
00001000
00000001
00001000
00000001
00001000
00000001
00001000
00000001
00000000
00001000
00000000
00000001
00000000
00001000
00000000
,
00000001
00000000
00000000
00001000
00000001
00000100
00001000
00010000
,
00011000
00000000
00000000
00011000
00000000
00000000
00011000
00000000
00000000
00000000
00001000
00010000
00001000
00000000
01000000
00000000
,
00010000
00000000
00000000
01000000
00000000
00000000
00010000
00000000
10000000
00000000
00000000
00000000
01000000
00000000
10000000
00000000
,
00010000
01000000
00001000
00010000
00000000
00010000
00000010
00000000
,
00001000
00000010
00001000
00000100
00000001
00000100
00001000
00000001
,
00001000
00000000
00000000
00000001
00000000
00000000
00001000
00000000
00000010
00000000
00000000
00010000
00000000
00000000
00001000
00000000
,
00100000
00000000
00000000
00010000
00000000
00000000
10000000
00000000
00100000
00000000
00000000
10000000
00100000
10000000
00100000
10000000
,
00010000
01000000
10000000
01000000
00001000
00010000
00011000
00000000
,
00000010
00000000
00001000
00000000
00000100
00000000
00000010
00000000
00000001
00001000
00000000
00000001
00001000
00000000
00000001
00000000
,
00000010
00000000
00000000
00000000
00000001
00000010
00000001
00000010
00000100
00000000
00000000
00000000
00001000
00000100
00001000
00000100
,
00010000
00000000
00010000
01000000
10000000
00010000
01000000
10000000
,
01000000
00000000
01000000
00001000
00000000
00001000
00100000
00000000
,
00010000
00100000
10000000
00100000
00001000
00010000
00000100
00001000
,
00000001
00000001
00000100
00000100
00001000
00001000
00010000
00010000
,
01000000
01000000
10000000
10000000
00100000
00100000
00010000
00010000
,
00001000
00010000
00001000
00010000
00001000
00010000
00001000
00010000
00001000
00010000
00001000
00010000
00001000
00000000
00100000
00000000
,
00010000
10000000
00100000
01000000
00001000
00010000
00000100
00010000
,
00022000
00000000
00000000
00000000
,
00000000
00000000
00000000
00000000
,
00033000
00000000
00000000
00000000
;

//---------------dance-double - ----------------
#NOTES:
     dance-double:
     :
     Hard:
     9:
     0.711,0.724,0.350,0.058,0.425: // measure 1
00000000
00000000
00000000
00000000
,  // measure 2
00000000
00000000
00000000
00000000
,  // measure 3
00000000
00000000
00000000
00000000
,  // measure 4
00000000
00000000
00000000
00000000
,  // measure 5
00000000
00000000
00000000
00000000
,  // measure 6
00010000
00001000
00000100
00001000
00010000
00001000
00000100
00001000
,  // measure 7
00010000
00001000
00100000
00001000
00010000
00001000
00100000
00001000
,  // measure 8
00010000
00001000
00000100
00001000
00010000
01000000
00010000
00001000
,  // measure 9
00000020
00000000
00000000
00000030
00000011
00000000
00001010
00000000
,  // measure 10
00011000
00000000
00000000
00000000
00100000
00000000
00000000
00000000
00010000
00000000
00000000
10000000
00000000
00000000
01000000
00000000
,  // measure 11
10000000
00000000
00000000
00000000
00010000
00000000
10000000
00000000
00000000
00000000
00000000
00000000
00000000
00000000
00010000
00000000
10000000
00000000
00000000
01000000
00000000
00000000
10000000
00000000
00100000
00000000
00000000
10000000
00000000
00000000
00100000
00000000
,  // measure 12
00010000
00000000
00000000
00000000
00000000
00000000
00010000
00000000
00001000
00000000
00000000
00000000
00000000
00000000
00001000
00000000
00000100
00000000
00000000
00000000
00000100
00000000
00000001
00000000
00001000
00000000
00000000
00000010
00000000
00000000
00001000
00000000
,  // measure 13
00000001
00000000
00000000
00000100
00000000
00000000
00001000
00000000
00010000
00000000
00000000
01000000
00000000
00000000
00010000
00000000
00001000
00000000
00000000
00000000
00000000
00000000
00000000
00000000
00000000
00000000
00000000
00000000
00100000
00000000
00000000
00000000
,  // measure 14
10010000
10000000
00000000
01000000
00000000
00010000
00000000
00001000
00000000
00000100
00000000
00000001
00000000
00000100
00000000
00001000
,  // measure 15
00000000
00010000
00000000
00100000
00000000
10000000
00000000
00100000
00000000
00010000
00000000
00001000
00000000
00000100
00000000
00000010
,  // measure 16
00000110
00000100
00000000
00000001
00000000
00000010
00000000
00000100
00000110
00000010
00000000
00001000
00000000
00010000
00000000
00100000
,  // measure 17
01100000
00000000
00000000
00000000
10000000
00000000
00000000
00000000
10010000
00000000
00000000
00000000
00001000
00000000
00000000
00000000
00011000
00000000
00000000
00000100
00000000
00000000
00001000
00000000
00001100
00000000
00000000
00000000
00001001
00000000
00000000
00000000
,  // measure 18
00000000
00000000
00001001
00000000
00001000
00000100
00001000
00000001
,  // measure 19
00000100
00000010
00010000
00001000
00100000
01000000
10000000
00010000
,  // measure 20
10000000
00000000
10010000
00000000
00010000
01000000
00010000
10000000
,  // measure 21
01000000
00100000
00001000
00010000
00000010
00000100
00000001
00001000
,  // measure 22
00000001
00000000
00001001
00000000
00000001
00000100
00000001
00000010
,  // measure 23
00000100
00010000
00001000
00100000
00010000
01000000
00100000
10000000
,  // measure 24
00010000
00000000
10010000
00000000
10000000
00100000
01000000
00001000
,  // measure 25
00000000
00011000
00000000
00001100
00000000
00000101
00000000
00001001
,  // measure 26
00000001
00001000
00001010
00000000
00000010
00001000
00000100
00000001
,  // measure 27
00000100
00010000
00001000
00100000
00010000
01000000
10000000
01000000
,  // measure 28
00010000
10000000
11000000
00000000
01000000
10000000
01000000
00100000
,  // measure 29
00010000
01000000
10000000
01000000
00001000
00000100
00000001
00001000
,  // measure 30
00001100
00001000
00000010
00000100
00000001
00000010
00000100
00000010
,  // measure 31
00000011
00000001
00000100
00000010
00010000
00001000
00100000
00010000
,  // measure 32
00110000
00010000
00100000
10000000
00100000
00010000
00001000
00000100
,  // measure 33
00000002
00000203
00020300
00032000
,  // measure 34
00013000
00000000
00000000
00000000
00000000
00000000
00000000
00000000
00000010
00000000
00000000
00000000
00000000
00000000
00000100
00000010
00000100
00000000
00000000
00000000
00000001
00000000
00000000
00000000
00001000
00000000
00000000
00000000
00000100
00000000
00010000
00000000
,  // measure 35
00000000
00000000
00001000
00000000
00010000
00000000
00000000
00000000
00001000
00000000
00100000
00000000
00001000
00000000
00100000
00000000
00000000
00000000
00000000
00000000
00000000
00000000
00100000
01000000
00100000
00000000
00000000
00000000
00010000
00000000
00000000
00000000
,  // measure 36
10000000
00000000
00000000
01000000
00000000
00000000
00100000
00000000
00010000
00000000
00000000
00000000
00001000
00000000
00000000
00000000
,  // measure 37
00000100
00000000
00000000
00000000
00000010
00000000
00000000
00000000
00000001
00000000
00000000
00001000
00000000
00000000
00000100
00000000
00001000
00000000
00000000
00000000
00000000
00000000
00000000
00000000
00000100
00000000
00000000
00000000
00010000
00000000
01000000
00000000
,  // measure 38
00100000
00000000
00000000
00100000
00000000
00000000
00010000
00000000
00000000
00000000
00000000
00000000
10010000
00000000
00000000
00000000
,  // measure 39
11000000
00010000
01000000
00000000
01010000
00001000
00010000
00000100
,  // measure 40
00000001
00000000
00000100
00000000
00001000
00000000
00001000
00000000
00010000
00000000
01000000
00000000
,  // measure 41
11000000
01010000
10010000
00110000
,  // measure 42
00011000
00000000
00000000
00010000
00000100
00000000
00000010
00000000
00000100
00000000
00001000
00000000
00000010
00000000
00000100
00000000
,  // measure 43
00000001
00000000
00000000
00001000
00000001
00000000
00000100
00000000
00000010
00000000
00010000
00000000
00001000
00000000
01000000
00000000
,  // measure 44
00010000
01000000
10000000
01000000
00001000
00000100
00000001
00000100
,  // measure 45
00000110
00000000
00000000
00010000
00000000
00000000
00011000
00000000
00000000
01000000
00000000
00000000
01100000
00000000
10000000
00000000
,  // measure 46
00010000
00000000
10000000
00000000
01000000
00000000
00100000
01000000
00000000
01000000
00100000
00000000
00010000
00000000
10000000
00000000
,  // measure 47
00100000
00000000
01000000
00000000
00001000
00000000
00010000
00000100
00000000
00000100
00001000
00000000
00000001
00000000
00000100
00000000
,  // measure 48
00000010
00000000
00000100
00000000
00000001
00000000
00001000
00000001
00000000
00000001
00001000
00000000
00000100
00000000
00000010
00000000
,  // measure 49
00000001
00000000
00000100
00000000
00000010
00000000
00000100
00001000
00000000
00001000
00010000
00000000
00001000
00000000
00100000
00000000
,  // measure 50
00010000
00000000
10000000
00000000
00100000
00000000
01000000
00010000
00000000
00010000
01000000
00000000
00010000
00000000
10000000
00000000
,  // measure 51
00100000
00000000
10000000
00000000
01000000
00000000
00100000
00001000
00000000
00001000
00010000
00000000
00000100
00000000
00001000
00000000
,  // measure 52
00000001
00000000
00000100
00000000
00000010
00000000
00000100
00000001
00000000
00000001
00000100
00000000
00000010
00000000
00010000
00000000
,  // measure 53
00001000
00000000
00100000
00000000
00010000
00000000
10000000
00100000
00000000
00100000
01000000
00000000
00010000
00000000
10000000
00000000
,  // measure 54
01000000
00000000
00100000
00000000
00001000
00000000
00010000
00000100
00000000
00000100
00010000
00000000
00001000
00000000
00000100
00000000
,  // measure 55
00000010
00000000
00001000
00000000
00000001
00000000
00000010
00000100
00000000
00000010
00000001
00000000
00001000
00000000
00000001
00000000
,  // measure 56
00000100
00000000
00000010
00000000
00010000
00000000
00001000
01000000
00000000
01000000
00001000
00000000
00010000
00000000
01000000
00000000
,  // measure 57
00100000
00000000
00010000
00000000
10000000
00000000
00100000
01000000
00000000
00010000
01000000
00000000
00100000
00000000
10000000
00000000
,  // measure 58
01000000
00000000
00100000
00000000
00001000
00000000
00010000
00000100
00000000
00000010
00000100
00000000
00001000
00000000
00000010
00000000
,  // measure 59
00000100
00000000
00000001
00000000
00000010
00000000
00000100
00010000
00000000
00000100
00000010
00000000
00000001
00000000
00000100
00000000
,  // measure 60
00001000
00010000
01000000
10000000
01000000
00010000
00001000
00000100
,  // measure 61
00000001
00000000
00000000
00001000
00000001
00000100
00001000
00010000
,  // measure 62
00100000
00000000
00000000
01100000
00000000
00000000
10010000
00000000
00000000
00000000
10000000
00000000
00010000
00000000
10000000
00000000
,  // measure 63
00100000
00000000
00000000
01000000
00000000
00000000
00001000
00000000
00010000
00000000
00000000
00000000
00000100
00000000
00001000
00000000
,  // measure 64
00000001
00000000
00000001
00001000
00000000
00001000
00000010
00000000
,  // measure 65
00001000
00000010
00001000
00000001
00000010
00001000
00010000
01000000
,  // measure 66
10000000
00000000
01000000
10000000
00000000
01000000
00100000
00000000
00001000
00000000
00010000
00000100
00000000
00001000
00000100
00000000
,  // measure 67
00000010
00000000
00000001
00001000
00000000
00000010
00001000
00000000
00000001
00000000
00000100
00000000
00000010
00000000
00010000
00000000
,  // measure 68
00011000
00000000
00001000
01000000
00010000
10000000
00010000
00000000
,  // measure 69
00010000
00000000
10000000
00000000
01000000
00000000
00010000
00000000
00001000
00010000
00000000
00001000
00010000
00000000
00001000
00000000
,  // measure 70
00011000
00000000
00010000
00000100
00001100
00000000
00001000
00000001
,  // measure 71
00000101
00000000
00000100
00000010
00010000
00001000
00100000
00010000
,  // measure 72
10000000
00000000
10000000
01000000
00000000
10000000
00100000
00000000
,  // measure 73
10000000
00100000
10000000
01000000
00010000
00001000
00000010
00000001
,  // measure 74
00001000
00001000
00000010
00000010
00000100
00000100
00001000
00010000
,  // measure 75
01000000
01000000
00100000
00100000
00010000
00010000
10000000
10000000
,  // measure 76
00100000
10000000
01000000
00010000
00001000
00000100
00000001
00000010
,  // measure 77
00000001
00000000
00000100
00000000
00001000
00000000
00010000
00000000
01000000
00100000
00010000
00000000
10000000
00000000
00010000
00000000
,  // measure 78
20020000
00000000
00000000
00000000
,  // measure 79
00000000
00000000
00000000
00000000
,  // measure 80
30030000
00000000
00000000
00000000
;
