#TITLE:Skateboard Arena;
#SUBTITLE:(Free Mode);
#ARTIST:Asuka Ohta;
#TITLETRANSLIT:;
#SUBTITLETRANSLIT:;
#ARTISTTRANSLIT:;
#GENRE:Rock;
#CREDIT:;
#BANNER:[Round C] - Skateboard Arena (Free Mode).png;
#BACKGROUND:[Round C] - Skateboard Arena (Free Mode)-bg.png;
#LYRICSPATH:;
#CDTITLE:cdtitle.png;
#MUSIC:[Round C] - Skateboard Arena (Free Mode).ogg;
#OFFSET:-0.214000;
#SAMPLESTART:73.382004;
#SAMPLELENGTH:11.707321;
#SELECTABLE:YES;
#BPMS:0.000000=164.000000
;
#STOPS:
;
#BGCHANGES:;
#KEYSOUNDS:;
#ATTACKS:;

//---------------dance-single - ----------------
#NOTES:
     dance-single:
     :
     Challenge:
     9:
     0.728098,0.709800,0.533684,0.916158,0.315763,573.000000,513.000000,60.000000,103.000000,0.000000,0.000000,0.728098,0.709800,0.533684,0.916158,0.315763,573.000000,513.000000,60.000000,103.000000,0.000000,0.000000:
// measure 0
0000
0000
0000
0000
,  // measure 1
0000
0000
0000
0000
,  // measure 2
0000
0000
0000
0000
,  // measure 3
1001
0000
0001
0100
0010
0010
0100
0001
,  // measure 4
0000
0000
1000
0000
0100
0010
0100
0010
0000
0000
0100
0000
0010
0000
0000
0100
,  // measure 5
1000
0000
0001
0000
0100
0000
0000
0010
1000
0000
0001
0000
0001
0000
1000
0000
,  // measure 6
0000
0000
0001
0000
0010
0000
0000
0010
0000
0001
1000
0001
0100
0000
0010
0000
,  // measure 7
1010
0000
1000
0010
1000
0100
1000
0100
,  // measure 8
0001
0000
0100
0000
0010
0001
0010
0001
0010
0000
0001
0000
0100
0000
0010
1000
,  // measure 9
0010
0000
0000
0000
1000
0000
0001
0010
0001
0000
0010
0000
0001
0000
0100
0000
,  // measure 10
0000
0000
0100
0000
0010
0000
1000
0100
0000
1000
0100
1000
0100
0000
0010
0000
,  // measure 11
0011
0000
0001
0010
0001
0100
0001
0100
,  // measure 12
1000
0000
0100
0000
0010
1000
0010
1000
0010
0000
1000
0000
0100
0000
0010
0001
,  // measure 13
0010
0000
0000
0000
0001
0000
1000
0010
1000
0000
0010
0000
1000
0000
0100
0000
,  // measure 14
0000
0010
0100
0220
0330
1002
0100
0100
,  // measure 15
0203
0000
0310
1000
0100
0010
0100
2000
,  // measure 16
0010
3010
0100
0002
0103
0020
1030
0200
,  // measure 17
0000
1300
0001
0010
0100
0001
0100
0010
,  // measure 18
0001
0000
0100
0000
0010
0000
2020
0000
3030
0000
1001
0000
0001
0010
0001
0010
,  // measure 19
0200
0000
0310
0001
0100
0010
0100
0002
,  // measure 20
1000
1003
0100
0020
0031
0200
0310
2010
,  // measure 21
0000
3010
1000
0001
0100
1000
0100
0001
,  // measure 22
1000
0000
0100
0000
0010
0000
0110
0000
0000
0000
1001
0000
0001
0100
0001
0100
,  // measure 23
0010
0000
0000
0000
1010
0000
0000
0010
1000
0000
0100
0000
1000
0000
0020
0000
,  // measure 24
0000
0000
1030
0000
0100
0000
0020
0000
0000
0000
0031
0000
1000
0010
1000
0010
,  // measure 25
1000
0100
0110
0000
0001
0001
0100
0110
,  // measure 26
0000
0000
1000
0000
0100
0000
1000
0001
1000
0000
0010
0000
1000
0100
1000
0100
,  // measure 27
0010
0000
0000
0000
0011
0000
0000
0010
0001
0000
0100
0000
1000
0000
0200
0000
,  // measure 28
0010
0000
0310
0110
0000
2002
0000
3003
,  // measure 29
1001
0000
0001
0000
0001
1000
0100
0110
,  // measure 30
0000
0100
0000
1100
0000
0012
0000
0103
,  // measure 31
0010
0000
0010
0000
0010
1010
0000
1001
,  // measure 32
0000
0010
0000
1001
0000
0100
0100
0000
,  // measure 33
1001
0000
1000
0000
1000
0001
0100
0110
,  // measure 34
0000
0100
0010
1000
0000
1200
0000
0310
,  // measure 35
0001
0000
0001
0000
0001
0101
0000
1100
,  // measure 36
0000
0000
1000
0000
0100
0000
1100
0000
0000
0000
1000
0001
1000
0001
1000
0000
,  // measure 37
1010
0000
0000
0000
0010
0000
1000
0001
1000
0000
0100
0000
0010
0000
0110
0000
,  // measure 38
0000
0000
0100
0000
1000
0001
1000
0001
0000
0000
0200
0000
0001
0000
0000
0301
,  // measure 39
0100
0000
1000
0000
0100
0000
0000
0100
0001
0000
0101
0000
0000
0000
0011
0000
,  // measure 40
0000
0000
1000
0000
0010
0000
0100
0001
0000
1000
0001
1000
0001
0000
0010
0001
,  // measure 41
0010
0000
0000
0000
0010
0000
0001
1000
0001
0000
0100
0000
0010
0000
0110
0000
,  // measure 42
0000
0000
0100
0000
0001
1000
0001
1000
0000
0000
0200
0000
1000
0000
0000
1300
,  // measure 43
0100
0000
0001
0000
0100
0000
0000
0100
1000
0000
1100
0000
0000
0000
1010
0000
,  // measure 44
0000
0000
0001
0000
0010
0000
0100
1000
0000
0001
1000
0001
1000
0000
0010
0100
,  // measure 45
0010
0000
0110
0000
0010
1010
0000
1001
,  // measure 46
0000
0000
0001
0100
0001
0000
0101
0000
0000
0000
1000
0000
1100
0000
0000
0000
,  // measure 47
1000
0200
0000
0310
0002
0000
1003
1020
,  // measure 48
0000
0130
0101
0000
0100
0010
2002
0000
,  // measure 49
0000
0000
0000
0000
0000
3000
0003
0000
,  // measure 50
2001
0000
0000
0000
3100
0000
0000
0100
1000
0000
0001
0000
2000
0000
3200
0000
,  // measure 51
0302
0000
0000
0203
0000
0000
2300
0000
0000
0000
0100
0000
3100
0000
0000
0000
,  // measure 52
1002
0000
0000
0000
0103
0000
0000
0100
0001
0000
1000
0000
0002
0000
0203
0000
,  // measure 53
2300
0000
0000
3200
0000
0000
0302
0000
0000
0000
0010
0000
0013
0000
0000
0000
,  // measure 54
0021
0000
0000
0000
0130
0000
0000
0100
0010
0000
0001
0000
0100
0000
0010
0000
,  // measure 55
1010
0000
0000
0110
0000
0000
0102
0000
0000
0000
0000
0000
1003
0001
1000
0000
,  // measure 56
0001
0000
0000
0001
0010
0000
1000
0000
0010
0000
0001
0000
0100
0000
0010
0000
,  // measure 57
1000
0000
0000
0010
1000
0000
0100
0000
0010
0000
0001
0000
0100
0000
0000
0000
,  // measure 58
1002
0000
0000
0000
0103
0000
0000
0010
0100
0000
0100
0000
0002
0000
0023
0000
,  // measure 59
2030
0000
0000
3020
0000
0000
0032
0000
0000
0000
0100
0000
0003
0100
0000
0000
,  // measure 60
2001
0000
0000
0100
3000
0000
0100
0000
0000
0000
0100
0000
2000
0000
3020
0000
,  // measure 61
0032
0000
0000
0023
0000
0000
2030
0000
0000
0000
0010
0000
3010
0000
0000
0000
,  // measure 62
1020
0000
0000
0000
0130
0000
0000
0100
0010
0000
1000
0000
0100
0000
0010
0000
,  // measure 63
0011
0000
0000
0110
0000
0000
2100
0000
0000
0000
0000
0000
3001
1000
0001
0000
,  // measure 64
1000
0000
0000
1000
0010
0000
0001
0000
0010
0000
1000
0000
0100
0000
0010
0000
,  // measure 65
0001
0000
0000
0001
0010
0000
0100
0000
1000
0000
0010
0000
0200
0000
0000
0000
,  // measure 66
0301
0200
0320
2030
3200
0302
0103
2000
,  // measure 67
3200
0302
0203
0320
0031
0100
0100
0010
,  // measure 68
1000
0200
0320
0032
0203
2300
3100
0002
,  // measure 69
0203
0000
2300
0000
3200
0000
0320
0000
1030
0000
0100
0000
0010
0001
0010
0000
,  // measure 70
0001
0020
0230
2300
3020
0032
0013
2000
,  // measure 71
3020
0032
2003
3200
0301
0010
0100
0100
,  // measure 72
1000
0020
0230
0302
0023
2030
3010
0002
,  // measure 73
0023
0000
2030
0000
3002
0000
0203
0000
1300
0000
0010
0000
0100
0001
0100
0000
,  // measure 74
0000
2001
0000
3010
0200
0000
0301
0021
,  // measure 75
0000
0130
1100
0000
0100
0010
2002
0000
,  // measure 76
3003
0000
0000
0000
;

//---------------dance-single - ----------------
#NOTES:
     dance-single:
     :
     Hard:
     8:
     0.555286,0.608400,0.507000,0.604842,0.093395,437.000000,380.000000,57.000000,68.000000,0.000000,0.000000,0.555286,0.608400,0.507000,0.604842,0.093395,437.000000,380.000000,57.000000,68.000000,0.000000,0.000000:
0000
0000
0000
0000
,
0000
0000
0000
0000
,
0000
0000
0000
0000
,
1001
0000
1000
0010
1000
0100
1000
0010
,
0000
0000
1000
0000
0001
0000
0010
0000
0000
0000
0100
0000
1000
0000
0000
1000
,
0000
0000
0001
0000
0100
0000
0000
0001
0000
0000
0001
0000
0100
0000
0010
0000
,
0000
0000
1000
0000
0100
0000
0000
0100
0000
0100
0010
0000
0001
0000
0000
0000
,
1001
0000
1010
0000
0010
1000
0000
1000
,
0100
0001
0100
1000
0000
1000
0001
0100
,
0010
0000
1010
0000
1000
0100
0000
0011
,
0000
0001
0100
0101
0000
2010
0000
0000
,
3001
0000
0011
0000
0010
0001
0000
0001
,
0100
1000
0100
0001
0000
0001
1000
0100
,
0010
0000
0011
0000
0001
0100
0000
1010
,
0000
1000
0100
1100
0000
0012
0000
0000
,
2003
0000
0001
0000
3001
0000
1000
0200
,
0000
0310
0100
2000
0000
3020
0130
0002
,
1000
0000
1003
0000
1000
0100
0000
0100
,
0010
0001
0100
0110
0000
1001
0001
0100
,
0002
0000
1000
0000
1003
0000
0001
0200
,
0000
1300
0100
0002
0000
0023
0130
0210
,
0000
1300
0001
0000
0001
0010
0000
0010
,
0100
1000
0010
0110
0000
1001
1000
0100
,
0010
0000
0000
0000
0110
0000
0000
0010
0001
0000
1000
0000
0001
0000
0020
0000
,
0000
0130
1000
0020
0000
0130
0001
0001
,
1000
0000
1100
0000
0011
0000
0001
0101
,
0000
1010
0000
1100
0000
1000
0001
0100
,
0010
0000
0000
0000
0110
0000
0000
0010
1000
0000
0001
0000
1000
0000
0200
0000
,
0000
0310
0001
1001
0000
2001
0000
0000
,
3010
0000
0000
0000
0000
0010
1000
0100
,
0000
0000
0000
1100
0000
0012
0000
0000
,
1003
0000
0000
0000
0000
1000
0000
0010
,
0000
0000
0000
0010
0000
1000
0100
0000
,
0010
0000
0000
0000
0000
0010
0001
0100
,
0000
0000
0000
0101
0000
2010
0000
0000
,
3001
0000
0000
0000
0000
1000
0000
0100
,
0000
0000
0000
0100
0000
0000
0100
0000
,
1001
0000
0000
0000
1000
0000
0000
1000
0010
0000
1000
0000
0100
0000
0010
0000
,
0000
0100
1000
0010
0000
0120
0000
1030
,
0001
0000
0000
0000
0001
0000
0000
0010
0001
0000
0100
0000
0000
0000
1001
0000
,
0000
0000
0001
0000
0100
0000
0010
0000
0000
0010
1000
0000
0100
0000
0010
0000
,
0001
0000
0000
0000
0001
0000
0000
0001
0010
0000
0001
0000
0100
0000
0010
0000
,
0000
0100
0001
0010
0000
0120
0000
0031
,
1000
0000
0000
0000
1000
0000
0000
0010
1000
0000
0100
0000
0000
0000
0110
0000
,
0000
0000
0010
0000
0001
0000
0100
0000
0000
0001
0100
0000
0010
0000
1000
0000
,
0001
0000
1001
0000
1000
1100
0000
0101
,
0000
0001
0100
0101
0000
1000
1100
0000
,
1000
0020
0000
1030
0002
0000
1003
0200
,
0000
0301
0100
0000
0010
0001
2002
0000
,
0000
0000
0000
0000
0000
3000
0003
0000
,
1002
0000
0100
0000
0103
0000
0001
0100
,
0020
0000
0000
2030
0000
0000
3002
0000
0000
0000
0100
0000
0103
0000
0000
0000
,
2001
0000
0100
0000
3100
0000
1000
0100
,
0020
0000
0000
0032
0000
0000
2003
0000
0000
0000
0010
0000
3010
0000
0000
0000
,
1020
0000
0100
0000
0130
0000
0010
1000
,
1001
0000
0000
1100
0000
0000
0120
0000
0000
0000
0000
0000
0031
0000
0000
0000
,
2000
3020
0032
0203
,
2300
0000
3010
0100
0001
0000
0101
0000
,
2001
0000
0000
0000
3100
0000
0000
1000
0100
0000
0100
0000
0010
0000
0001
0000
,
0200
0000
0000
0320
0000
0000
2030
0000
0000
0000
0001
0000
3000
0001
0000
0000
,
1002
0000
0000
0100
0000
0000
0103
0000
0000
0000
0100
0000
0010
0000
1000
0000
,
0002
0000
0000
2003
0000
0000
3200
0000
0000
0000
0010
0000
0310
0000
0000
0000
,
0021
0000
0100
0000
0130
0000
0010
0001
,
1001
0000
0000
0101
0000
0000
0120
0000
0000
0000
0000
0000
1030
0000
0000
0000
,
0002
0023
2030
3200
,
0302
0000
0013
0100
1000
0000
1001
0000
,
0001
1000
0010
0100
0001
0020
0000
0031
,
0010
0100
1000
0020
0000
1000
0000
1030
,
0000
0010
1000
0100
1000
0020
0000
0130
,
0001
0010
0001
0200
0000
0001
0000
0301
,
0000
1000
0100
0010
0100
0002
0000
0103
,
0010
0100
1000
0002
0000
0100
0000
0103
,
0000
0001
0100
1000
0100
0002
0000
0103
,
1000
0100
0001
2000
0000
3100
0010
0001
,
0000
2001
0000
3001
0020
0000
0031
0200
,
0000
1300
0100
0000
0010
1000
2002
0000
,
3003
0000
0000
0000
;

//---------------dance-single - ----------------
#NOTES:
     dance-single:
     :
     Medium:
     6:
     0.437113,0.507000,0.284632,0.613737,0.008895,344.000000,312.000000,32.000000,69.000000,0.000000,0.000000,0.437113,0.507000,0.284632,0.613737,0.008895,344.000000,312.000000,32.000000,69.000000,0.000000,0.000000:
0000
0000
0000
0000
,
0000
0000
0000
0000
,
0000
0000
0000
0000
,
1000
0100
1000
0000
0001
0000
1000
0010
,
0000
1000
0010
0000
1000
0001
0010
0000
,
0001
0100
0001
0000
1000
0000
0001
0010
,
0000
0001
0010
0000
0001
0100
0010
0000
,
1001
0000
1010
0000
1000
0001
0000
0000
,
1000
0100
0000
0010
0000
0010
0001
0000
,
0101
0000
0110
0000
0010
1000
0000
0001
,
0000
1000
0000
0110
0000
2002
0000
3003
,
1001
0000
0011
0000
0001
1000
0000
0000
,
0001
0100
0000
0010
0000
0010
1000
0000
,
1100
0000
0110
0000
0010
0001
0000
1000
,
0000
0001
0000
0110
0000
2002
0000
3003
,
2000
0000
0100
0000
0100
0000
3100
2000
,
0001
0000
3001
2000
0000
3020
0000
0230
,
0000
1000
1000
0001
,
0301
0000
0100
0010
0000
1000
0100
0010
,
0002
0000
0100
0000
0100
0000
0103
0002
,
1000
0000
1003
0002
0000
0023
0000
0230
,
0000
0001
0001
1000
,
1300
0000
0100
0010
0000
0001
0100
0010
,
2000
0000
0010
0000
3010
0000
1000
0200
,
0010
0000
0310
0002
0000
0103
0010
1000
,
0001
0000
0011
0000
1100
0000
0000
1010
,
0000
0101
0000
1001
0000
1000
0100
0010
,
0002
0000
0010
0000
0013
0000
0001
0200
,
0010
0000
0310
0100
0000
1002
0000
0000
,
0013
0000
0000
0000
0000
0001
0000
0100
,
0000
0000
0000
0100
0000
0020
0000
0000
,
1030
0000
0000
0000
0000
1000
0000
0001
,
0000
0000
0000
0010
0000
0100
1000
0000
,
0010
0000
0000
0000
0000
1000
0000
0100
,
0000
0000
0000
0100
0000
0020
0000
0000
,
0031
0000
0000
0000
0000
0001
0000
0100
,
0000
0000
0000
0100
0000
0000
0100
0000
,
0010
0000
0010
0000
0010
1000
0001
1000
,
0000
1000
0000
0100
0000
0020
0000
0031
,
1000
0000
1000
0000
1000
0010
0000
0100
,
0000
0001
0100
0001
0000
1000
0001
0000
,
0010
0000
0010
0000
0010
0001
1000
0001
,
0000
0001
0000
0100
0000
0020
0000
1030
,
0001
0000
0001
0000
0001
0010
0000
0100
,
0000
1000
0100
1000
0000
0001
1000
0000
,
1010
0000
1001
0000
0000
0011
0000
1001
,
0000
0000
0000
1100
0000
0000
0101
0000
,
0000
2000
0000
0000
3020
0000
0000
0032
,
0000
0000
0013
0000
1000
0010
2000
0000
,
0000
0000
0000
3000
,
2001
0000
0100
0000
3100
0000
1000
0100
,
0020
0032
0203
0301
,
1002
0000
0100
0000
0103
0000
0001
0100
,
0020
2030
3200
0310
,
0012
0000
1000
0000
1003
0000
0001
0100
,
0010
0000
0000
0010
0000
0000
2001
0000
0000
0000
0000
0000
3100
0000
0000
0000
,
2000
3020
0230
0302
,
2003
0000
3100
0020
0000
0031
0100
0000
,
2001
0000
0100
0000
3100
0000
0010
0001
,
0200
0320
2030
3100
,
1002
0000
0100
0000
0103
0000
0010
1000
,
0200
0320
0032
0103
,
2010
0000
0001
0000
3001
0000
1000
0100
,
0010
0000
0000
0010
0000
0000
1002
0000
0000
0000
0000
0000
0103
0000
0000
0000
,
0020
2030
3002
0023
,
0230
0000
0310
0002
0000
0103
0020
0000
,
1030
0000
0010
0000
1000
0100
0000
0100
,
0010
0000
0010
0002
0000
0000
1003
0000
,
0001
0000
0010
0000
0001
0100
0000
0100
,
0010
0000
0010
2000
0000
0000
3001
0000
,
1000
0000
0100
0000
0010
0001
0000
0001
,
0100
0000
0100
0020
0000
0000
1030
0000
,
0001
0000
0010
0000
0100
1000
0000
1000
,
0010
0000
0010
0200
0000
0000
0301
0000
,
0000
0002
0000
0000
0023
0000
0000
2030
,
0000
0000
3010
0000
0001
0010
0002
0000
,
0003
0000
0000
0000
;

//---------------dance-single - ----------------
#NOTES:
     dance-single:
     :
     Easy:
     4:
     0.320211,0.439400,0.204579,0.346895,0.000000,252.000000,229.000000,23.000000,39.000000,0.000000,0.000000,0.320211,0.439400,0.204579,0.346895,0.000000,252.000000,229.000000,23.000000,39.000000,0.000000,0.000000:
0000
0000
0000
0000
,
0000
0000
0000
0000
,
0000
0000
0000
0000
,
0001
0000
0000
0000
0100
0000
0000
0001
,
0000
0010
0000
0001
,
1000
0000
0000
0000
0100
0000
0000
1000
,
0000
0010
0010
0010
,
1000
1000
0100
0000
,
1000
0000
0000
0010
0000
0000
0100
0000
,
0001
0000
0001
0000
0100
0000
0000
0010
,
0000
1000
0000
0110
0000
2001
0000
0000
,
3001
0001
0010
0000
,
0001
0000
0000
0100
0000
0000
0010
0000
,
1000
0000
1000
0000
0010
0000
0000
0100
,
0000
0001
0000
0110
0000
1002
0000
0000
,
2003
0000
0000
0000
3100
0000
0000
2000
,
0000
0000
0000
3020
0000
0230
0000
0302
,
0000
0000
1003
0000
,
0001
0000
0000
0011
0000
1100
0000
0000
,
0002
0000
0000
0000
0103
0000
0000
0002
,
0000
0000
0000
0023
0000
0230
0000
2300
,
0000
0000
3001
0000
,
1000
0000
0000
1010
0000
0101
0000
0000
,
2000
0000
0100
0000
3100
0000
0000
0020
,
0000
0000
0000
0130
0000
1001
0000
0000
,
0000
0000
1010
0000
1001
0000
0000
0011
,
0000
0011
0000
1001
0000
0000
1000
0000
,
0002
0000
0100
0000
0103
0000
0000
0020
,
0000
0000
0000
0130
0000
1001
0000
0000
,
0010
0000
0000
0000
0000
1000
0000
1000
,
0000
0000
0000
0001
0000
0002
0000
0000
,
0103
0000
0000
0000
0000
0001
0000
0001
,
0000
0000
0000
1000
0000
0000
0100
0000
,
0010
0000
0000
0000
0000
0001
0000
0001
,
0000
0000
0000
1000
0000
2000
0000
0000
,
3100
0000
0000
0000
0000
0010
0000
0010
,
0000
0000
0000
0100
0000
0000
0100
0000
,
0010
0001
0010
0001
,
0100
0000
0010
0100
,
0001
1000
0001
1000
,
0100
0000
0100
1000
,
0010
1000
0010
1000
,
0100
0000
0010
0100
,
1000
0001
1000
0001
,
0100
0000
0100
0100
,
0010
0000
2000
0000
0000
3100
0000
0100
,
0000
0000
0000
0100
0000
0000
0100
0000
,
0000
2000
0000
0000
3020
0000
0000
0230
,
0000
0301
1000
0020
,
0000
0000
0000
0030
,
2010
0000
3010
1000
,
0001
0010
0100
0010
,
0012
0000
0013
0001
,
1000
0010
0100
0001
,
2001
0000
3010
1000
,
0100
0000
0000
0120
0000
0000
0130
0000
,
1000
1000
0010
0010
,
0100
0100
0001
0001
,
0102
0000
1003
0010
,
1000
0100
0010
0100
,
2100
0000
3001
0010
,
0001
0100
0010
1000
,
1002
0000
0013
0001
,
0100
0000
0000
0120
0000
0000
0130
0000
,
0001
0001
0010
0010
,
0100
0100
1000
1000
,
0001
0100
0010
0010
,
0100
0010
2000
3001
,
0010
0100
0010
0010
,
0100
1000
0002
1003
,
0010
1000
0100
0100
,
0010
0001
2000
3010
,
1000
0100
0010
0010
,
0001
0100
0020
1030
,
0000
0002
0000
0000
0023
0000
0000
0230
,
0000
1300
0001
0020
,
0030
0000
0000
0000
;

//---------------dance-single - ----------------
#NOTES:
     dance-single:
     :
     Beginner:
     2:
     0.179165,0.235822,0.017789,0.142316,0.000000,141.000000,139.000000,2.000000,16.000000,0.000000,0.000000,0.179165,0.235822,0.017789,0.142316,0.000000,141.000000,139.000000,2.000000,16.000000,0.000000,0.000000:
0000
0000
0000
0000
,
0000
0000
0000
0000
,
0000
0000
0000
0000
,
1000
0000
1000
0000
,
0010
0000
1000
0000
,
0001
0000
0001
0000
,
0010
0000
0001
0000
,
1000
1000
1000
0000
,
0100
0000
0010
0000
,
0001
0001
0001
0000
,
0100
0200
0000
0300
,
0001
0001
0001
0000
,
0100
0000
0010
0000
,
1000
1000
1000
0000
,
0100
0200
0000
0300
,
0200
0000
0300
0000
,
2000
3000
0020
0030
,
0200
0000
0300
0000
,
0010
0010
0010
0000
,
0200
0000
0300
0000
,
0002
0003
0020
0030
,
0200
0000
0300
0000
,
0100
0100
0100
0000
,
1000
0000
1000
0000
,
0001
0000
0001
0000
,
0000
0010
0010
0000
,
0010
0010
0010
0000
,
0001
0000
0001
0000
,
0100
0000
0010
0000
,
1000
0000
0000
0000
,
0100
0000
0000
0000
,
0001
0000
0000
0000
,
0010
0000
0000
0000
,
1000
0000
0000
0000
,
0100
0000
0000
0000
,
0010
0000
0000
0000
,
0001
0000
0000
0000
,
1000
0000
1000
0000
,
0010
0000
0010
0000
,
0100
0000
0100
0000
,
0001
0000
0001
0000
,
0010
0000
0010
0000
,
0100
0000
0100
0000
,
1000
0000
1000
0000
,
0001
0000
0001
0000
,
0100
0100
0000
0100
,
0100
0000
0100
0200
,
0000
0000
0000
0000
,
0000
0000
0000
0300
,
0000
0000
0000
0000
,
0001
0000
0001
0000
,
0010
0010
0010
0000
,
0100
0000
0100
0000
,
1000
1000
1000
0000
,
0010
0000
0010
0000
,
2002
0000
3003
0000
,
0001
0000
0001
0000
,
0010
0000
0100
0000
,
1000
0000
1000
0000
,
0010
0010
0010
0000
,
0100
0000
0100
0000
,
0001
0001
0001
0000
,
0010
0000
0010
0000
,
2002
0000
3003
0000
,
1000
0000
1000
0000
,
0010
0000
0100
0000
,
0001
0000
1000
0000
,
0001
0001
0001
0000
,
0010
0000
0100
0000
,
0010
0010
0010
0000
,
0001
0000
1000
0000
,
0010
0010
0010
0000
,
1000
0000
0001
0000
,
0010
0010
0020
0000
,
0000
0000
0000
0000
,
0000
0000
0000
0030
;
