#TITLE:サラバ、愛しき悲しみたちよ;
#SUBTITLE:;
#ARTIST:ももいろクローバーZ;
#TITLETRANSLIT:Saraba, Itoshiki Kanashimi tachiyo;
#SUBTITLETRANSLIT:;
#ARTISTTRANSLIT:Momoiro Clover Z;
#GENRE:IDOL GOTHIC ROCK;
#CREDIT:I think it's mf32892.;
#BANNER:[Round C] - Saraba, Itoshiki Kanashimi tachiyo.png;
#BACKGROUND:[Round C] - Saraba, Itoshiki Kanashimi tachiyo-bg.png;
#LYRICSPATH:;
#CDTITLE:cdtitle.png;
#MUSIC:[Round C] - Saraba, Itoshiki Kanashimi tachiyo.ogg;
#OFFSET:-0.500000;
#SAMPLESTART:36.255875;
#SAMPLELENGTH:12.000000;
#SELECTABLE:YES;
#DISPLAYBPM:168.000000;
#BPMS:0.000000=168.000000
,291.500000=76.370003
,294.000000=168.000000
;
#STOPS:252.000000=1.071000
;
#BGCHANGES:;
#KEYSOUNDS:;
#ATTACKS:;

//---------------dance-single - Song's not my cup of tea but I think it's steppable.----------------
#NOTES:
     dance-single:
     C 9 X 14:
     Hard:
     9:
     0.647654,0.677928,0.657542,0.596979,0.064889,524.000000,448.000000,76.000000,69.000000,12.000000,0.000000,0.647654,0.677928,0.657542,0.596979,0.064889,524.000000,448.000000,76.000000,69.000000,12.000000,0.000000:
0000
0000
0000
0000
,
0000
0000
0000
0000
,
0000
0000
0000
0000
,
0000
0000
0000
0000
,
2002
0000
0000
0000
,
0000
0000
0000
0000
,
0000
0000
0000
3003
,
MMMM
1010
0000
1001
0000
2200
0000
3300
,
0011
0001
0010
0100
1000
0001
0010
0001
,
0100
0100
0010
2000
0001
3010
0100
0010
,
1000
1000
0010
0100
0001
0010
0100
0010
,
0100
0000
0100
0000
0010
0000
0002
0000
0100
0000
1003
0000
0010
0000
0100
0010
,
1000
1000
0010
0100
0001
0010
1000
0010
,
0100
0100
1000
0020
0100
0031
0010
1000
,
0001
0000
0001
0000
0010
0000
0100
0000
1000
0000
0010
0000
1000
0001
0010
0001
,
0000
0000
0011
0000
0000
0000
1001
0000
0000
0000
1020
0000
0130
0000
0010
1000
,
0001
0011
0010
0100
1000
0010
0100
0001
,
1000
0001
0010
0100
1000
0001
0100
0010
,
1000
1010
0010
0100
0001
1000
0001
0010
,
0100
1000
0001
0100
0010
1000
0001
0010
,
0100
0110
0010
0001
1000
0001
0100
0001
,
0010
0100
1000
0010
0100
0010
1000
0001
,
0100
0101
0000
0000
0000
1001
0000
1100
,
0400
0000
0000
0000
0000
0000
0300
0000
0011
0000
0000
0000
1001
0000
1000
0010
,
0100
0020
0230
0302
,
2003
0000
3001
2000
0000
3200
0010
0000
,
0302
0000
0103
2000
0000
3002
0000
0103
,
1000
0000
0100
0000
0001
0000
1002
0000
0000
0000
0013
0000
1000
0000
0010
0100
,
2000
0000
3002
0000
1003
0010
0001
0020
,
0000
2030
0000
3002
0000
0023
0000
0032
,
1000
0000
0103
0200
0000
0301
1000
0100
,
0002
0000
0103
0000
0010
0000
0011
0000
0000
0000
0101
0000
0100
0000
0010
0100
,
0002
0000
2003
3000
1000
0100
0010
0002
,
0100
0000
2003
3000
1000
0100
0010
0001
,
0011
0000
0011
0000
0001
0001
1000
0010
,
1010
0000
1010
0000
0010
0010
1000
0000
,
0100
0100
0001
1000
0010
0100
1000
0001
,
0010
0100
1000
0001
0100
0001
1000
0100
,
0010
0010
1000
0001
0100
0010
0001
1000
,
0010
1000
0001
0010
0200
0000
1300
MMMM
,
1010
0010
0001
1000
0100
0010
1000
0001
,
0100
0001
1000
0100
0010
0001
1000
0001
,
0100
0100
1000
0001
0010
1000
0001
1000
,
0100
0000
0010
0000
0001
0000
0100
0000
0020
0000
0030
0000
1010
0000
0010
1000
,
0001
0000
0011
0000
1100
1000
0010
0100
,
1010
0000
0101
0000
1001
0001
0010
0100
,
1100
0000
0011
0000
1001
1000
0010
0100
,
0110
0000
1001
0000
0011
0001
1000
0010
,
0110
0000
0101
0000
1001
0001
0010
0100
,
0110
0000
1100
0000
0011
0010
0001
0100
,
0120
0001
1000
0130
,
0102
0000
1000
0000
0000
0000
1000
0000
1000
0000
1000
0000
1003
0000
0001
1000
,
0001
0000
0011
0000
1100
0100
0001
0100
,
0110
0000
1100
0000
1010
0010
1000
0001
,
0011
0000
0101
0000
1010
0010
0001
0010
,
0110
0000
1001
0000
0011
0010
0001
1000
,
1100
0000
0011
0000
1100
1000
0010
0100
,
1010
0000
0101
0000
1010
0010
1000
0100
,
0120
1000
0001
0130
,
2100
0001
0000
0010
3020
0000
0130
0001
,
0102
0000
1000
2003
0000
3100
0200
0000
,
0302
0000
0000
0000
0103
0000
0200
0000
0000
0000
1300
0000
1000
0000
0001
1000
,
0002
1000
2003
0010
3020
0100
0230
0001
,
0301
MMMM
0101
0100
0010
1000
0002
0013
,
2000
3010
0100
0100
0010
0200
0010
0302
,
2003
3020
0031
0001
0010
0100
2000
3010
,
0002
0013
0100
0100
0010
0200
0010
2300
,
3002
0000
0013
0100
0010
0000
0010
0000
0100
0000
0001
0000
2000
0000
3100
0000
,
0002
1003
0010
0010
0001
0200
0010
2300
,
3200
0302
1003
1000
0001
0010
2000
3001
,
0100
0010
0100
1000
0000
0000
1100
0000
0000
0000
1001
0000
0000
0000
0102
0000
,
0100
0000
0103
0010
0000
0000
1010
0000
0000
0000
1001
0000
0000
0000
2100
0000
,
3100
0010
0001
0000
0000
0000
0011
0000
0000
0000
1001
0000
0000
0000
0220
0000
,
0000
0000
0330
0000
,
0000
0000
0000
0000
1001
1001
0000
0000
;

//---------------dance-single - It's alright.----------------
#NOTES:
     dance-single:
     C 7 X 11:
     Medium:
     7:
     0.472145,0.516516,0.397986,0.397986,0.000000,382.000000,336.000000,46.000000,46.000000,28.000000,0.000000,0.472145,0.516516,0.397986,0.397986,0.000000,382.000000,336.000000,46.000000,46.000000,28.000000,0.000000:
0000
0000
0000
0000
,
0000
0000
0000
0000
,
0000
0000
0000
0000
,
0000
0000
0000
0000
,
0020
0000
0000
0000
,
0000
0000
0000
0000
,
0000
0000
0000
0030
,
0000
1001
0000
0011
0000
2100
0000
0000
,
3001
0000
0010
0100
1000
0000
0010
0000
,
1000
0000
0010
2000
0000
3010
0100
0010
,
1000
0000
0010
0100
0001
0000
0010
0000
,
0001
0000
0010
0200
0000
0310
0001
1000
,
1000
0000
0010
0100
0010
0000
0001
0000
,
0010
0000
1000
0002
0000
0013
0100
1000
,
0001
0000
0010
0100
0010
0000
1000
0010
,
0000
0110
0000
1001
0000
1001
0000
0000
,
1000
0002
0010
0000
2003
0000
0100
0000
,
3002
0100
2003
0010
,
3001
2000
0100
0000
3002
0000
0010
0000
,
2003
0010
3002
0100
,
1003
0002
0010
0000
2003
0000
0010
0000
,
3002
0100
2003
0100
,
3001
0001
0000
0000
0000
1001
0000
0110
,
M000
000M
M000
000M
0100
0000
1001
0001
,
0100
0000
0010
0000
1000
0001
0010
0000
,
0100
0000
0010
0100
1000
0100
0010
0000
,
1000
0000
0010
0001
0000
0010
0100
0000
,
1000
0001
0100
0110
0000
0010
1000
0001
,
0100
0000
0001
0000
1000
0001
0010
0000
,
0100
0000
1000
0010
0000
0100
0010
0000
,
0001
0000
0010
1000
0001
1000
0100
0000
,
1100
0000
0000
1010
0000
1001
1000
0001
,
0200
0010
1000
0301
,
0020
1000
0001
0130
,
1100
0000
1100
0000
1000
0001
0100
0000
,
0101
0000
0101
0000
0100
0010
1000
0000
,
0100
0010
0002
0000
2003
0000
0100
0000
,
3002
0100
2003
0001
,
3010
0100
0001
0000
2000
0000
0010
0000
,
3002
0100
1003
MMMM
,
1000
0100
0010
0000
0002
0000
0010
0000
,
2003
0100
3002
0100
,
1003
0010
0100
0000
0002
0000
0100
0000
,
2003
0000
0100
0000
3001
0000
0011
0001
,
1000
0000
1001
0000
0001
0010
0100
1000
,
0001
0000
0101
0000
0100
0010
1000
0001
,
0010
0000
0011
0000
0010
0100
1000
0001
,
0100
0000
0110
0000
0010
1000
0001
1000
,
0100
0000
1100
0000
0100
1000
0001
0100
,
0010
0000
1010
0000
0010
1000
0001
0100
,
0002
0023
2030
3200
,
0301
0100
0010
0100
0001
1000
0100
0100
,
0010
0000
0110
0000
0100
0010
0001
1000
,
0010
0000
1010
0000
0010
1000
0001
0010
,
0100
0000
1100
0000
0100
1000
0001
0100
,
0010
0000
1001
0000
0001
0010
0100
1000
,
0001
0000
0101
0000
0001
0010
0100
1000
,
0001
0000
0011
0000
0010
0100
1000
0001
,
2000
3020
0032
0203
,
1300
0001
0010
0001
2000
0000
3001
0000
,
0110
0000
1000
0001
0000
0001
0100
0000
,
0110
0000
0001
1000
0000
1000
0100
0000
,
0110
0011
1001
0110
,
2001
0000
3100
0000
0010
0001
M100
0000
,
010M
0000
1000
0000
0001
1000
MMMM
1000
,
0001
0000
0100
0000
0010
1000
010M
0000
,
M100
0000
0001
0000
1000
0001
MMMM
0001
,
1000
0010
0010
0000
0100
0001
M010
0000
,
001M
0000
1000
0000
0010
0100
MMMM
0100
,
0010
1000
0001
0000
0001
1000
001M
0000
,
M010
0001
0000
0011
0000
1100
0000
2002
,
0000
3003
0000
1010
0000
0101
0000
2002
,
0000
3003
0000
0101
0000
1100
0000
0220
,
0000
0000
0330
0000
,
0000
0000
0000
0000
1000
1000
0000
0000
;

//---------------dance-single - Some 8ths so look out.----------------
#NOTES:
     dance-single:
     C 4 X 7:
     Easy:
     4:
     0.328771,0.387387,0.302815,0.242252,0.000000,266.000000,231.000000,35.000000,28.000000,0.000000,0.000000,0.328771,0.387387,0.302815,0.242252,0.000000,266.000000,231.000000,35.000000,28.000000,0.000000,0.000000:
0000
0000
0000
0000
,
0000
0000
0000
0000
,
0000
0000
0000
0000
,
0000
0000
0000
0000
,
0000
0000
0000
0000
,
0000
0000
0000
0000
,
0000
0000
0000
0000
,
0000
1001
0000
1001
0000
1001
0000
0000
,
0001
0010
0100
1000
,
0001
0000
0001
0200
0000
0000
0310
0000
,
1000
0100
0010
0001
,
1000
0000
1000
0020
0000
0000
0130
0000
,
0100
0010
1000
0001
,
0100
0000
0001
2000
0000
0000
3001
0000
,
0010
0001
1000
0100
,
0000
0110
0000
0110
0000
0110
0000
0000
,
1002
0003
2000
3000
,
0200
0300
2000
3000
,
2010
3000
0020
0030
,
0200
0300
0002
0003
,
2001
3000
0002
0003
,
0200
0300
0002
0003
,
0011
0000
0000
0000
0000
1001
0000
1001
,
0000
0000
0100
0110
,
1000
0001
0001
1000
,
0100
0010
0001
1000
,
0010
1000
0001
0100
,
0010
0000
0000
1010
0000
0000
1000
0000
,
0001
1000
1000
0010
,
0100
0100
0001
0010
,
0010
0001
1000
0010
,
0010
0000
0000
0110
0000
0110
0000
0000
,
1001
0001
0100
0001
,
0001
1000
0100
1000
,
1001
1001
0000
0010
,
1001
1001
0000
0100
,
0110
1000
0001
0000
,
1000
0000
0001
0000
,
0010
0100
1000
0000
,
0001
0000
2002
0003
,
3100
0010
0001
0000
,
1000
0000
0001
0000
,
0100
0010
1000
0000
,
0001
0000
1001
0001
,
1000
1000
0100
0010
,
1000
1000
0010
0100
,
1000
0001
0100
0010
,
0001
0001
0010
0100
,
0001
1000
0100
0010
,
1000
1000
0010
0100
,
1000
1010
0001
0011
,
2000
0001
0010
3001
,
0011
0001
0010
0100
,
0001
0001
0100
0010
,
0001
1000
0010
0100
,
1000
1000
0100
0010
,
1000
1000
0100
0010
,
1000
0010
0001
1000
,
0001
0101
1000
1100
,
0002
1000
0013
0010
,
0011
0000
0000
0001
0000
0000
1000
0000
,
1010
0000
0000
0010
0000
0000
0100
0000
,
0010
0010
0010
0010
,
0110
0001
0010
0100
,
0001
0000
0100
0000
0100
2000
0000
0000
,
3001
1000
0010
0100
,
1000
0000
0100
0000
0100
0002
0000
0000
,
1003
1000
0100
0010
,
1000
0000
0010
0000
0010
0002
0000
0000
,
1003
0001
0010
0100
,
0001
0100
0000
0010
0000
0010
0000
0220
,
0000
0330
0000
0100
0000
0100
0000
0220
,
0000
0330
0000
1000
0000
0001
0000
2002
,
0000
0000
3003
0000
,
0000
0000
0000
0000
0010
0100
0000
0000
;

//---------------dance-single - Blue notes in beginner charts???----------------
#NOTES:
     dance-single:
     C 1 X 2:
     Beginner:
     1:
     0.166857,0.257826,0.190341,0.000000,0.000000,135.000000,113.000000,22.000000,0.000000,0.000000,0.000000,0.166857,0.257826,0.190341,0.000000,0.000000,135.000000,113.000000,22.000000,0.000000,0.000000,0.000000:
// measure 0
0000
0000
0000
0000
,  // measure 1
0000
0000
0000
0000
,  // measure 2
0000
0000
0000
0000
,  // measure 3
0000
0000
0000
0000
,  // measure 4
0000
0000
0000
0000
,  // measure 5
0000
0000
0000
0000
,  // measure 6
0000
0000
0000
0000
,  // measure 7
0000
0000
0000
0000
,  // measure 8
1000
0000
0000
0000
,  // measure 9
0001
0000
0000
0000
,  // measure 10
1000
0000
0000
0000
,  // measure 11
0001
0000
1000
0000
,  // measure 12
1001
0000
0000
0000
,  // measure 13
0001
0000
0000
0000
,  // measure 14
1000
0000
0001
0000
,  // measure 15
0000
0000
0000
0000
,  // measure 16
1001
0000
0000
0000
,  // measure 17
0000
0000
0000
0000
,  // measure 18
0110
0000
0000
0000
,  // measure 19
0000
0000
0000
0000
,  // measure 20
1001
0000
0000
0000
,  // measure 21
0000
0000
0000
0000
,  // measure 22
1001
0000
0000
0000
,  // measure 23
0010
0000
0110
0000
,  // measure 24
0100
0000
0100
0000
,  // measure 25
0001
0000
1000
0000
,  // measure 26
0010
0000
0010
0000
,  // measure 27
1000
0000
1001
0000
,  // measure 28
0001
0000
0001
0000
,  // measure 29
0010
0000
0100
0000
,  // measure 30
1000
0000
1000
0000
,  // measure 31
1001
0000
1001
0000
,  // measure 32
0001
0000
0001
0000
,  // measure 33
1000
0000
1000
0000
,  // measure 34
1001
0000
0000
0000
,  // measure 35
0110
0000
0000
0000
,  // measure 36
0001
0000
1000
0000
,  // measure 37
0001
0000
1000
0000
,  // measure 38
0100
0000
0010
0000
,  // measure 39
0100
0000
0110
0000
,  // measure 40
1000
0000
0001
0000
,  // measure 41
1000
0000
0001
0000
,  // measure 42
0100
0000
0010
0000
,  // measure 43
0100
0000
0110
0000
,  // measure 44
1000
0000
1000
1000
,  // measure 45
1000
0000
0001
0001
,  // measure 46
0001
0000
1000
1000
,  // measure 47
1000
0000
0001
0001
,  // measure 48
0001
0000
0100
0100
,  // measure 49
0100
0000
0010
0010
,  // measure 50
0010
0000
0100
0000
,  // measure 51
1001
0000
0000
0000
,  // measure 52
1001
0000
0001
0001
,  // measure 53
0001
0000
1000
1000
,  // measure 54
1000
0000
0001
0001
,  // measure 55
0001
0000
1000
1000
,  // measure 56
1000
0000
0100
0100
,  // measure 57
0100
0000
0010
0010
,  // measure 58
0010
0000
0100
0000
,  // measure 59
0110
0000
0000
0000
,  // measure 60
1000
0000
0000
0000
,  // measure 61
0001
0000
0000
0000
,  // measure 62
1000
0000
0001
0000
,  // measure 63
1001
0001
0000
0000
,  // measure 64
0000
1000
0000
0000
,  // measure 65
0000
0001
0000
0000
,  // measure 66
0000
1000
0000
0001
,  // measure 67
0000
1001
0000
0000
,  // measure 68
0000
0001
0000
0000
,  // measure 69
0000
1000
0000
0001
,  // measure 70
0000
0000
0000
0000
0000
0000
0000
1001
,  // measure 71
0000
0000
0000
0000
0000
0000
0000
0110
,  // measure 72
0000
0000
0000
0000
0000
0000
0000
1001
,  // measure 73
0000
0000
0000
0000
,  // measure 74
0000
0000
1001
0000
;
