#TITLE:Roses;
#SUBTITLE:(feat. ROZES);
#ARTIST:The Chainsmokers;
#TITLETRANSLIT:;
#SUBTITLETRANSLIT:;
#ARTISTTRANSLIT:;
#GENRE:Future Bass;
#CREDIT:;
#BANNER:;
#BACKGROUND:;
#LYRICSPATH:;
#CDTITLE:;
#MUSIC:[Round C] - Roses (feat. ROZES).ogg;
#OFFSET:0.000000;
#SAMPLESTART:62.400017;
#SAMPLELENGTH:12.000000;
#SELECTABLE:YES;
#DISPLAYBPM:100.000000;
#BPMS:0.000000=100.000000
,100.000000=50.000000
,101.500000=100.000000
;
#STOPS:101.500000=0.301000
;
#BGCHANGES:;
#KEYSOUNDS:;
#ATTACKS:;

//---------------dance-single - ----------------
#NOTES:
     dance-single:
     :
     Challenge:
     8:
     0.494505,0.674279,0.360577,0.072115,0.296474,432.000000,387.000000,45.000000,9.000000,0.000000,0.000000,0.494505,0.674279,0.360577,0.072115,0.296474,432.000000,387.000000,45.000000,9.000000,0.000000,0.000000:
0000
0000
0000
0000
,
0000
0000
0000
0000
,
0110
0000
0001
1000
0000
0000
0101
0000
,
0010
0000
0000
1000
0001
0000
0010
0000
0100
0000
0000
0000
1001
0000
0000
0000
,
1100
0000
0001
0010
0000
0000
1001
0000
,
0100
0000
0000
0100
0010
0000
1000
0000
0100
0000
0000
0000
0110
0000
0000
0000
,
0011
0000
1000
0010
0000
0000
0110
0000
,
1000
0000
0000
1000
0001
0000
0010
0000
0100
0000
0000
0000
1001
0000
0000
0000
,
1010
0000
0001
0010
0000
0000
1100
0000
,
0001
0010
1000
0010
0001
0100
0020
0000
,
1030
0000
0010
0100
0001
0000
0010
0001
0010
0000
0100
0000
0000
0000
1000
0010
,
0100
0000
0010
1000
0100
0000
1000
0001
0010
0000
0100
0000
1000
0010
1000
0000
,
0010
0000
0010
1000
0010
0000
0010
0000
0010
1000
0010
0000
0010
0000
0100
0010
,
0100
0000
0100
0010
0100
0000
0110
0000
0001
0010
0100
0000
1100
0000
0001
0100
,
0010
1000
0010
1000
0100
0000
1000
0001
0010
0000
0100
0000
0010
0001
0010
0001
,
1000
0000
0010
1000
0001
0000
0010
0100
1000
0000
0010
0000
1000
0001
1000
0000
,
0010
0000
0010
0100
0010
0000
0010
0000
0010
0100
0010
0000
0010
0000
0001
0010
,
1000
0000
0100
0010
0100
0000
1100
0000
0001
0100
0010
0000
0110
0000
1000
0100
,
0010
0000
0001
0010
0001
0000
0010
0000
0100
0000
0100
1000
0200
0000
0000
0000
,
1000
0000
0000
0000
1300
0000
0010
0000
0100
0010
0100
0000
0100
0000
0001
0010
,
0100
0000
1000
0001
1000
0000
0010
0000
0100
0000
0100
0001
2000
0000
0000
0000
,
3001
0100
0001
0010
0100
1000
0002
0000
,
1003
0000
0010
1000
0100
0000
1000
0000
0001
0000
0001
0010
0100
0000
1000
0000
,
0010
0000
0100
0000
0001
0000
0010
0000
0100
0010
0100
0000
0100
0000
0010
0100
,
1000
0100
1000
0100
0010
0001
0010
0001
1000
0100
1000
0100
0010
0001
0010
0001
,
0020
0000
0100
0100
0100
0000
0100
0000
0100
0100
0130
0000
1001
0000
0000
0000
1100
0000
0000
0000
0000
0000
0000
0000
1100
0000
0000
0000
0001
0000
0000
0000
,
0010
0000
1000
0101
1001
0000
0110
0000
,
0101
1001
0000
1100
0101
0000
0101
1000
,
0100
0000
0001
1100
1001
0000
0110
0100
,
1100
1001
0000
0001
1000
0000
1010
0001
,
0100
0000
1000
0011
1001
0000
0110
0000
,
0011
1001
0000
1010
0011
0000
0011
1000
,
0010
0000
0001
1010
1001
0100
1000
0100
,
0001
0000
0100
0000
1000
0000
0000
0000
0220
0000
0330
0000
1000
0000
0001
0010
,
0100
0000
0000
0000
0010
0000
0001
1000
0010
0000
0000
0000
0010
0000
0000
0000
,
0100
0001
0020
0000
0000
0000
0130
1000
0100
0000
0000
0000
1000
0001
0100
0000
,
0010
0000
0000
0000
0010
0000
1000
0100
0010
0000
0000
0000
0010
0000
0000
0000
,
0010
0100
1000
0000
0000
0000
0001
0000
1000
0000
0010
0000
0100
0000
0010
1000
,
0100
0000
0001
0000
0100
0000
1000
0001
0100
0000
1000
0000
0100
0000
0001
0000
,
0010
0100
1000
0000
0010
0000
0100
0001
0100
0000
0001
0000
1000
0010
0100
0000
,
0001
0000
1000
0000
0100
0000
0010
0100
1000
0000
0010
0000
1000
0000
0100
0000
,
0010
0001
0100
0000
0001
0000
1000
0000
0100
0000
0000
0000
0011
0000
0100
0000
,
1000
0000
0000
0000
0010
0000
1000
0000
0100
0000
0000
0100
0010
0000
0001
0000
,
1000
0010
0000
0100
1001
0000
0100
0001
,
0010
0000
0000
0000
0100
0000
1000
0000
0010
0000
0000
0100
0010
0000
1000
0000
,
0001
0000
0010
0000
0001
0000
0000
0000
0001
0000
0100
0000
0010
0000
1000
0100
,
1000
0000
0010
0000
0100
0000
0001
0010
0001
0000
0010
0000
1000
0000
0010
0000
,
0001
0100
0010
0000
1000
0000
0001
1000
0001
0000
0010
0000
1000
0000
0010
0100
,
0010
0000
0001
0000
0100
0000
0010
1000
0001
0000
0010
0000
1000
0000
0010
0000
,
0001
0100
0020
0000
0030
0000
0000
0000
;

//---------------dance-single - ----------------
#NOTES:
     dance-single:
     :
     Hard:
     6:
     0.354853,0.335437,0.208333,0.120192,0.000000,310.000000,284.000000,26.000000,15.000000,0.000000,0.000000,0.354853,0.335437,0.208333,0.120192,0.000000,310.000000,284.000000,26.000000,15.000000,0.000000,0.000000:
0000
0000
0000
0000
,
0000
0000
0000
0000
,
1000
0000
0110
0000
0001
0010
0001
0100
,
0000
0010
1000
0100
0010
0001
1000
0000
,
0010
0000
0101
1000
0001
0010
0100
1000
,
0000
0001
0010
0001
0100
0010
1000
0000
,
1001
0000
0001
1000
0100
0001
0100
1000
,
0000
0010
0000
0100
0001
0010
0001
0100
,
0010
1000
0100
0010
0000
0000
1100
0000
,
0001
0001
0010
0010
0100
0100
2000
0000
,
3002
0000
0000
0020
0000
0000
0000
0003
,
0230
0000
0000
2000
0000
0000
0000
0300
,
3001
0001
0001
1000
1000
1000
0001
1000
,
0010
0010
0010
0100
0100
0100
0010
0100
,
0002
0000
0000
2000
0000
0000
0000
0003
,
3200
0000
0000
0020
0000
0000
0000
0300
,
0031
0010
0001
1000
0010
1000
0001
0100
,
0001
0001
0010
0010
0100
0100
2000
0000
,
3001
0100
0001
0010
0100
1000
0020
0000
,
1030
0100
1000
0010
0100
0100
0010
0100
,
0001
0010
0001
0100
0010
1000
0200
0000
,
0310
0010
0001
0001
1000
1000
0020
0000
,
1030
0010
1000
0010
0100
0001
0100
0001
,
1000
0100
1000
0100
0010
0001
0010
0001
,
1000
0010
0001
0010
1000
0100
0001
0100
,
2000
0000
0000
3001
1100
0000
0001
0100
,
1000
0000
0100
0001
1000
0000
1100
0000
,
0001
0010
0000
0001
0100
0000
0010
1000
,
0100
0000
0010
0100
1000
0000
1010
1000
,
0001
0100
0000
0001
1000
0000
1100
0100
,
0001
0000
0100
1000
0001
0000
0101
0000
,
1000
0010
0000
1000
0100
0000
0010
0001
,
0100
0000
0010
0100
0001
0000
0011
0001
,
1000
0100
0000
1000
0020
0000
0130
1001
,
0010
0000
0100
1100
0010
0000
0011
0000
,
0101
0100
0000
0010
1000
0000
0100
1001
,
0010
0000
0100
0010
1001
0000
0101
0000
,
0110
1000
0000
0001
0010
0000
0100
1001
,
0100
0000
0010
1001
0010
0000
0110
0000
,
1001
0001
0000
0100
0010
0000
1010
0001
,
0010
0000
0100
1000
0010
0000
1010
0000
,
0110
0000
0000
0000
0101
0000
0010
1000
,
0001
0000
0000
0010
0100
0000
0100
0000
,
0100
1000
0000
0001
0100
0000
0010
1000
,
0100
0000
0010
0100
1000
0000
0100
0100
,
1000
1000
0000
0000
0001
0100
0010
1000
,
1000
0100
0010
0001
0001
1000
0010
1000
,
0001
0001
0010
0100
0100
1000
0010
0100
,
0100
0001
0010
0100
0100
1000
0100
0001
,
0100
1000
0010
0000
0000
0000
0000
0000
;

//---------------dance-single - ----------------
#NOTES:
     dance-single:
     :
     Medium:
     4:
     0.235806,0.294471,0.024038,0.056090,0.000000,206.000000,203.000000,3.000000,7.000000,0.000000,0.000000,0.235806,0.294471,0.024038,0.056090,0.000000,206.000000,203.000000,3.000000,7.000000,0.000000,0.000000:
0000
0000
0000
0000
,
0000
0000
0000
0000
,
1000
0000
0001
1000
0000
0000
0100
0000
,
0010
0000
0100
1000
0100
0000
1000
0000
,
0001
0000
0100
0001
0000
0000
1000
0000
,
0001
0000
0010
0100
0010
0000
0100
0000
,
1000
0000
0010
1000
0000
0000
0010
0000
,
0100
0000
0001
1000
0001
0000
0010
0000
,
0100
0000
0010
0100
0000
0000
0010
0000
,
0002
0100
0003
0101
,
0020
0000
0000
0000
,
2030
0000
0000
0000
,
3001
0001
0001
0001
,
0010
0000
0010
0000
0010
0000
0010
0100
,
2000
0000
0000
0000
,
3020
0000
0000
0000
,
0130
0100
0100
0100
,
0001
0001
0001
0001
,
1000
0100
1000
0010
,
0100
0001
0010
0100
,
1000
0001
1000
0100
,
0010
0000
0001
0000
0100
0001
0100
0000
,
0001
0100
0001
0000
0001
0100
0001
0000
,
1000
0010
1000
0000
1000
0010
1000
0000
,
0001
1000
0001
1000
0001
0000
1001
0000
,
0220
0000
0000
0330
1000
0000
0001
1000
,
0001
0000
0000
1000
0001
0000
0001
0000
,
0001
1000
0000
0010
0100
0000
0001
1000
,
0001
0000
0000
0010
0100
0000
1000
0100
,
1000
0100
0000
0000
0000
0000
1000
0001
,
0100
0000
0000
0001
0100
0000
0100
0000
,
0100
0001
0000
1000
0100
0000
0010
0100
,
0010
0000
0000
0100
1000
0000
0100
1000
,
0100
1000
0000
0000
0001
0000
0000
0100
,
0010
0000
0000
1000
0001
0000
1000
0000
,
0001
1000
0000
0100
0100
0000
0000
0010
,
0010
0000
0000
0001
0001
0000
1000
0000
,
0001
0100
0000
0010
0000
0000
0000
1000
,
0001
0000
0000
0010
0100
0000
0100
0000
,
1000
1000
0000
0001
0100
0000
0000
0001
,
1000
0000
0000
0100
0010
0000
0010
0000
,
0010
0000
0000
0000
0001
0000
0100
0001
,
0100
0000
0000
0010
1000
0000
0010
0000
,
0100
0010
0000
1000
0001
0000
0010
0001
,
0010
0000
0000
0100
1000
0000
0001
1000
,
0001
1000
0000
0000
0001
0000
0100
0010
,
0010
0000
1000
0001
0001
0000
1000
0000
,
0001
1000
0000
0100
0100
0000
0010
0100
,
0010
0000
0001
1000
0010
0000
0010
0000
,
0010
0000
0000
0000
;

//---------------dance-single - ----------------
#NOTES:
     dance-single:
     :
     Easy:
     2:
     0.141941,0.157051,0.024038,0.040064,0.000000,124.000000,121.000000,3.000000,5.000000,0.000000,0.000000,0.141941,0.157051,0.024038,0.040064,0.000000,124.000000,121.000000,3.000000,5.000000,0.000000,0.000000:
// measure 0
0000
0000
0000
0000
,  // measure 1
0000
0000
0000
0000
,  // measure 2
1000
0100
0000
1000
,  // measure 3
0001
0100
0000
0001
,  // measure 4
1000
0001
0000
0010
,  // measure 5
0100
1000
0000
0001
,  // measure 6
1000
0001
0000
0100
,  // measure 7
0001
1000
0000
0100
,  // measure 8
1000
0100
0000
0010
,  // measure 9
0002
0000
0000
0003
,  // measure 10
2000
0000
0000
3000
,  // measure 11
0002
0000
0000
0003
,  // measure 12
0100
0100
0100
0000
,  // measure 13
0010
0010
0010
0000
,  // measure 14
2000
0000
0000
3000
,  // measure 15
0200
0000
0000
0300
,  // measure 16
0010
0010
0010
0000
,  // measure 17
0100
0100
0100
0000
,  // measure 18
1000
0000
1000
0000
,  // measure 19
0001
0000
0001
0000
,  // measure 20
0100
0000
0100
0000
,  // measure 21
0010
1000
0010
0000
,  // measure 22
1000
0100
1000
0000
,  // measure 23
0001
0100
0001
0000
,  // measure 24
1000
0001
1000
0001
,  // measure 25
1000
0000
0000
1000
,  // measure 26
0001
0000
0100
0100
,  // measure 27
0100
0000
0001
1000
,  // measure 28
0001
0000
0010
0010
,  // measure 29
0010
0000
0000
0100
,  // measure 30
1000
0000
0010
0010
,  // measure 31
0010
0000
0100
0001
,  // measure 32
1000
0000
0001
0001
,  // measure 33
0001
0000
0000
0000
,  // measure 34
1000
0000
0001
1000
,  // measure 35
0001
0000
0100
0000
,  // measure 36
0010
0000
1000
0001
,  // measure 37
1001
0000
1000
0000
,  // measure 38
0100
0000
0010
0100
,  // measure 39
0010
0000
0001
0000
,  // measure 40
1000
0000
0001
1000
,  // measure 41
1001
0000
1000
0000
,  // measure 42
0001
0000
0100
0100
,  // measure 43
0100
0010
1000
0000
,  // measure 44
0001
0000
1000
1000
,  // measure 45
1000
0001
1001
0000
,  // measure 46
0001
0000
0010
0010
,  // measure 47
0010
0000
0100
0000
,  // measure 48
1000
0000
0001
0001
,  // measure 49
0001
0000
0000
0000
;

//---------------dance-single - ----------------
#NOTES:
     dance-single:
     :
     Beginner:
     1:
     0.072115,0.116587,0.000000,0.008013,0.000000,63.000000,63.000000,0.000000,1.000000,0.000000,0.000000,0.072115,0.116587,0.000000,0.008013,0.000000,63.000000,63.000000,0.000000,1.000000,0.000000,0.000000:
// measure 0
0000
0000
0000
0000
,  // measure 1
0000
0000
0000
0000
,  // measure 2
0001
0000
0000
0000
,  // measure 3
1000
0000
0000
0000
,  // measure 4
0010
0000
0000
0000
,  // measure 5
0100
0000
0000
0000
,  // measure 6
0001
0000
0000
0000
,  // measure 7
1000
0000
0000
0000
,  // measure 8
0100
0000
0000
0000
,  // measure 9
1000
0000
0000
0000
,  // measure 10
0001
0000
0000
0000
,  // measure 11
0100
0000
0000
0000
,  // measure 12
0010
0010
0010
0000
,  // measure 13
1000
0000
0000
0000
,  // measure 14
0001
0000
0000
0000
,  // measure 15
1000
0000
0000
0000
,  // measure 16
0100
0100
0100
0000
,  // measure 17
0010
0000
0000
0000
,  // measure 18
0100
0000
0000
0000
,  // measure 19
1000
0000
0000
0000
,  // measure 20
0010
0000
0000
0000
,  // measure 21
0100
0100
0100
0000
,  // measure 22
0001
0000
0000
0000
,  // measure 23
1000
0000
0000
0000
,  // measure 24
0001
0000
1000
0000
,  // measure 25
0002
0003
0000
0000
,  // measure 26
0000
0000
0000
0000
,  // measure 27
0000
0000
1000
0000
,  // measure 28
0000
0000
0010
0000
,  // measure 29
0000
0000
0100
0000
,  // measure 30
0000
0000
0001
0000
,  // measure 31
0000
0000
1000
0000
,  // measure 32
0000
0000
0001
0001
,  // measure 33
0001
0000
1000
0000
,  // measure 34
1000
0000
1000
0000
,  // measure 35
0000
0000
0010
0000
,  // measure 36
0010
0000
0010
0000
,  // measure 37
0000
0000
0100
0000
,  // measure 38
0100
0000
0100
0000
,  // measure 39
0000
0000
0001
0000
,  // measure 40
0001
0000
0001
0000
,  // measure 41
0000
0000
0100
0000
,  // measure 42
0100
0000
0100
0000
,  // measure 43
0000
0000
1000
0000
,  // measure 44
1000
0000
1000
0000
,  // measure 45
0000
0000
0001
0000
,  // measure 46
0001
0000
0001
0000
,  // measure 47
0000
0000
0100
0000
,  // measure 48
0100
0000
0100
0000
;
