#VERSION:0.83;
#TITLE:My Heart Goes Up;
#SUBTITLE:;
#ARTIST:Keira Green;
#TITLETRANSLIT:;
#SUBTITLETRANSLIT:;
#ARTISTTRANSLIT:;
#GENRE:;
#ORIGIN:;
#CREDIT:;
#BANNER:;
#BACKGROUND:;
#PREVIEWVID:;
#JACKET:;
#CDIMAGE:;
#DISCIMAGE:;
#LYRICSPATH:;
#CDTITLE:;
#MUSIC:[Round C] - My Heart Goes Up.ogg;
#OFFSET:-1.155000;
#SAMPLESTART:41.568001;
#SAMPLELENGTH:11.960000;
#SELECTABLE:YES;
#BPMS:0.000=141.000;
#STOPS:;
#DELAYS:;
#WARPS:;
#TIMESIGNATURES:0.000=4=4;
#TICKCOUNTS:0.000=4;
#COMBOS:0.000=1;
#SPEEDS:0.000=1.000=0.000=0;
#SCROLLS:0.000=1.000;
#FAKES:;
#LABELS:0.000=Song Start;
#BGCHANGES:;
#KEYSOUNDS:;
#ATTACKS:
;

//---------------dance-single - ----------------
#NOTEDATA:;
#CHARTNAME:;
#STEPSTYPE:dance-single;
#DESCRIPTION:;
#CHARTSTYLE:;
#DIFFICULTY:Hard;
#METER:7;
#RADARVALUES:0.557301,0.599795,0.263451,0.709292,0.081062,385.000000,359.000000,26.000000,70.000000,0.000000,0.000000,0.000000,0.000000,0.000000,0.557301,0.599795,0.263451,0.709292,0.081062,385.000000,359.000000,26.000000,70.000000,0.000000,0.000000,0.000000,0.000000,0.000000;
#CREDIT:;
#NOTES:
0000
0000
0000
0000
,
0000
0000
0000
0000
,
0000
0000
0000
0000
,
0000
0000
0000
0000
,
1000
1000
1000
1000
,
0010
0010
0010
0010
,
0100
0100
0100
0100
,
1001
0000
0000
0000
0001
1000
0010
1000
,
0100
0010
0001
0010
0100
0010
0001
0100
,
1000
0100
0010
0100
1000
0100
0010
1000
,
0100
1000
0010
1000
0100
1000
0010
0100
,
0001
0100
0010
0100
0001
0100
0020
0000
,
0130
1000
0100
0001
0100
1000
0100
0010
,
1000
0100
0001
0100
1000
0100
0001
0100
,
1000
0010
0100
0010
1000
0010
0100
0001
,
2001
0000
0000
0000
0000
0000
3001
0010
,
0200
0300
0200
0300
0200
0300
0200
0300
,
2000
0000
0010
3001
0000
0000
0001
0100
,
0020
0000
2030
0000
3200
0000
1300
1000
,
0001
0000
0101
0000
0100
0010
1000
0001
,
0022
0033
0022
0033
0022
0033
0022
0033
,
0202
0300
0010
1003
0001
0100
0010
1000
,
2200
0300
0020
0030
0002
3003
0102
0103
,
0220
0030
0302
0023
0000
0130
0010
0001
,
1001
1000
0100
0001
0100
1000
0010
0100
,
0002
0000
2003
0010
3010
1000
0100
0010
,
0002
0000
0100
0000
1000
0000
0013
0010
,
0100
1000
0100
0001
0100
1000
0010
0100
,
0101
0001
0010
1000
0010
0001
0010
0100
,
2000
0000
3020
0100
0130
0010
1000
0100
,
0020
0000
1000
0000
0100
0000
0031
0001
,
0200
0000
0000
0000
0310
0000
1000
0000
0001
0010
0001
0010
0001
0010
0001
0010
,
0100
0100
0001
0100
1000
0100
0010
0001
,
0200
0000
0320
1000
1030
0010
0100
0001
,
0012
0000
0100
0000
1000
0000
0013
0010
,
1001
0000
0100
0100
1001
0000
0010
0100
,
1001
0001
0010
1000
0010
0001
0100
0010
,
2000
0000
3002
0010
0013
0001
0100
0010
,
2000
0000
0010
0000
0001
0000
3100
0100
,
2000
0000
3010
0200
0000
0301
0010
0100
,
1000
0001
1000
0000
0020
0000
0230
0000
0301
1000
0001
0000
0020
0000
0230
0000
,
1300
0001
1000
0000
0020
0000
0230
0000
0301
0000
2000
0000
3200
0000
0320
0000
,
0031
1000
0001
0000
0200
0000
0320
0000
1030
0001
1000
0000
0200
0000
0320
0000
,
0031
1000
0001
0000
0200
0000
0320
0000
1030
0000
0002
0000
0023
0000
0230
0000
,
1300
0001
0100
0000
0100
0000
0010
0000
1000
0001
0010
0000
0010
0000
0100
0000
,
1000
0001
0100
0000
0100
0000
0010
0000
1010
0000
1000
0000
0100
0000
0010
0000
,
0001
1000
0010
0000
0010
0000
0100
0000
0001
1000
0100
0000
0100
0000
0010
0000
,
0001
1000
0010
0000
0010
0000
0100
0000
0001
0000
0010
0000
0100
0000
1000
0000
,
1001
0001
0100
1000
0100
0001
0010
1000
,
0010
0001
0100
0001
0010
0001
0100
0010
,
2010
0000
0001
0000
0100
0000
3010
0010
,
1001
1000
0100
0010
0011
0001
0100
0010
,
1010
1000
0100
0001
0100
1000
0100
0001
,
0100
1000
0010
1000
0100
1000
0010
0100
,
0102
0000
1000
1000
0000
0013
0000
0102
,
0000
2003
0000
3020
0000
0230
0000
0301
,
2002
0000
0000
3003
0000
0000
0000
0000
;

//---------------dance-single - ----------------
#NOTEDATA:;
#CHARTNAME:;
#STEPSTYPE:dance-single;
#DESCRIPTION:;
#CHARTSTYLE:;
#DIFFICULTY:Medium;
#METER:6;
#RADARVALUES:0.441498,0.514110,0.273584,0.689026,0.000000,305.000000,278.000000,27.000000,68.000000,0.000000,0.000000,0.000000,0.000000,0.000000,0.441498,0.514110,0.273584,0.689026,0.000000,305.000000,278.000000,27.000000,68.000000,0.000000,0.000000,0.000000,0.000000,0.000000;
#CREDIT:;
#NOTES:
0000
0000
0000
0000
,
0000
0000
0000
0000
,
0000
0000
0000
0000
,
0000
0000
0000
0000
,
1000
1000
1000
1000
,
0010
0010
0010
0010
,
0100
0100
0100
0100
,
1001
0000
0000
0000
0001
1000
0001
1000
,
0001
0000
0100
0001
0000
0200
0000
0320
,
0000
2030
0000
3002
0000
0100
0000
0103
,
0020
0000
2030
0000
3002
0000
0013
0200
,
0000
1000
0000
0010
0000
1300
1000
0001
,
0100
0000
0010
2000
0000
3002
0000
0023
,
0000
0230
0000
2300
0000
0000
3010
0100
,
0020
0000
1030
0002
0000
0023
0000
0130
,
1000
0020
0000
0230
0000
0301
1000
0100
,
0010
0010
0010
0010
,
0200
0000
1300
0001
0000
0000
0001
0100
,
0020
0000
2030
0000
3002
0000
0013
0100
,
0000
0000
0000
0000
0000
0000
1000
0010
,
0100
0100
0100
0100
,
0020
0000
0130
0002
0000
0000
0013
0100
,
2000
0000
3002
0000
0023
0000
0130
1000
,
0001
0000
0001
0200
0000
0310
1000
0001
,
1001
1001
1001
1010
,
0101
0000
0001
1000
0100
0000
0010
0100
,
2000
0000
3020
0000
0230
0000
0301
0001
,
1000
0000
1100
0000
1010
0000
0010
1000
,
1001
1001
1001
1100
,
0011
0000
0001
0100
0010
0000
0010
1000
,
0002
0000
0023
0000
0230
0000
1300
0002
,
0100
0003
0001
0200
0000
0310
1000
0001
,
1001
1001
1001
1010
,
0101
0000
0001
1000
0100
0000
0010
0100
,
2000
0000
3020
0000
0230
0000
0301
0001
,
1000
0000
1100
0000
1010
0000
0010
1000
,
1001
1001
1001
1100
,
0011
0000
0001
0100
0010
0000
0010
1000
,
0002
0000
0023
0000
0230
0000
1300
0002
,
0100
0003
0001
0200
0000
0310
1000
0001
,
1000
0100
0010
0100
1000
0100
0010
0100
,
1000
0010
0100
0010
1000
0010
0100
0001
,
0010
0100
0010
0001
0010
0100
0010
0001
,
0100
0010
0100
0001
0100
0010
0100
0001
,
1000
0100
0010
0100
1000
0100
0010
0100
,
1000
0010
0100
0010
1000
0010
0100
0001
,
0010
0100
0010
0001
0010
0100
0010
0001
,
0100
0010
0100
0001
0100
0010
0100
0001
,
2001
0000
3010
2000
0000
3002
0000
0023
,
0000
0230
0000
2300
0000
0010
3000
0010
,
0200
0000
0302
0000
0023
0000
0130
1000
,
0001
0000
0100
0001
1000
0000
0010
1000
,
1002
0000
0103
0002
0000
2003
0000
3200
,
0000
0320
0000
0032
0000
0103
0010
1000
,
0200
0000
0310
0200
0000
0320
0000
0032
,
0000
0203
0000
0320
0000
2030
0000
3002
,
2000
0000
0000
3003
0000
0000
0000
0000
;

//---------------dance-single - ----------------
#NOTEDATA:;
#CHARTNAME:;
#STEPSTYPE:dance-single;
#DESCRIPTION:;
#CHARTSTYLE:;
#DIFFICULTY:Easy;
#METER:3;
#RADARVALUES:0.293849,0.314178,0.081062,0.233053,0.000000,203.000000,195.000000,8.000000,23.000000,0.000000,0.000000,0.000000,0.000000,0.000000,0.293849,0.314178,0.081062,0.233053,0.000000,203.000000,195.000000,8.000000,23.000000,0.000000,0.000000,0.000000,0.000000,0.000000;
#CREDIT:;
#NOTES:
// measure 0
0000
0000
0000
0000
,  // measure 1
0000
0000
0000
0000
,  // measure 2
0000
0000
0000
0000
,  // measure 3
0000
0000
0000
0000
,  // measure 4
1000
1000
1000
1000
,  // measure 5
0001
0001
0001
0001
,  // measure 6
1000
1000
1000
1000
,  // measure 7
1001
0000
0000
0000
,  // measure 8
0001
0100
0010
0100
,  // measure 9
0001
0010
0100
0010
,  // measure 10
0001
1000
0010
1000
,  // measure 11
0001
0010
0100
1000
,  // measure 12
0010
1000
0100
0010
,  // measure 13
0001
0100
0010
1000
,  // measure 14
0100
0010
0100
1000
,  // measure 15
0001
0100
0010
0100
,  // measure 16
0001
0001
0001
0001
,  // measure 17
2000
0000
0002
3003
0000
0000
1000
0000
,  // measure 18
1000
0000
0010
0000
0100
0000
0002
0003
,  // measure 19
1000
0000
0000
0001
,  // measure 20
0011
0010
0010
0010
,  // measure 21
0100
0100
0100
0100
,  // measure 22
1000
0010
0100
0001
,  // measure 23
1000
0100
0010
0001
,  // measure 24
1000
1000
1000
0100
,  // measure 25
0020
0000
0200
0330
0000
0000
1000
0000
,  // measure 26
1001
0000
0001
0000
0200
0000
0020
0330
,  // measure 27
0100
0001
1000
0100
,  // measure 28
0010
0010
0010
0100
,  // measure 29
2000
0000
0002
3003
0000
0000
0001
0000
,  // measure 30
0101
0000
0100
0000
0020
0000
2000
3030
,  // measure 31
0010
0000
2000
3000
0000
0000
0001
0000
,  // measure 32
1001
1000
1000
0010
,  // measure 33
0200
0000
0002
0303
0000
0000
0001
0000
,  // measure 34
1001
0000
1000
0000
0200
0000
0020
0330
,  // measure 35
0100
1000
0010
0100
,  // measure 36
0001
0001
0001
0100
,  // measure 37
0020
0000
2000
3030
0000
0000
1000
0000
,  // measure 38
1001
0000
0001
0000
0020
0000
0200
0330
,  // measure 39
0010
0000
0200
0300
0000
1000
0001
0000
,  // measure 40
1001
1000
1000
1000
,  // measure 41
1000
1000
0010
0100
,  // measure 42
0001
0001
0001
0001
,  // measure 43
0001
0001
0010
0100
,  // measure 44
1000
1000
1000
1000
,  // measure 45
1000
1000
0010
0100
,  // measure 46
0001
0001
0001
0001
,  // measure 47
0001
0001
0010
0100
,  // measure 48
1000
0010
0100
0010
,  // measure 49
1000
0100
0010
0100
,  // measure 50
1000
0001
0100
0010
,  // measure 51
1000
0100
0010
0001
,  // measure 52
0100
0010
1000
0001
,  // measure 53
0010
0100
1000
0010
,  // measure 54
0100
0001
0010
0100
,  // measure 55
2000
0000
0000
0000
,  // measure 56
0002
0000
0000
3003
0000
0000
0000
0000
;
