#VERSION:0.83;
#TITLE:Love Pains;
#SUBTITLE:;
#ARTIST:Hazell Dean;
#TITLETRANSLIT:;
#SUBTITLETRANSLIT:;
#ARTISTTRANSLIT:;
#GENRE:;
#ORIGIN:;
#CREDIT:;
#BANNER:Love Pains.png;
#BACKGROUND:Love Pains-bg.png;
#PREVIEWVID:;
#JACKET:Love Pains-jacket.png;
#CDIMAGE:;
#DISCIMAGE:;
#LYRICSPATH:;
#CDTITLE:;
#MUSIC:Love Pains.ogg;
#OFFSET:-2.091000;
#SAMPLESTART:62.723999;
#SAMPLELENGTH:27.028999;
#SELECTABLE:YES;
#BPMS:0.000=123.200;
#STOPS:;
#DELAYS:;
#WARPS:;
#TIMESIGNATURES:0.000=4=4;
#TICKCOUNTS:0.000=4;
#COMBOS:0.000=1;
#SPEEDS:0.000=1.000=0.000=0;
#SCROLLS:0.000=1.000;
#FAKES:;
#LABELS:0.000=Song Start;
#BGCHANGES:;
#KEYSOUNDS:;
#ATTACKS:
;

//---------------dance-single - ----------------
#NOTEDATA:;
#CHARTNAME:;
#STEPSTYPE:dance-single;
#DESCRIPTION:;
#CHARTSTYLE:;
#DIFFICULTY:Hard;
#METER:4;
#RADARVALUES:0.241446,0.298237,0.225350,0.732387,0.000000,180.000000,156.000000,24.000000,78.000000,0.000000,0.000000,0.000000,0.000000,0.000000,0.241446,0.298237,0.225350,0.732387,0.000000,180.000000,156.000000,24.000000,78.000000,0.000000,0.000000,0.000000,0.000000,0.000000;
#CREDIT:;
#NOTES:
0000
0000
0000
0000
,
0000
0000
0000
0000
,
0000
0000
0000
0000
,
0000
0000
0000
0000
,
0020
0000
0000
0100
,
2030
0000
0000
0010
,
3002
0000
0000
1000
,
0023
2030
3200
0302
,
0023
0000
1030
0000
,
1020
0000
1000
0100
,
0032
0000
0010
1000
,
0203
0000
0001
0310
,
0210
0000
1000
0010
,
0302
0000
0103
0001
,
2000
0010
3002
2003
,
3200
0302
0023
2030
,
3200
0000
0301
0000
,
0201
0000
0001
0010
,
2300
0000
0100
0001
,
3020
0000
1000
0130
,
0120
0000
0001
0100
,
2030
0000
3010
1000
,
0002
1003
0001
1001
,
2000
3200
0320
0130
,
0220
0000
0330
0000
,
0011
1001
1010
1100
,
2002
0000
3003
0000
,
1010
1100
1001
0101
,
0220
0000
0330
0000
,
0002
0013
0200
0310
,
0002
0000
2003
0000
,
3001
0001
0001
0110
,
1002
0000
0013
0000
,
0001
0010
0200
0301
,
0200
0310
1100
1001
,
1000
0010
0200
1300
,
0200
0310
0100
0001
,
2000
3100
0002
0103
,
2001
0000
3010
0000
,
1000
0010
0200
1300
,
0200
0310
0101
1001
,
0001
0010
0200
0301
,
0200
0310
0100
1000
,
0002
0103
2000
3100
,
1002
0000
0013
0001
,
0020
0100
1000
0100
,
0230
0000
2300
3020
,
0032
0203
2300
3020
,
0032
0000
0023
0032
,
0023
2030
3200
0302
,
0023
0000
0032
0023
,
2030
0000
3020
2030
,
3002
0000
0000
0000
1000
0000
0000
0000
1000
0000
0000
0000
2000
0000
0000
3003
;

//---------------dance-single - ----------------
#NOTEDATA:;
#CHARTNAME:;
#STEPSTYPE:dance-single;
#DESCRIPTION:;
#CHARTSTYLE:;
#DIFFICULTY:Challenge;
#METER:7;
#RADARVALUES:0.445334,0.497061,0.206571,0.244129,0.065727,332.000000,310.000000,22.000000,26.000000,0.000000,0.000000,0.000000,0.000000,0.000000,0.445334,0.497061,0.206571,0.244129,0.065727,332.000000,310.000000,22.000000,26.000000,0.000000,0.000000,0.000000,0.000000,0.000000;
#CREDIT:;
#NOTES:
// measure 0
0000
0000
0000
0000
,  // measure 1
0000
0000
0000
0000
,  // measure 2
0000
0000
0000
0000
,  // measure 3
0000
0000
0000
0000
,  // measure 4
1000
0000
0100
1000
0000
1000
0000
0000
1000
0000
0100
0000
0020
0000
0000
0000
,  // measure 5
0031
0000
0010
0001
0000
0001
0000
0000
0001
0000
1000
0000
0001
0000
0100
0000
,  // measure 6
0020
0100
1000
0130
,  // measure 7
0110
1010
1001
1100
,  // measure 8
0100
0010
0001
1000
0000
0001
1000
0010
,  // measure 9
0200
0000
0000
0310
0100
0010
2000
0000
,  // measure 10
3010
1000
0001
0010
0000
0001
0020
0000
,  // measure 11
0230
0000
0000
0000
0000
0000
0310
0000
0100
0000
0010
0000
0001
0010
0000
0000
,  // measure 12
0001
1000
0001
0100
0000
0001
0200
0000
,  // measure 13
0320
0000
0000
0000
0000
0100
0000
0000
1030
0000
0010
0000
1000
0000
0200
0000
,  // measure 14
0000
0010
0000
1300
0000
0100
1000
0001
,  // measure 15
1001
0101
0011
1010
,  // measure 16
1100
1000
0001
0100
0000
0001
0100
0010
,  // measure 17
0100
0001
0010
0011
0000
0001
0010
0100
,  // measure 18
1000
0100
0010
0001
0000
0010
0002
0000
,  // measure 19
2003
0000
0000
0000
3001
1000
0010
0100
,  // measure 20
0010
1000
0100
0010
0000
0100
0020
0000
,  // measure 21
0032
0000
0000
0000
0000
0010
0000
0000
1003
0000
0001
0000
0100
0000
0010
0000
,  // measure 22
0200
0010
0302
0000
1003
0001
1001
0000
,  // measure 23
2000
3200
0302
0023
,  // measure 24
1030
0100
0000
0100
1000
0001
0000
0001
,  // measure 25
0010
0100
0010
1000
0010
0100
0010
0001
,  // measure 26
0011
0010
0000
0010
0001
1000
0000
1000
,  // measure 27
0010
0100
0010
0001
0010
0100
0010
1000
,  // measure 28
1010
0010
0000
0010
1000
0001
0000
0001
,  // measure 29
0010
0100
1000
0001
0010
1000
0010
0001
,  // measure 30
2000
0000
0000
0000
0000
0000
3001
1000
0002
0000
0000
0000
0000
0000
0000
0000
,  // measure 31
1003
0000
1000
0001
1000
0000
0001
0000
1000
0000
0001
1000
0001
0000
1000
0000
,  // measure 32
1001
0000
0001
0100
0000
0100
0010
0001
,  // measure 33
0000
0001
0010
0100
1000
0100
0010
1000
,  // measure 34
0100
0000
1100
0000
0110
0000
0011
0001
,  // measure 35
0000
0001
0010
0100
0001
0100
0010
0001
,  // measure 36
1000
0000
0010
0000
1000
0010
0100
1000
,  // measure 37
0100
0010
0100
1000
0100
0010
1000
0001
,  // measure 38
1001
0000
1000
0100
0000
0100
0010
1000
,  // measure 39
0000
1000
0010
0100
0001
0100
0010
0001
,  // measure 40
0100
0000
0101
0000
0110
0000
1010
1000
,  // measure 41
0000
1000
0010
0100
1000
0100
0010
1000
,  // measure 42
0001
0000
0100
0000
0001
0100
0010
0001
,  // measure 43
0010
0100
0010
0001
0010
0100
0001
1000
,  // measure 44
1001
0000
0001
0010
0000
0001
0010
0100
,  // measure 45
1000
0100
2000
0000
0000
0000
0000
0000
0000
0000
3100
1000
0100
1000
0100
1000
,  // measure 46
0100
0010
0100
0001
0100
0010
0001
0100
,  // measure 47
0010
0001
0010
1000
0100
1000
0001
1000
,  // measure 48
0100
0000
1000
0100
0000
0100
0001
0100
,  // measure 49
1000
0000
1000
0010
0000
0010
0001
0010
,  // measure 50
1000
0010
0001
1000
0001
0010
1000
0000
,  // measure 51
0001
0010
1000
0001
1000
0010
0001
0000
,  // measure 52
0200
0000
0000
0000
0302
0000
0000
0000
2003
0000
0000
0000
0002
0000
0000
3003
;

//---------------dance-single - ----------------
#NOTEDATA:;
#CHARTNAME:;
#STEPSTYPE:dance-single;
#DESCRIPTION:;
#CHARTSTYLE:;
#DIFFICULTY:Medium;
#METER:4;
#RADARVALUES:0.213278,0.273384,0.000000,0.610323,0.009390,159.000000,159.000000,0.000000,65.000000,0.000000,0.000000,0.000000,0.000000,0.000000,0.213278,0.273384,0.000000,0.610323,0.009390,159.000000,159.000000,0.000000,65.000000,0.000000,0.000000,0.000000,0.000000,0.000000;
#CREDIT:;
#NOTES:
0000
0000
0000
0000
,
0000
0000
0000
0000
,
0000
0000
0000
0000
,
0000
0000
0000
0000
,
1000
0000
0000
0001
0000
0000
0100
0000
0002
0000
0000
0000
0203
0000
0000
0000
,
0310
0000
0000
0100
0000
0000
0001
0000
2000
0000
0000
0000
3002
0000
0000
0000
,
0023
0100
0001
0100
,
0032
0203
0302
2003
,
3002
0000
0000
0203
0000
0000
0310
0000
,
0200
0000
0310
1000
,
0200
0000
0000
0310
0000
0000
0200
0000
,
2300
0000
3002
1000
,
0203
0000
0000
0310
0000
0000
0200
0000
,
0302
0000
1003
0100
,
0020
0001
0130
0020
,
0032
0203
0320
2030
,
3002
0000
0000
0103
0000
0000
0200
0000
,
0320
0000
0000
0130
0000
0000
0010
0000
,
2000
0000
0000
3100
0000
0000
0200
0000
,
0320
0000
0130
0010
,
0002
0000
0000
0103
0000
0000
0002
0000
,
2003
0000
3001
1000
,
0020
0100
0001
0130
,
0020
0230
0320
2030
,
3200
0000
0300
0000
,
2000
3200
0302
0203
,
2300
0000
3000
0000
,
0002
0203
2300
3200
,
0302
0003
0000
0000
,
1000
0100
0001
0010
,
2000
0000
3200
0000
,
0320
0000
0032
0010
,
2003
0000
0000
3010
0000
0000
0000
2000
,
0000
3010
0100
0010
,
1000
0000
0001
0000
0010
0000
0000
0001
,
0000
0001
0010
0001
,
0010
0100
0010
0001
,
0200
0301
0200
0310
,
0200
0000
0000
0301
0000
0000
0000
0200
,
0000
0301
1000
0100
,
0010
0001
1000
0100
,
0010
0100
1000
0001
,
1000
0000
0001
0100
,
0020
0130
0020
1030
,
0002
0000
0000
1003
0000
0000
0001
0000
,
2000
0000
0000
0000
,
3001
0000
0000
0001
0000
0000
0001
0000
,
0001
1000
0010
0100
,
0010
0000
0000
0010
0000
0000
0010
0000
,
1000
0000
0000
1000
0000
0000
1000
0000
,
0100
0000
0000
0001
0000
0000
0100
0000
,
1000
0000
0000
0010
0000
0000
0001
0000
,
0010
0000
0000
0000
1000
0000
0000
0000
0100
0000
0000
0000
2000
0000
0000
3000
;

//---------------dance-single - ----------------
#NOTEDATA:;
#CHARTNAME:;
#STEPSTYPE:dance-single;
#DESCRIPTION:;
#CHARTSTYLE:;
#DIFFICULTY:Beginner;
#METER:1;
#RADARVALUES:0.096579,0.124265,0.000000,0.215960,0.000000,72.000000,72.000000,0.000000,23.000000,0.000000,0.000000,0.000000,0.000000,0.000000,0.096579,0.124265,0.000000,0.215960,0.000000,72.000000,72.000000,0.000000,23.000000,0.000000,0.000000,0.000000,0.000000,0.000000;
#CREDIT:;
#NOTES:
0000
0000
0000
0000
,
0000
0000
0000
0000
,
0000
0000
0000
0000
,
0000
0000
0000
0000
,
1000
0000
0000
0000
,
0001
0000
0000
0000
,
0100
0000
0000
0000
,
0010
0000
0000
0000
,
0200
0000
0000
0000
,
0320
0000
0000
0000
,
2030
0000
0000
0000
,
3020
0000
0000
0000
,
2030
0000
0000
0000
,
3002
0000
0000
0000
,
2003
0000
0000
0000
,
3200
0000
0000
0000
,
0310
0000
0010
0000
,
0001
0000
0001
0000
,
0100
0000
0100
0000
,
0010
0000
0010
0000
,
1000
0000
1000
0000
,
0001
0000
0001
0000
,
1000
0000
1000
0000
,
0002
0000
2003
0000
,
3001
0000
0000
0000
,
0002
0000
0000
0000
,
0103
0000
0000
0000
,
0200
0000
0000
0000
,
0310
0000
0000
0000
,
0020
0000
0000
0000
,
2030
0000
0000
0000
,
3002
0000
0000
0000
,
2003
0000
3100
0000
,
0100
0000
1000
0000
,
0001
0000
0000
0000
,
1000
0000
0100
0000
,
0010
0000
0000
0000
,
0001
0000
0010
0000
,
0200
0000
0310
0000
,
0010
0000
0001
0000
,
1000
0000
0000
0000
,
0001
0000
1000
0000
,
0010
0000
0000
0000
,
0100
0000
0010
0000
,
2000
0000
3001
0000
,
2000
0000
0000
0000
,
3002
0000
1000
0000
,
1000
0000
1000
0000
,
2003
0000
0001
0000
,
0001
0000
0001
0000
,
3200
0000
0010
0000
,
0010
0000
0010
0000
,
0320
0000
0000
0000
0000
0000
0000
0000
0000
0000
0000
0000
0000
0000
0000
0030
;

//---------------dance-single - ----------------
#NOTEDATA:;
#CHARTNAME:;
#STEPSTYPE:dance-single;
#DESCRIPTION:;
#CHARTSTYLE:;
#DIFFICULTY:Easy;
#METER:2;
#RADARVALUES:0.142185,0.173971,0.000000,0.431921,0.000000,106.000000,106.000000,0.000000,46.000000,0.000000,0.000000,0.000000,0.000000,0.000000,0.142185,0.173971,0.000000,0.431921,0.000000,106.000000,106.000000,0.000000,46.000000,0.000000,0.000000,0.000000,0.000000,0.000000;
#CREDIT:;
#NOTES:
0000
0000
0000
0000
,
0000
0000
0000
0000
,
0000
0000
0000
0000
,
0000
0000
0000
0000
,
2000
0000
0000
0000
,
3200
0000
0000
0000
,
0320
0000
0000
0000
,
0032
0000
1000
0000
,
0203
0000
0310
0000
,
0200
0000
0010
0000
,
0302
0000
0000
0000
,
2003
0000
0000
0001
,
3002
0000
0000
0000
,
0023
0000
0230
0000
,
2300
0000
0100
0100
,
3200
0000
2300
0000
,
3002
0000
0103
0000
,
0002
0000
1003
0000
,
0002
0000
0103
0000
,
0002
0000
2003
0000
,
3020
0000
0130
0000
,
0020
0000
1030
0000
,
0020
0000
1030
0000
,
0002
0000
2003
0000
,
3200
0000
0300
0000
,
0100
0100
0100
0100
,
0100
0000
0000
0000
,
0010
0010
0010
0010
,
0010
0000
0000
0000
,
0001
0000
0010
0000
,
0002
0000
0103
0000
,
0002
1000
1000
1000
,
2003
0000
3010
0000
,
0020
0000
0130
0100
,
0100
0000
0000
0000
,
0010
0100
0010
0010
,
0010
0000
0200
0000
,
0302
0000
0023
0000
,
0230
0000
1300
0000
,
2000
0000
3001
0001
,
0001
0000
0000
0000
,
1000
0001
1000
1000
,
1000
0000
0020
0000
,
0230
0000
0302
0000
,
2003
0000
3002
0000
,
0023
0000
0000
0000
,
0230
0000
0010
0000
,
0001
0001
0001
0001
,
0302
0000
0100
0000
,
1000
1000
1000
1000
,
2003
0000
3100
0000
,
0200
0000
0310
0000
,
0020
0000
0000
0000
0001
0000
0000
0000
0001
0000
0000
0000
0002
0000
0000
0033
;
