#VERSION:0.83;
#TITLE:禁じられた契約;
#SUBTITLE:;
#ARTIST:フレディ波多江とエレハモニカ;
#TITLETRANSLIT:Kinjirareta Chigiri;
#SUBTITLETRANSLIT:;
#ARTISTTRANSLIT:Freddie Hatae and Eleharmonica;
#GENRE:;
#ORIGIN:;
#CREDIT:;
#BANNER:[Round C] - Kinjirareta Chigiri.png;
#BACKGROUND:[Round C] - Kinjirareta Chigiri-bg.png;
#PREVIEWVID:;
#JACKET:[Round C] - Kinjirareta Chigiri-jacket.png;
#CDIMAGE:;
#DISCIMAGE:;
#LYRICSPATH:;
#CDTITLE:cdtitle.png;
#MUSIC:[Round C] - Kinjirareta Chigiri.ogg;
#OFFSET:-0.520000;
#SAMPLESTART:73.332718;
#SAMPLELENGTH:12.900002;
#SELECTABLE:YES;
#BPMS:0.000=110.000,
28.000=150.000,
266.000=145.000,
268.000=110.000,
296.000=100.000;
#STOPS:;
#DELAYS:;
#WARPS:;
#TIMESIGNATURES:0.000=4=4;
#TICKCOUNTS:0.000=4;
#COMBOS:0.000=1;
#SPEEDS:0.000=1.000=0.000=0;
#SCROLLS:0.000=1.000;
#FAKES:;
#LABELS:0.000=Song Start;
#BGCHANGES:;
#KEYSOUNDS:;
#ATTACKS:
;

//---------------dance-single - ----------------
#NOTEDATA:;
#CHARTNAME:;
#STEPSTYPE:dance-single;
#DESCRIPTION:;
#CHARTSTYLE:;
#DIFFICULTY:Hard;
#METER:9;
#RADARVALUES:0.531743,0.642926,0.220684,0.500217,0.261143,506.000000,476.000000,30.000000,68.000000,0.000000,0.000000,0.000000,0.000000,0.000000,0.531743,0.642926,0.220684,0.500217,0.261143,506.000000,476.000000,30.000000,68.000000,0.000000,0.000000,0.000000,0.000000,0.000000;
#CREDIT:;
#NOTES:
// measure 0
0000
0000
0000
0000
,  // measure 1
0000
0000
0000
0000
,  // measure 2
0000
0000
0000
0000
,  // measure 3
0000
0000
0000
0000
0000
0000
2000
3002
,  // measure 4
1003
0100
1000
0100
0010
0001
0010
0001
2000
0000
0000
0000
3000
0000
0010
0100
,  // measure 5
0001
0010
0100
1000
0200
0000
0320
0000
0032
0000
0000
0000
0000
0000
1003
0010
,  // measure 6
1000
0100
1000
0100
0010
0001
0010
0001
2000
0000
3020
0000
0032
0000
0023
0000
,  // measure 7
1030
0100
0000
1000
0001
1000
0000
0001
,  // measure 8
0100
0000
0001
0000
0000
0000
1000
0000
0001
0000
0010
0100
0010
0100
1000
0001
,  // measure 9
1000
0010
0100
0010
0000
1000
0001
0000
,  // measure 10
0010
0100
0010
0001
0000
1000
0010
0000
,  // measure 11
1000
0100
0001
0000
0101
0000
1100
0000
,  // measure 12
2002
0000
3003
1001
0000
1000
0010
0100
,  // measure 13
0001
0010
0100
0010
0000
0001
1000
0000
,  // measure 14
0010
0100
0010
1000
0000
0100
0010
0000
,  // measure 15
0001
0100
1000
0000
1100
0000
0101
0000
,  // measure 16
2002
0000
0000
0000
3003
0000
1000
0100
0020
0000
0000
0000
0000
0000
0000
0000
,  // measure 17
0230
0000
0000
1300
0001
0000
1000
0010
,  // measure 18
0100
0010
0001
0010
0100
0000
0001
0010
,  // measure 19
0200
0000
0000
1300
0010
0001
0010
1000
,  // measure 20
0001
0000
0010
0100
0010
0000
0100
0000
1000
0000
0001
0000
0001
0000
0100
0000
,  // measure 21
0020
0000
0000
1030
0001
0000
1000
0100
,  // measure 22
0010
0100
0001
0100
0010
0000
0001
0100
,  // measure 23
0020
0000
0000
1030
0100
0001
0100
1000
,  // measure 24
0002
0000
1000
0000
1003
0000
1000
0100
,  // measure 25
0020
0000
0000
0031
1000
0000
0001
0100
,  // measure 26
0010
0100
1000
0100
0010
0000
1000
0100
,  // measure 27
0020
0000
0000
0031
0100
1000
0100
0001
,  // measure 28
1000
0000
0100
0010
0100
0000
0010
0000
0001
0000
1000
0000
1000
0000
0010
0000
,  // measure 29
0200
0000
0000
0301
1000
0000
0001
0010
,  // measure 30
0100
0010
1000
0010
0100
0000
1000
0010
,  // measure 31
0200
0000
0000
0301
0010
1000
0010
0001
,  // measure 32
2000
0001
0001
3001
,  // measure 33
0002
0000
0000
0000
0000
0000
0103
0000
0020
0000
0000
2030
0000
0000
3100
0000
,  // measure 34
0020
0000
0000
0130
2000
0000
3010
0100
,  // measure 35
0002
0000
2003
0000
3001
0010
0100
1000
,  // measure 36
0001
0101
1100
1001
,  // measure 37
1000
0000
1000
0100
0010
0000
0010
0001
,  // measure 38
0100
0000
0100
0010
1000
0000
0001
0000
,  // measure 39
0010
0000
0001
1000
0010
1000
0001
0010
,  // measure 40
0100
1100
0101
0011
,  // measure 41
2002
0000
3000
0000
,  // measure 42
1003
0100
1000
0100
0010
0000
0001
0000
0100
0010
0100
0000
0010
1000
0010
0000
,  // measure 43
1000
0000
0000
0000
1001
0000
0000
0001
0010
0000
0000
0000
1001
0000
0000
1000
,  // measure 44
0010
0000
0000
0010
0100
0000
0001
0000
0010
0000
0100
0000
1000
0000
0000
0000
,  // measure 45
0001
0100
1000
0100
0002
0000
0023
0000
,  // measure 46
0031
0000
1000
0000
0010
0000
0100
0000
0001
0000
0010
0000
0100
1000
0100
1000
,  // measure 47
0001
0000
0000
0000
1001
0000
0000
1000
0010
0000
0000
0000
1001
0000
0000
0001
,  // measure 48
0010
0000
0000
0010
0100
0000
1000
0000
0010
0000
0100
0000
0001
0000
0000
0000
,  // measure 49
1000
0100
0001
0100
2000
0000
3020
0000
,  // measure 50
1030
0000
0000
0000
1001
0000
0000
0000
0001
0000
0010
0000
0100
1000
0100
1000
,  // measure 51
0001
0000
0000
0000
1001
0000
0000
1000
0010
0000
0000
0000
1001
0000
0000
0001
,  // measure 52
0010
0000
0000
0010
0100
0000
1000
0000
0010
0000
0100
0000
0001
0000
0000
0000
,  // measure 53
1000
0100
0001
0100
2000
0000
3020
0000
,  // measure 54
1030
0000
0001
0000
0010
0000
0100
0000
1000
0000
0010
0000
0100
0001
0100
0001
,  // measure 55
1000
0000
0000
0000
1001
0000
0000
0001
0010
0000
0000
0000
1001
0000
0000
1000
,  // measure 56
0010
0000
0000
0010
0100
0000
0001
0000
0010
0000
0100
0000
1000
0000
0000
0000
,  // measure 57
0001
0100
1000
0100
0002
0000
0023
0000
,  // measure 58
0031
0000
1000
0000
0001
0100
0001
0000
1000
0100
1000
0100
0010
0001
0010
0001
,  // measure 59
1000
0010
0100
0010
0000
1000
0001
0000
,  // measure 60
0010
0100
0010
0001
0000
1000
0010
0000
,  // measure 61
1000
0100
0001
0000
0101
0000
1100
0000
,  // measure 62
2002
0000
3003
1001
0000
1000
0010
0100
,  // measure 63
0001
0010
0100
0010
0000
0001
1000
0000
,  // measure 64
0010
0100
0010
1000
0000
0100
0010
0000
,  // measure 65
0001
0100
1000
0000
1100
0000
0101
0000
,  // measure 66
2002
0000
0000
0000
3003
0000
1000
0100
0020
0000
0000
0000
0000
0000
0000
0000
,  // measure 67
0031
0100
0001
1000
0100
1000
0001
0010
0200
0000
0000
0000
0000
0000
1300
0010
,  // measure 68
1000
0100
0010
0001
0020
0000
0230
0000
2300
0000
0000
0000
0000
0000
3001
0100
,  // measure 69
0001
0010
0001
0010
0100
1000
0100
1000
0020
0000
0230
0000
0302
0000
2003
0000
,  // measure 70
3200
0000
0000
0000
0000
0000
0320
0032
,  // measure 71
1003
0010
1000
0010
0100
0001
0100
0001
0020
0000
0000
0000
0000
0000
0130
1000
,  // measure 72
0001
0100
0010
1000
0020
0000
0230
0000
0302
0000
0000
0000
0000
0000
1003
0100
,  // measure 73
1000
0010
1000
0010
0100
0001
0100
0001
0020
0000
0230
0000
2300
0000
3002
0000
,  // measure 74
2003
0000
0000
0000
,  // measure 75
0002
0000
0000
0000
,  // measure 76
3003
0000
0000
0000
;

//---------------dance-single - ----------------
#NOTEDATA:;
#CHARTNAME:;
#STEPSTYPE:dance-single;
#DESCRIPTION:;
#CHARTSTYLE:;
#DIFFICULTY:Medium;
#METER:7;
#RADARVALUES:0.376214,0.419300,0.235396,0.294245,0.000000,358.000000,326.000000,32.000000,40.000000,0.000000,0.000000,0.000000,0.000000,0.000000,0.376214,0.419300,0.235396,0.294245,0.000000,358.000000,326.000000,32.000000,40.000000,0.000000,0.000000,0.000000,0.000000,0.000000;
#CREDIT:;
#NOTES:
0000
0000
0000
0000
,
0000
0000
0000
0000
,
0000
0000
0000
0000
,
0000
0000
0000
0000
0000
0000
1000
0001
,
1000
0100
0010
0001
2000
0000
0000
0000
,
3001
0100
0010
1000
0002
0000
0000
0000
,
1003
0100
1000
0100
0010
0001
0010
0001
,
0100
0000
0110
0000
,
0010
0000
0000
0000
1001
0000
1000
0001
,
2000
3020
0032
0023
,
2030
3200
0320
0030
,
0000
0011
1010
1100
,
0101
0000
0000
1001
0000
0001
1000
0100
,
0020
0230
2300
3020
,
0230
0302
2003
3000
,
0000
0011
1010
1100
,
0101
0000
0000
1000
0001
0000
0000
0000
,
1000
0010
1000
0001
,
0010
0000
0100
0010
0100
0000
1000
0001
,
1000
0010
0100
0001
,
0010
0100
0010
0100
1000
0001
1000
0000
,
0001
0100
0010
0100
,
0001
0000
1000
0100
1000
0000
0001
1000
,
0001
0010
0100
1000
,
0001
0000
1000
0000
0010
0100
0010
0100
,
0010
0000
1000
0100
0010
0000
0100
0000
,
1000
0000
0010
0000
0100
0000
0001
0010
,
0100
0000
0010
0000
0001
0000
1000
0001
,
1000
0010
1000
0010
0100
0000
0001
1000
,
0001
0000
0010
0100
1000
0000
0010
0100
,
0010
1000
0100
0010
,
0001
0000
1000
0001
0100
0000
0010
1000
,
0002
1000
1000
1003
,
1000
0100
0010
0001
,
1000
0010
0100
0001
,
0010
0100
1000
0001
,
0100
0010
1000
0001
,
1000
1000
0001
0001
,
1000
0100
0010
0001
,
0100
0100
0010
0010
,
1000
0001
0010
0100
,
2000
0000
3001
0000
,
1000
0100
1000
0100
0010
0001
0010
0001
,
1000
1010
0001
0011
,
1000
0000
1001
0000
0001
0100
0010
0000
,
1000
0100
1000
0100
0010
0000
0001
0000
,
0100
0000
0100
0000
0010
0000
1000
0001
,
1000
1100
0001
0101
,
1000
0000
1001
0000
0001
0010
0100
0000
,
1000
0010
1000
0010
0100
0000
0001
0000
,
0010
0000
0010
0000
0100
0000
1000
0001
,
0100
0110
0010
0110
,
1000
0000
1001
0000
0001
1000
0100
0000
,
0010
0001
0010
0001
0100
0000
0010
0000
,
1000
0000
1000
0000
0001
0000
1000
0001
,
0010
0110
0100
0110
,
1000
0000
1001
0000
0001
1000
0010
0000
,
0100
0001
0100
0001
0010
0000
0100
0000
,
1000
0000
1000
0000
0001
0000
0001
1000
,
0002
0023
2030
3020
,
0032
0203
0320
0030
,
0000
1010
0011
0101
,
1100
0000
0000
1001
0000
1000
0001
0100
,
0020
0230
0302
0023
,
0230
2300
3002
0003
,
0000
1010
0011
0101
,
1100
0000
0000
0001
2000
0000
0000
0000
,
3001
0010
0001
1000
0002
0000
0000
0000
,
1003
0100
0010
0001
2000
0000
0000
0000
,
3001
0100
0001
0100
0010
1000
0010
1000
,
0200
0000
0000
0300
,
1000
0100
0010
0001
2000
0000
0000
0000
,
3001
0100
0010
1000
0002
0000
0000
0000
,
1003
0100
1000
0100
0010
0001
0010
0001
,
2000
0000
0000
0000
,
0002
0000
0000
0000
,
3003
0000
0000
0000
;

//---------------dance-single - ----------------
#NOTEDATA:;
#CHARTNAME:;
#STEPSTYPE:dance-single;
#DESCRIPTION:;
#CHARTSTYLE:;
#DIFFICULTY:Easy;
#METER:4;
#RADARVALUES:0.237498,0.363393,0.139767,0.220684,0.000000,226.000000,207.000000,19.000000,30.000000,0.000000,0.000000,0.000000,0.000000,0.000000,0.237498,0.363393,0.139767,0.220684,0.000000,226.000000,207.000000,19.000000,30.000000,0.000000,0.000000,0.000000,0.000000,0.000000;
#CREDIT:;
#NOTES:
0000
0000
0000
0000
,
0000
0000
0000
0000
,
0000
0000
0000
0000
,
0000
0000
0000
0000
,
0000
0000
0000
0000
,
0000
0000
0000
0000
,
0000
0000
0000
0000
,
1000
0000
1001
0000
,
0001
0000
1001
1000
,
0001
0001
0010
0100
,
1000
1000
0010
0000
,
0000
1001
0110
1001
,
0110
0000
0000
0010
0000
1000
0001
0000
,
1000
1000
0010
0100
,
0001
0001
0010
0000
,
0000
1001
0110
1001
,
0110
0000
0001
0000
,
1000
0000
0001
1000
,
0010
1000
0001
0010
,
0100
0000
1000
0010
,
1000
0100
0010
0000
,
0001
0000
1000
0000
,
0001
0100
0001
0010
,
0100
0000
1000
0010
,
1000
0000
0000
0000
,
0001
0000
1000
0001
,
0010
0001
1000
0010
,
0100
0000
0001
0010
,
0001
0100
0010
0000
,
1000
0000
0001
0000
,
1000
0100
1000
0010
,
0100
0000
0001
0010
,
0002
0000
0003
0000
,
2000
0000
3002
0000
,
0023
0000
0230
0000
,
2300
0000
3020
0000
,
0230
0000
0302
0000
,
1003
0000
0100
0010
,
0001
0000
0100
0010
,
1000
0000
0001
1000
,
0001
0001
1000
1000
,
2002
0000
3003
0000
,
1000
0100
0010
0001
,
1000
0010
1000
0001
,
0010
0001
1000
0001
,
0100
0010
0100
0001
,
1000
0100
0010
0100
,
1000
0100
1000
0001
,
0100
0001
1000
0001
,
0010
0100
0010
0001
,
1000
0010
0100
0010
,
1000
1000
0001
0001
,
0010
0100
1000
0001
,
0100
0010
1000
0100
,
0010
0010
0100
0100
,
1000
1000
0001
0001
,
0100
0010
1000
0100
,
0010
0010
0100
0100
,
2000
0000
0002
3003
,
1000
1000
0010
0100
,
0001
0001
0010
0000
,
0000
1001
0110
1001
,
0110
0000
0000
0010
0000
0001
1000
0000
,
0001
0001
0010
0100
,
1000
1000
0010
0000
,
0000
1001
0110
1001
,
0110
0000
2000
0000
,
3002
0000
2003
0000
,
3200
0000
0320
0000
,
0032
0000
0203
0000
,
0320
0000
0000
0230
,
0302
0000
0023
0000
,
0230
0000
2300
0000
,
3020
0000
0230
0300
,
0002
0000
0000
0000
,
2000
0000
0000
0000
,
3003
0000
0000
0000
;
