#VERSION:0.83;
#TITLE:[Round C];
#SUBTITLE:- Kagirinaku Bouken ni chikai Summer;
#ARTIST:虹のコンキスタドール;
#TITLETRANSLIT:Kagirinaku Bouken ni chikai Summer;
#SUBTITLETRANSLIT:;
#ARTISTTRANSLIT:Niji no Conquistador;
#GENRE:;
#ORIGIN:;
#CREDIT:;
#BANNER:;
#BACKGROUND:;
#PREVIEWVID:;
#JACKET:;
#CDIMAGE:;
#DISCIMAGE:;
#LYRICSPATH:;
#CDTITLE:;
#MUSIC:[Round C] - Kagirinaku Bouken ni chikai Summer.ogg;
#OFFSET:0.000000;
#SAMPLESTART:31.087999;
#SAMPLELENGTH:12.000000;
#SELECTABLE:YES;
#BPMS:0.000=193.000;
#STOPS:;
#DELAYS:;
#WARPS:;
#TIMESIGNATURES:0.000=4=4;
#TICKCOUNTS:0.000=4;
#COMBOS:0.000=1;
#SPEEDS:0.000=1.000=0.000=0;
#SCROLLS:0.000=1.000;
#FAKES:;
#LABELS:0.000=Song Start;
#BGCHANGES:;
#KEYSOUNDS:;
#ATTACKS:
;

//---------------dance-single - ----------------
#NOTEDATA:;
#CHARTNAME:;
#STEPSTYPE:dance-single;
#DESCRIPTION:;
#CHARTSTYLE:;
#DIFFICULTY:Easy;
#METER:3;
#RADARVALUES:0.235566,0.275774,0.032492,0.024369,0.000000,203.000000,199.000000,4.000000,3.000000,0.000000,0.000000,0.000000,0.000000,0.000000,0.235566,0.275774,0.032492,0.024369,0.000000,203.000000,199.000000,4.000000,3.000000,0.000000,0.000000,0.000000,0.000000,0.000000;
#CREDIT:;
#NOTES:
// measure 0
0000
0000
0000
0000
,  // measure 1
0000
0000
0000
0000
,  // measure 2
0000
0000
0000
0000
,  // measure 3
0000
0000
0000
0000
,  // measure 4
0000
0000
0000
0000
,  // measure 5
1001
0000
0000
0000
,  // measure 6
0100
0000
0000
0000
,  // measure 7
1000
0000
0000
0000
0000
0000
0000
0100
,  // measure 8
0000
0000
0100
0000
,  // measure 9
0010
0000
1000
0000
,  // measure 10
0001
0000
0001
0000
,  // measure 11
0100
0000
0000
0000
0010
0000
0000
0100
,  // measure 12
0000
0000
0100
0010
,  // measure 13
0100
0000
0001
0000
,  // measure 14
1000
0000
1000
0000
,  // measure 15
0010
0000
0000
0000
0010
0000
0000
0100
,  // measure 16
0000
0000
0100
0100
,  // measure 17
0000
0001
0000
0001
,  // measure 18
0000
1000
0000
1000
,  // measure 19
0000
0010
0000
0010
,  // measure 20
0000
0100
0000
0100
,  // measure 21
0000
0001
0000
1000
,  // measure 22
0000
0001
0000
1000
,  // measure 23
0000
0010
0000
0100
,  // measure 24
0000
0010
0000
0100
,  // measure 25
0000
0001
0000
1000
,  // measure 26
0000
0001
0000
1000
,  // measure 27
0000
0100
0000
1000
,  // measure 28
0000
0100
0000
1000
,  // measure 29
0000
1000
0000
0001
,  // measure 30
0000
1000
0000
0010
,  // measure 31
0000
1000
0000
0001
,  // measure 32
1000
0000
1000
0000
,  // measure 33
0001
0000
0100
0000
,  // measure 34
0001
0000
0100
0000
,  // measure 35
0010
0000
0000
0000
1000
0000
0000
0010
,  // measure 36
0000
0000
0000
0010
0000
0000
0000
0000
,  // measure 37
1000
0000
0010
0000
,  // measure 38
1000
0000
0100
0000
,  // measure 39
1000
0000
0000
0001
0000
0000
1000
0000
,  // measure 40
0000
0001
0000
0000
1000
0000
0001
0000
,  // measure 41
0100
0000
0100
0000
,  // measure 42
0010
0000
0010
0000
,  // measure 43
1000
0000
0000
0000
1000
0000
0000
0001
,  // measure 44
0000
0000
0000
0000
0001
0000
0000
1000
,  // measure 45
0000
0000
0001
0000
0001
0000
0000
0001
,  // measure 46
0000
0000
1000
0000
1000
0000
0000
1000
,  // measure 47
0000
0000
0010
0000
0010
0000
0000
0010
,  // measure 48
0000
0200
0000
0000
,  // measure 49
0300
0000
0000
0000
0000
0000
0000
1001
,  // measure 50
0000
0000
0000
1001
0000
0000
0000
0000
,  // measure 51
1000
0000
0100
0000
,  // measure 52
0010
0000
0000
0010
,  // measure 53
0001
0000
0001
0000
,  // measure 54
0100
0000
0000
0000
0010
0000
0000
0100
,  // measure 55
0000
0000
1000
0000
,  // measure 56
0100
0000
0000
0000
0010
0000
0000
0010
,  // measure 57
0000
0000
0010
0000
,  // measure 58
0100
0000
0000
0000
0001
0000
0000
0001
,  // measure 59
0000
0000
0000
0000
0100
0000
0000
0100
,  // measure 60
0000
1000
0001
1000
,  // measure 61
0001
0000
1000
0000
,  // measure 62
0001
0000
0100
0000
,  // measure 63
0010
0000
0100
0000
,  // measure 64
0001
0000
1000
0000
,  // measure 65
0100
0000
0100
0000
,  // measure 66
0010
0000
0010
0000
,  // measure 67
0001
0000
0000
0000
0001
0000
0000
0100
,  // measure 68
0000
0100
0010
0100
,  // measure 69
0010
0000
0000
0000
1000
0000
0000
0001
,  // measure 70
0000
0000
0000
0001
0000
0000
0001
0000
,  // measure 71
0100
0000
0000
0000
0100
0000
0000
0010
,  // measure 72
0000
0000
0000
0010
0000
0000
0000
1000
,  // measure 73
0000
0000
0000
0000
1000
0000
0000
0001
,  // measure 74
0000
0010
0001
0010
,  // measure 75
0001
0000
0000
0000
0100
0000
0000
0100
,  // measure 76
0000
1000
0001
1000
,  // measure 77
0100
0000
0100
0000
,  // measure 78
0010
0000
0010
0000
,  // measure 79
0001
0000
0001
0000
,  // measure 80
1000
0000
1000
0000
,  // measure 81
0100
0000
0100
0000
,  // measure 82
0001
0000
0001
0000
,  // measure 83
0100
0000
0000
0000
0100
0000
0000
0010
,  // measure 84
0000
0100
0010
0100
,  // measure 85
0001
0000
0001
0000
,  // measure 86
1000
0000
1000
0000
,  // measure 87
0100
0000
0000
0000
0100
0000
0000
0010
,  // measure 88
0000
0000
0100
0000
0100
0000
0000
0010
,  // measure 89
0000
0000
0000
0000
0010
0000
0000
1000
,  // measure 90
0000
0000
1000
0000
0001
0000
0000
0001
,  // measure 91
0000
0000
0000
0000
0001
0000
0000
1000
,  // measure 92
0000
0000
0100
0000
1000
0000
0000
1000
,  // measure 93
0000
0000
1000
0000
,  // measure 94
0001
0000
1000
0000
,  // measure 95
0001
0000
0000
0000
1000
0000
0000
2002
,  // measure 96
0000
0000
0000
0000
,  // measure 97
3003
0000
0000
0000
;

//---------------dance-single - ----------------
#NOTEDATA:;
#CHARTNAME:;
#STEPSTYPE:dance-single;
#DESCRIPTION:;
#CHARTSTYLE:;
#DIFFICULTY:Medium;
#METER:6;
#RADARVALUES:0.406147,0.512152,0.073107,0.024369,0.000000,350.000000,341.000000,9.000000,3.000000,0.000000,0.000000,0.000000,0.000000,0.000000,0.406147,0.512152,0.073107,0.024369,0.000000,350.000000,341.000000,9.000000,3.000000,0.000000,0.000000,0.000000,0.000000,0.000000;
#CREDIT:;
#NOTES:
// measure 0
0000
0000
0000
0000
,  // measure 1
0000
0000
0000
0000
,  // measure 2
0000
0000
0000
0000
,  // measure 3
0000
0000
0000
0000
,  // measure 4
0000
0000
0000
0000
,  // measure 5
1001
0000
0001
0000
,  // measure 6
1000
0000
0001
0000
,  // measure 7
0100
0000
0000
0000
0001
0000
0000
0100
,  // measure 8
0000
0001
1000
0010
,  // measure 9
0100
0000
0100
0000
,  // measure 10
0001
0000
0001
0000
,  // measure 11
1000
0000
0000
0000
1000
0000
0000
1001
,  // measure 12
0000
1000
0001
1000
,  // measure 13
0100
0000
0100
0000
,  // measure 14
1000
0000
1000
0000
,  // measure 15
0100
0000
0000
0000
0100
0000
0000
0010
,  // measure 16
0000
0010
0100
1000
,  // measure 17
1000
0001
0100
0000
,  // measure 18
0100
0010
0100
0010
,  // measure 19
1000
0001
0001
0000
,  // measure 20
1000
0001
0100
0010
,  // measure 21
1000
0001
0001
0000
,  // measure 22
1000
0100
1000
0010
,  // measure 23
1000
0001
0000
1000
,  // measure 24
0000
0001
0100
0001
,  // measure 25
0010
0100
0100
0000
,  // measure 26
1000
0100
1000
0100
,  // measure 27
1000
0001
0001
0000
,  // measure 28
0001
0100
0001
0200
,  // measure 29
0310
1000
1000
0000
,  // measure 30
0001
0100
0001
0100
,  // measure 31
0010
0010
0000
0100
,  // measure 32
0010
1000
0100
1000
,  // measure 33
0001
0000
0100
0000
0000
0000
0001
1000
,  // measure 34
0000
0000
0001
0000
0100
0000
0001
1000
,  // measure 35
0000
0000
0001
0000
0100
0000
0001
1000
,  // measure 36
0000
0001
0000
1000
0000
0001
0100
0000
,  // measure 37
0010
0000
1000
0000
0000
0000
0010
1000
,  // measure 38
0000
0010
1000
0001
,  // measure 39
0010
0000
0000
0010
0000
0000
0100
0000
,  // measure 40
0000
0100
0000
0000
1000
0000
0100
0000
,  // measure 41
1000
0000
0010
0000
0000
0000
1000
0010
,  // measure 42
0000
0000
1000
0000
0001
0000
1000
0100
,  // measure 43
0000
0000
1000
0000
0001
0000
0100
0001
,  // measure 44
0000
0000
0100
0001
0100
0000
0100
0010
,  // measure 45
0000
0000
0010
0000
0010
0000
0000
1000
,  // measure 46
0000
0000
1000
0000
1000
0000
0000
0001
,  // measure 47
0000
0000
0001
0000
0001
0000
0000
1000
,  // measure 48
0000
0000
1000
0001
1000
0000
0001
0000
,  // measure 49
0100
0000
0000
0000
0000
0000
0000
0101
,  // measure 50
0000
0000
0000
0101
0000
0000
0101
0000
,  // measure 51
0001
0000
0100
0000
0001
0000
1000
0001
,  // measure 52
0000
0000
1000
0000
0100
1000
0100
1000
,  // measure 53
0000
1000
1000
1000
,  // measure 54
0001
0000
1000
0000
0001
0100
0001
0100
,  // measure 55
0000
0100
0100
0100
,  // measure 56
0010
0000
1000
0000
0001
0010
0001
0010
,  // measure 57
0000
0010
0010
0010
,  // measure 58
0001
0000
1000
0000
0010
0100
0010
0100
,  // measure 59
0000
0000
0100
0000
0001
0100
0001
0100
,  // measure 60
0000
0001
0100
0010
,  // measure 61
1000
1000
1000
1000
,  // measure 62
0001
0001
0001
0001
,  // measure 63
0100
0100
0100
0100
,  // measure 64
0010
0010
0010
0010
,  // measure 65
1000
0100
1000
0100
,  // measure 66
0010
0001
0010
0001
,  // measure 67
1000
0000
0001
0000
1000
0100
1000
0100
,  // measure 68
0000
1000
0001
0100
,  // measure 69
0010
0000
1000
0000
0010
0000
1000
0010
,  // measure 70
0000
1000
0010
1000
0000
0100
1000
0100
,  // measure 71
1000
0000
0001
0000
1000
0100
1000
0100
,  // measure 72
0000
1000
0010
1000
0000
0001
1000
0001
,  // measure 73
0000
0000
0001
0000
0001
0000
0000
0001
,  // measure 74
0000
1000
0001
0000
1000
0000
0010
0000
,  // measure 75
0100
0000
0010
0000
0100
0000
0010
1000
,  // measure 76
0000
0001
1000
0001
0000
1000
0001
1000
,  // measure 77
0001
0001
0001
0001
,  // measure 78
1000
1000
1000
1000
,  // measure 79
0100
0100
0100
0100
,  // measure 80
0010
0010
0010
0010
,  // measure 81
0001
1000
0001
1000
,  // measure 82
0100
1000
0100
1000
,  // measure 83
0010
0000
1000
0000
0010
0000
1000
0010
,  // measure 84
0000
1000
0010
0000
0100
0000
0010
0000
,  // measure 85
1000
0001
1000
0100
,  // measure 86
1000
0001
1000
0100
,  // measure 87
1000
0000
0010
0000
1000
0000
0010
1000
,  // measure 88
0000
0000
0010
0000
1000
0010
1000
0010
,  // measure 89
0000
0000
0010
0000
0010
0000
0000
1000
,  // measure 90
0000
0001
1000
0000
0001
0000
0100
0001
,  // measure 91
0000
0000
0001
0000
0001
0000
0000
1000
,  // measure 92
0000
0001
1000
0000
0001
0000
0100
0001
,  // measure 93
0000
0001
0001
0000
,  // measure 94
0101
0000
1010
0000
,  // measure 95
1001
0000
0000
0000
0100
0000
0000
0202
,  // measure 96
0000
0000
0000
0000
,  // measure 97
0303
0000
0000
0000
;

//---------------dance-single - ----------------
#NOTEDATA:;
#CHARTNAME:;
#STEPSTYPE:dance-single;
#DESCRIPTION:;
#CHARTSTYLE:;
#DIFFICULTY:Hard;
#METER:8;
#RADARVALUES:0.722942,0.787926,0.682328,0.113721,0.000000,623.000000,539.000000,84.000000,14.000000,0.000000,0.000000,0.000000,0.000000,0.000000,0.722942,0.787926,0.682328,0.113721,0.000000,623.000000,539.000000,84.000000,14.000000,0.000000,0.000000,0.000000,0.000000,0.000000;
#CREDIT:;
#NOTES:
// measure 0
0000
0000
0000
0000
,  // measure 1
0000
0000
0000
0000
,  // measure 2
0000
0000
0000
0000
,  // measure 3
0000
0000
0000
0000
,  // measure 4
0000
0000
0000
0000
,  // measure 5
1001
0000
1000
0000
0010
0000
0000
1000
,  // measure 6
0100
1000
0000
0010
0000
0000
0000
0000
,  // measure 7
1001
0000
0001
0000
1000
0000
0000
1001
,  // measure 8
0000
1000
0001
1000
0100
1000
0100
1000
,  // measure 9
0001
0000
1000
0000
0100
0000
1000
0001
,  // measure 10
0100
0001
0100
0001
1000
0100
1000
0000
,  // measure 11
0001
0000
1000
0000
0100
0000
0100
1100
,  // measure 12
0000
1000
0100
0010
0100
0010
0100
1000
,  // measure 13
0001
0000
1000
0000
0100
0000
0000
1000
,  // measure 14
0100
1000
0100
0010
0001
0010
0001
0010
,  // measure 15
0100
0000
1000
0000
0001
0000
0100
0010
,  // measure 16
0000
1000
0010
1000
0010
0100
0010
0100
,  // measure 17
0010
1000
0100
1000
0010
1000
0100
1000
,  // measure 18
0001
1000
0001
1000
0001
0010
0001
0010
,  // measure 19
0000
0001
0100
0001
0010
0001
0100
0001
,  // measure 20
0010
0100
0010
0100
1000
0001
1000
0001
,  // measure 21
0000
1000
0001
0010
0100
1000
0001
0010
,  // measure 22
0100
0010
0100
0010
0001
0010
0001
0010
,  // measure 23
0000
0001
0001
1000
0000
0001
0001
1000
,  // measure 24
0000
0001
0001
0000
1000
0001
1000
1000
,  // measure 25
0001
0100
0010
0100
0010
1000
0010
1000
,  // measure 26
0010
0100
0001
1000
0001
0100
0010
0100
,  // measure 27
0000
0001
1000
0001
1000
0100
1000
0100
,  // measure 28
1000
0001
0010
0001
0010
0100
0010
0100
,  // measure 29
0000
1000
0100
0010
0001
1000
0100
0010
,  // measure 30
0001
1000
0001
1000
0100
1000
0100
1000
,  // measure 31
0000
0001
0001
1000
1000
0001
1000
0100
,  // measure 32
0200
2300
3200
0310
,  // measure 33
1001
0000
0001
0000
1000
0100
1000
0001
,  // measure 34
0000
1000
0001
0100
0001
0100
0001
1000
,  // measure 35
0000
1000
0100
1000
0001
1000
0010
1010
,  // measure 36
0000
1010
0000
1010
0000
1010
1001
0000
,  // measure 37
1001
0000
0100
0000
0001
0100
0001
0100
,  // measure 38
0000
0100
0010
0100
0000
0100
0001
1000
,  // measure 39
1001
0000
0000
1001
0000
0000
1001
0000
,  // measure 40
0000
1001
0000
0000
1000
0100
1000
0010
,  // measure 41
0100
0000
0001
0000
1000
0100
1000
0100
,  // measure 42
0000
1000
0001
0000
1000
0010
1000
0010
,  // measure 43
0000
1000
0001
1000
0100
1000
0100
1100
,  // measure 44
0000
0100
0010
0100
0010
0100
0100
0110
,  // measure 45
0000
0000
0010
0000
0010
0000
0000
0011
,  // measure 46
0000
0000
0001
0000
0001
0000
0000
1001
,  // measure 47
0000
0000
1000
0000
1000
0000
1000
0001
,  // measure 48
0000
1000
1000
0001
0100
0001
0100
0010
,  // measure 49
1000
0000
1000
0010
0100
0010
1000
1010
,  // measure 50
0000
0000
1000
1001
0000
1000
0002
0000
,  // measure 51
1003
0000
0100
0000
0010
0000
0001
1000
,  // measure 52
0001
0000
0000
0000
0000
1000
0001
1000
,  // measure 53
0000
1000
0100
1000
0100
1000
0100
1000
,  // measure 54
0010
1000
0010
1000
0001
1000
0000
0001
,  // measure 55
0000
0001
0100
0001
0100
0001
0100
0001
,  // measure 56
0010
0001
0010
0001
1000
0001
0000
0100
,  // measure 57
0000
0100
0001
0100
0001
0100
0001
0100
,  // measure 58
0010
0100
0010
0100
0001
1000
0000
1001
,  // measure 59
0000
1000
0100
0000
1001
0000
0001
0100
,  // measure 60
0000
0001
1000
0001
0010
0001
1000
0001
,  // measure 61
0101
0000
0101
0000
0100
0001
0100
1000
,  // measure 62
1100
0000
1100
0000
0100
1000
0100
0001
,  // measure 63
1001
0000
1001
0000
1000
0001
0100
0001
,  // measure 64
0101
1001
0101
1001
,  // measure 65
1010
1010
1010
1000
,  // measure 66
0110
0110
0110
0010
,  // measure 67
1001
0000
1000
0001
1000
0100
1000
1100
,  // measure 68
0000
1000
0002
0000
2003
0000
3100
0000
,  // measure 69
1001
0000
1001
0000
1001
0000
1001
1001
,  // measure 70
0000
0110
0000
0110
0000
1001
1001
0000
,  // measure 71
1100
0000
1100
0000
1100
0000
1100
1100
,  // measure 72
0000
1000
0100
1000
0200
0000
0310
0110
,  // measure 73
0000
0000
0110
0000
0110
0000
0000
1001
,  // measure 74
0000
1000
0001
1000
0200
0000
2300
0000
,  // measure 75
3020
0000
0000
1030
0001
0100
0001
0101
,  // measure 76
0000
0001
1000
0001
0100
0001
1000
0001
,  // measure 77
0100
0000
0100
0010
0100
0010
0100
0010
,  // measure 78
0100
0001
1000
0001
1000
0001
1000
0010
,  // measure 79
0100
0010
0100
0010
0100
0010
0100
0010
,  // measure 80
1000
0010
1000
0010
1000
0100
0010
0001
,  // measure 81
0100
0000
0100
0001
0100
0001
0100
0001
,  // measure 82
0100
0001
1000
0001
1000
0001
1000
0001
,  // measure 83
0010
0001
0010
0001
0010
0001
0010
0100
,  // measure 84
0000
0100
1000
0100
0010
0100
1000
0001
,  // measure 85
1000
0000
1000
0001
1000
0001
1000
0001
,  // measure 86
1000
0001
0100
0001
0100
0001
0100
0001
,  // measure 87
0010
0001
0010
0001
0010
0001
0010
0100
,  // measure 88
0000
1000
0001
0000
0200
0000
0310
0110
,  // measure 89
0000
0000
0110
0000
0110
0000
0000
1001
,  // measure 90
0000
0000
1001
0000
1001
0000
0110
0110
,  // measure 91
0000
0000
0110
0000
0110
0000
0000
1001
,  // measure 92
0000
0000
1001
0000
1001
0000
1010
1010
,  // measure 93
0000
1010
1010
0000
,  // measure 94
1100
1100
1100
0000
0101
0101
0101
0000
,  // measure 95
2000
0000
0000
3100
1000
0000
0000
2002
,  // measure 96
0000
0000
0000
0000
,  // measure 97
3003
0000
0000
0000
;
