#TITLE:ヒャダインのじょーじょーゆーじょー;
#SUBTITLE:;
#ARTIST:ヒャダイン;
#TITLETRANSLIT:Hyadain no Joujou Yuujou;
#SUBTITLETRANSLIT:;
#ARTISTTRANSLIT:Hyadain;
#CREDIT:;
#BANNER:[Round C] - Hyadain no Joujou Yuujou.png;
#BACKGROUND:[Round C] - Hyadain no Joujou Yuujou-bg.png;
#LYRICSPATH:;
#CDTITLE:;
#MUSIC:[Round C] - Hyadain no Joujou Yuujou.ogg;
#OFFSET:-1.208;
#SAMPLESTART:0.880;
#SAMPLELENGTH:12.000;
#SELECTABLE:YES;
#BPMS:0.000=200.000;
#STOPS:;
#BGCHANGES:;

//---------------dance-single - ----------------
#NOTES:
     dance-single:
     :
     Hard:
     8:
     0.561,0.640,0.044,0.121,0.033:
0000
0000
0000
0000
,
1000
0100
0001
0100
,
1000
0000
0000
0001
0000
0000
0001
0000
,
0000
1000
0100
0010
0100
1000
0100
0010
,
0000
0100
0000
0000
0001
0001
0000
0010
,
0000
1000
0000
1000
0000
0010
0100
0010
,
0200
0000
0300
0000
0001
0010
0000
0001
,
0000
0100
0000
1000
0000
0100
0000
0000
,
0001
0000
0001
0000
1000
0100
1000
0000
,
0010
0000
0100
0010
0000
0100
0001
0000
,
0001
0000
0100
0000
0010
1000
0010
0000
,
0000
0100
0001
0100
0010
0000
0010
0000
,
1000
1000
0001
0001
,
0100
0000
0100
0000
0010
0000
1000
0100
,
1000
0010
0100
0100
,
0000
0001
0010
0000
0100
0000
0010
0100
,
0020
0000
0030
0000
1000
0000
0000
2000
,
0000
3000
0000
0000
0000
0000
0001
0000
,
0010
0000
0100
0000
1000
0100
1000
0100
,
0000
0000
0000
0000
,
0010
0000
0000
0000
0001
0100
0000
0100
,
0000
0010
0000
0010
0000
1000
0100
1000
,
0100
0000
0010
0000
0001
0100
0000
0100
,
0010
0000
0010
0000
0000
1000
0100
1000
,
0200
0000
0300
0000
0010
0000
0000
0002
,
0000
0003
0000
0000
0000
0000
0010
0000
,
1000
0000
0100
0000
1000
0000
0001
0001
,
0000
0000
0000
1000
,
0001
0010
1000
0010
0001
1000
0100
0001
,
0100
1000
0001
0100
1000
0000
1000
0100
,
0001
0100
1000
0010
0001
0010
0100
0001
,
0100
0000
0010
0000
0110
0000
0010
0100
,
1000
0100
0010
0100
1000
0100
0010
0100
,
1000
0100
0010
0000
1001
0000
0010
1000
,
0010
0100
0001
0100
0010
1000
0010
0100
,
0001
0001
1000
0000
,
0000
0010
0100
0010
,
1000
0001
1000
0001
,
0100
1000
0100
0001
,
1000
0100
0001
0100
,
1000
0001
0010
0001
,
0100
0010
0100
0001
,
1000
0000
0000
0100
0000
0000
1000
0000
0001
0000
0000
0100
0000
0000
0001
0000
,
1000
0000
0000
0100
0000
0000
1000
0000
0001
0000
0000
0010
0000
0000
0001
0000
,
1000
0000
0000
0010
0000
0000
1000
0000
0001
0000
0000
0010
0000
0000
0001
0000
,
2000
0000
0000
0000
,
3000
0000
0000
0000
,
0010
0100
0001
0100
0010
0000
1000
0010
,
0100
0010
1000
0010
0100
0000
0001
0010
,
0100
1000
0010
0100
0010
0000
1000
0000
,
0001
0100
0001
1000
,
0010
0100
0001
0100
0010
0000
1000
0010
,
0100
0010
1000
0010
0100
0000
0001
0010
,
0001
0100
0100
0010
,
0000
0000
1000
1000
1000
1000
1000
1000
,
0010
0000
0100
0010
0100
0000
0001
0010
,
0001
1000
0010
1000
0100
0000
0010
0000
,
0001
0000
0100
0010
1000
0010
0100
0000
,
0010
1000
0010
0110
,
0001
0100
1000
0100
0001
0000
1000
0100
,
0001
0100
1000
0010
0100
0000
0100
0010
,
1000
0001
0101
0100
,
0020
0000
2030
0000
,
3002
0000
0203
0000
,
0310
0010
1000
0010
,
1000
0100
0001
0100
1000
0000
0001
0010
,
1000
0010
0001
1000
0100
0001
0100
1000
,
0001
0010
1000
0010
0001
0000
0100
0000
,
0010
0000
0100
0000
0001
0100
0001
0000
,
1000
0100
0001
0100
1000
0000
0010
0000
,
0100
0010
0000
0010
0100
0000
0001
1000
,
0000
0000
0010
0100
0010
0100
0010
0100
,
0020
0000
0000
0000
,
0030
0000
0000
0000
;

//---------------dance-single - ----------------
#NOTES:
     dance-single:
     :
     Medium:
     6:
     0.440,0.520,0.044,0.143,0.033:
0000
0000
0000
0000
,
0100
0100
0010
0010
,
1000
0000
0000
0001
0000
0000
0001
0000
,
0000
0100
0000
0010
0000
1000
0000
0010
,
0000
0100
0000
0000
0001
0001
0000
0100
,
0000
0010
0000
0100
0000
0001
0010
0001
,
0020
0000
0030
0000
0100
0100
0000
1000
,
0000
0010
0000
0100
0000
0001
0000
0000
,
1000
1000
0010
0010
,
0100
0100
0001
0001
,
1010
1000
0000
0001
,
0000
0100
0010
0100
0010
0000
0000
0000
,
1000
0100
0001
0100
,
1000
0001
0010
1000
,
0010
0001
1000
0100
,
0001
0100
1000
0001
,
0020
0000
0030
0000
0200
0000
0300
2000
,
0000
3000
0000
0000
0000
0000
0001
0000
,
0010
0100
2000
3000
,
0010
0000
0000
0000
,
0100
0000
0000
0000
0001
1000
0000
1000
,
0000
0010
0000
0010
0000
0100
0000
0100
,
0001
0001
1000
1000
,
0010
0010
0100
0100
,
0002
0000
0003
0000
0010
0000
0000
2000
,
0000
3000
0000
0000
0000
0000
0001
0000
,
0010
0000
0100
0000
1000
0000
0000
1000
,
0000
0000
0000
0001
,
0100
1000
0100
0001
,
1000
0010
0001
0010
,
1000
0001
0100
1000
,
0100
0001
0101
0100
,
0001
0010
1000
0010
,
0001
1000
0100
0001
,
0100
1000
0001
0010
,
0100
1000
0010
0000
,
0000
0100
0001
0100
,
0010
1000
0010
0100
,
0001
0010
0100
1000
,
0001
0010
1000
0010
,
0001
1000
0010
0001
,
0010
1000
0100
0001
,
1000
0000
0000
1000
0000
0000
1000
0000
0001
0000
0000
0001
0000
0000
0001
0000
,
0100
0000
0000
0100
0000
0000
0100
0000
0010
0000
0000
0010
0000
0000
0010
0000
,
1000
0000
0000
1000
0000
0000
1000
0000
0001
0000
0000
0001
0000
0000
0001
0000
,
0200
0000
0000
0000
,
0300
0000
0000
0000
,
0010
1000
0010
0100
,
0010
0100
0001
0010
,
0001
1000
0010
1000
,
0001
0010
0001
1000
,
0010
0001
0010
1000
,
0100
1000
0010
0001
,
0010
0100
1000
0010
,
0000
1000
1000
1000
,
0010
0100
0100
0001
,
0001
0010
0100
0010
,
1000
0001
1000
0010
,
0100
0010
1000
1100
,
0001
0100
1000
0100
,
0001
1000
0010
0010
,
1000
0001
0101
0100
,
0020
0000
2030
0000
,
3002
0000
0203
0000
,
0310
0010
1000
0010
,
0100
0001
0100
0010
,
1000
0010
0100
0100
,
0001
0010
0001
0100
,
0010
0100
0001
0001
,
1000
0100
1000
0010
,
0100
0001
0000
0001
0100
0000
0100
0010
,
0000
0000
1000
0100
1000
0100
0010
0001
,
0200
0000
0000
0000
,
0300
0000
0000
0000
;

//---------------dance-single - ----------------
#NOTES:
     dance-single:
     :
     Easy:
     3:
     0.282,0.360,0.000,0.033,0.000: // measure 1
0000
0000
0000
0000
,  // measure 2
0000
0000
0000
0000
,  // measure 3
1000
0100
1000
0010
,  // measure 4
0100
0000
0000
0000
,  // measure 5
0001
0000
0000
0000
0001
0000
0000
1000
,  // measure 6
0000
0100
0000
1000
0000
0010
0000
0000
,  // measure 7
0010
0000
0000
0000
0100
0000
0000
0100
,  // measure 8
0000
0001
0000
0000
0001
0000
0000
0000
,  // measure 9
1000
0000
0010
0000
,  // measure 10
1000
0000
0010
0000
,  // measure 11
0100
0100
0000
0001
,  // measure 12
0000
0000
0000
0000
,  // measure 13
0000
1000
0100
1000
,  // measure 14
0010
0100
0010
0100
,  // measure 15
0001
0000
0010
0000
,  // measure 16
0100
0000
1000
0000
,  // measure 17
0020
0000
0000
0000
,  // measure 18
0000
0030
0000
0000
,  // measure 19
0100
0000
0000
0000
0001
0000
0000
0001
,  // measure 20
0000
0000
0000
0000
,  // measure 21
1000
0000
1000
0000
,  // measure 22
0010
0100
0001
0100
,  // measure 23
0010
0000
1000
0001
,  // measure 24
0010
1000
0010
0001
,  // measure 25
1000
0000
0000
0000
0010
0000
0000
0010
,  // measure 26
0000
0000
0000
0000
,  // measure 27
0100
0001
0100
0010
,  // measure 28
0000
0000
0000
0000
,  // measure 29
1000
0000
0100
0000
,  // measure 30
1000
0000
0010
0000
,  // measure 31
0100
0001
0100
0010
,  // measure 32
1000
0001
0001
0000
,  // measure 33
0100
0000
0010
0000
,  // measure 34
0100
0000
0001
0000
,  // measure 35
1000
0010
1000
0010
,  // measure 36
0100
0010
1000
0000
,  // measure 37
1000
0000
0010
0000
,  // measure 38
0100
0000
0001
0000
,  // measure 39
0010
0000
0100
0000
,  // measure 40
1000
0000
0010
0000
,  // measure 41
0100
0000
0010
0000
,  // measure 42
1000
0000
0010
0000
,  // measure 43
1000
0000
0001
0000
,  // measure 44
0100
0000
0001
0000
,  // measure 45
1000
0000
0001
0000
,  // measure 46
0200
0000
0000
0000
0000
0000
0000
0300
,  // measure 47
0000
0000
0000
0000
,  // measure 48
0010
1000
0010
0100
,  // measure 49
0010
0100
0001
0100
,  // measure 50
0001
0010
0001
1000
,  // measure 51
0100
0010
0001
1000
,  // measure 52
0100
1000
0010
0100
,  // measure 53
0010
1000
0010
0001
,  // measure 54
0010
1000
0100
1000
,  // measure 55
0001
0000
0000
0000
,  // measure 56
0001
0000
1000
0000
,  // measure 57
0010
0100
0010
0000
,  // measure 58
1000
0000
0010
0000
,  // measure 59
0100
0001
0100
0000
,  // measure 60
0010
0000
1000
0000
,  // measure 61
0010
0000
1000
0000
,  // measure 62
0001
0000
0100
0000
,  // measure 63
0001
0000
1000
0000
,  // measure 64
0010
0000
1000
0000
,  // measure 65
0001
0010
1000
0010
,  // measure 66
0001
1000
0100
0001
,  // measure 67
0100
1000
0001
0010
,  // measure 68
1000
0010
0001
0000
,  // measure 69
0100
0010
1000
0010
,  // measure 70
0100
0001
0100
0000
,  // measure 71
0010
0000
0000
1000
0000
0000
1000
0000
,  // measure 72
0000
0100
0001
0100
,  // measure 73
0020
0000
0000
0000
,  // measure 74
0030
0000
0000
0000
;
