#VERSION:0.83;
#TITLE:Every Day's Like Christmas;
#SUBTITLE:(Stock Aitken Waterman Remix);
#ARTIST:Kylie Minogue;
#TITLETRANSLIT:;
#SUBTITLETRANSLIT:;
#ARTISTTRANSLIT:;
#GENRE:;
#ORIGIN:;
#CREDIT:;
#BANNER:;
#BACKGROUND:;
#PREVIEWVID:;
#JACKET:;
#CDIMAGE:;
#DISCIMAGE:;
#LYRICSPATH:;
#CDTITLE:;
#MUSIC:[Round C] - Every Day's Like Christmas (Stock Aitken Waterman Remix).ogg;
#OFFSET:-3.928980;
#SAMPLESTART:50.889000;
#SAMPLELENGTH:16.000000;
#SELECTABLE:YES;
#BPMS:0.000=120.000,
160.000=60.000,
176.000=120.000;
#STOPS:;
#DELAYS:;
#WARPS:;
#TIMESIGNATURES:0.000=4=4;
#TICKCOUNTS:0.000=4;
#COMBOS:0.000=1;
#SPEEDS:0.000=1.000=0.000=0;
#SCROLLS:0.000=1.000;
#FAKES:;
#LABELS:0.000=Song Start;
#LASTSECONDHINT:116.000000;
#BGCHANGES:;
#KEYSOUNDS:;
#ATTACKS:
;

//---------------dance-single - ----------------
#NOTEDATA:;
#CHARTNAME:;
#STEPSTYPE:dance-single;
#DESCRIPTION:;
#CHARTSTYLE:;
#DIFFICULTY:Beginner;
#METER:1;
#RADARVALUES:0.117854,0.129997,0.000000,0.041666,0.000000,99.000000,99.000000,0.000000,5.000000,0.000000,0.000000,0.000000,0.000000,0.000000,0.117854,0.129997,0.000000,0.041666,0.000000,99.000000,99.000000,0.000000,5.000000,0.000000,0.000000,0.000000,0.000000,0.000000;
#CREDIT:;
#NOTES:
0000
0000
0000
0000
,
0000
0000
0000
0000
,
0000
0000
0000
0000
,
0000
0000
0000
0000
,
1000
0000
1000
0000
,
0100
0000
1000
0000
,
0001
0000
0001
0000
,
0100
0000
0001
0000
,
0010
0000
0010
0000
,
0010
0000
0100
0100
,
0100
0000
1000
0000
,
0001
0000
0100
0000
,
0010
0000
0010
0000
,
0010
0000
0100
0100
,
0100
0000
0001
0000
,
1000
0000
0100
0000
,
1000
0000
0010
0000
,
0100
0000
0001
0000
,
0001
0000
0100
0000
,
0010
0000
1000
0000
,
0001
0000
0010
0000
,
0100
0000
1000
0000
,
1000
0000
0100
0000
,
0010
0000
0001
0000
,
2000
0000
0010
0000
,
0100
0000
3001
0000
,
0002
0000
0100
0000
,
0010
0000
1000
0000
,
0203
0000
0010
0000
,
1000
0000
0001
0000
,
0320
0000
1000
0000
,
0001
0000
0230
0000
,
0301
0000
1000
0000
,
0100
0000
0010
0000
,
0001
0000
0010
0000
,
0100
0000
1000
0000
,
0001
0000
0001
0000
,
1000
0000
1000
0000
,
0010
0000
0100
0000
,
0001
0000
1000
0000
,
0100
0000
0010
0000
,
0001
0000
1000
0000
,
0010
0000
0100
0000
,
0001
0000
1000
0000
,
0001
0000
0001
0000
,
0010
0000
0100
0000
,
1000
0000
1000
0000
,
0010
0000
0100
0000
,
0010
0000
0010
0000
,
1000
0000
0001
0000
,
0100
0000
0100
0000
,
0001
0000
1000
0000
,
0100
0000
0000
0000
;

//---------------dance-single - ----------------
#NOTEDATA:;
#CHARTNAME:;
#STEPSTYPE:dance-single;
#DESCRIPTION:;
#CHARTSTYLE:;
#DIFFICULTY:Easy;
#METER:3;
#RADARVALUES:0.205947,0.238327,0.058332,0.158329,0.000000,173.000000,166.000000,7.000000,19.000000,0.000000,0.000000,0.000000,0.000000,0.000000,0.205947,0.238327,0.058332,0.158329,0.000000,173.000000,166.000000,7.000000,19.000000,0.000000,0.000000,0.000000,0.000000,0.000000;
#CREDIT:;
#NOTES:
0000
0000
0000
0000
,
0000
0000
0000
0000
,
0000
0000
0000
0000
,
0000
0000
0000
0000
,
1000
0100
1000
1000
,
0001
0100
0001
0001
,
0010
0001
0010
0010
,
0100
0100
0000
1001
,
0001
0001
0001
0000
,
0100
0000
0100
0010
,
1000
1000
1000
0000
,
0100
0000
0100
1000
,
0010
0010
0010
0000
,
1000
0000
0001
0010
,
0100
0100
0100
0000
,
1000
0001
0100
0010
,
1000
1000
1000
0000
,
0010
0000
0010
0100
,
0001
0001
0001
0000
,
0010
0000
0010
0001
,
0100
0100
0100
0000
,
0001
0000
1000
0100
,
0010
0010
0100
0100
,
1000
0001
0110
1001
,
2000
0100
0001
0010
,
3002
0000
0013
0010
,
0100
1000
1000
0010
,
0001
0010
1000
1001
,
0002
0100
1000
0010
,
2003
0000
3100
0100
,
0010
0001
0001
0100
,
1000
0100
0001
2001
,
3010
1000
0001
0010
,
0100
1000
0001
0100
,
0100
0001
1000
0100
,
0010
0001
1000
0010
,
1000
1000
0001
0001
,
0010
0010
0100
0100
,
2000
0000
3002
0000
,
0103
0001
0010
0100
,
2000
0000
3200
0000
,
0320
0000
0032
0000
,
0203
0000
0320
0000
,
2030
0000
0002
0000
0000
0000
3003
1001
,
0020
1000
0001
1000
,
0230
0000
0301
0001
,
0010
0001
0100
0010
,
1000
0100
1000
0001
,
0200
0001
1000
0001
,
0320
0000
1000
1030
,
0100
1000
0010
0100
,
0001
0010
0001
1000
,
0110
0000
0000
0000
;

//---------------dance-single - ----------------
#NOTEDATA:;
#CHARTNAME:;
#STEPSTYPE:dance-single;
#DESCRIPTION:;
#CHARTSTYLE:;
#DIFFICULTY:Medium;
#METER:5;
#RADARVALUES:0.317849,0.346658,0.124997,0.349991,0.000000,267.000000,252.000000,15.000000,42.000000,0.000000,0.000000,0.000000,0.000000,0.000000,0.317849,0.346658,0.124997,0.349991,0.000000,267.000000,252.000000,15.000000,42.000000,0.000000,0.000000,0.000000,0.000000,0.000000;
#CREDIT:;
#NOTES:
0000
0000
0000
0000
,
0000
0000
0000
0000
,
0000
0000
0000
0000
,
0000
0000
0000
0000
,
1000
0000
0100
0000
1000
0010
1000
0000
,
0001
0000
0100
0000
0001
0010
0001
0200
,
0000
0000
0301
0000
1000
0010
1000
0001
,
0000
1001
0000
0000
0000
0000
1001
1000
,
0100
0000
0100
0000
0100
0000
1000
0100
,
0010
0001
0100
0001
0000
0001
1000
0000
,
0010
0000
0010
0000
0010
0000
1000
0010
,
0100
0001
0010
0001
0000
1000
1000
0001
,
0100
0000
0100
0000
0100
0000
0001
0100
,
0010
1000
0100
1000
0000
1000
0001
0000
,
0010
0000
0010
0000
0010
0000
0001
0010
,
0100
1000
0010
2000
0000
0000
3001
0100
,
0001
0000
0001
0000
0001
0000
0010
0001
,
1000
0100
0001
0100
0000
0100
0010
0001
,
1000
0000
1000
0000
1000
0000
0010
1000
,
0001
0100
1000
0100
0000
0010
0010
0100
,
0001
0000
0001
0000
0001
0000
0100
0001
,
1000
0010
0001
0010
0000
0010
0100
0002
,
0000
0000
0013
0100
0000
0100
0000
1000
,
0000
0001
0000
0100
0000
0010
0100
0002
,
0000
0000
0203
0000
0301
0020
0000
2030
,
0000
0000
3010
0000
0001
1000
1001
0000
,
0201
0000
0310
0100
0001
0010
0000
0002
,
0000
0000
0103
0020
0000
1030
0000
0100
,
2000
0000
3020
0000
1030
0200
0000
0302
,
0000
0000
0103
0000
1000
0001
1001
0000
,
1020
0000
0130
0010
1000
0100
0000
2000
,
0000
0010
0000
3002
0000
0013
0001
0100
,
0010
1000
0010
1000
0100
1000
0100
0000
,
0010
0001
0010
0001
0100
0001
0100
0000
,
0100
1000
0100
0001
0010
0001
0010
0000
,
0100
0001
0100
1000
0010
0000
0110
0000
,
0100
0001
0010
0100
1000
0001
0100
0000
,
0010
1000
0100
0010
0001
1000
0000
2002
,
0000
3000
0023
0000
0230
0000
2300
0000
,
3010
0100
1000
0100
0001
0010
0110
0000
,
0200
0000
0320
0000
,
0032
0000
2003
0000
,
3020
0000
0230
0000
,
0301
0001
1000
1000
0100
0100
0010
1001
,
2000
0000
3020
0000
1030
0200
0000
0302
,
0000
0000
0103
0000
1000
0001
1001
0000
,
1020
0000
0130
0010
1000
0100
0000
2000
,
0000
0000
3010
0200
0000
0301
0000
0010
,
0002
0000
0203
0000
0301
0020
0000
2030
,
0000
0000
3010
0000
0001
1000
1001
0000
,
0201
0000
0310
0100
0001
0010
0000
0002
,
0000
0100
0000
2003
0000
3100
1000
0010
,
0110
0000
0000
0000
;

//---------------dance-single - ----------------
#NOTEDATA:;
#CHARTNAME:;
#STEPSTYPE:dance-single;
#DESCRIPTION:;
#CHARTSTYLE:;
#DIFFICULTY:Hard;
#METER:7;
#RADARVALUES:0.453560,0.498321,0.299993,0.383324,0.316659,381.000000,345.000000,36.000000,46.000000,0.000000,0.000000,0.000000,0.000000,0.000000,0.453560,0.498321,0.299993,0.383324,0.316659,381.000000,345.000000,36.000000,46.000000,0.000000,0.000000,0.000000,0.000000,0.000000;
#CREDIT:;
#NOTES:
// measure 0
0000
0000
0000
0000
,  // measure 1
0000
0000
0000
0000
,  // measure 2
0000
0000
0000
0000
,  // measure 3
0000
0000
0000
1001
,  // measure 4
1000
0100
0010
0001
0100
0001
1001
0000
,  // measure 5
0001
0100
0010
1000
0100
1000
0001
0002
,  // measure 6
0000
0103
0010
2000
0000
3010
0100
0101
,  // measure 7
0000
0000
1100
0000
0000
0000
0200
0000
0000
0000
0000
0000
0310
0000
0001
0100
,  // measure 8
0001
0000
1000
0000
0100
1000
0000
0010
0000
1000
0000
0000
0110
0000
0000
0000
,  // measure 9
1000
0000
0001
0000
0010
0001
0000
0100
0000
0001
0000
0000
1001
0000
1000
0000
,  // measure 10
0100
1000
0010
0100
0001
0010
0000
0011
,  // measure 11
0000
0000
1010
0000
0000
0000
1000
0000
0010
0000
1000
0001
0020
0000
0000
0000
,  // measure 12
0031
0000
1000
0000
0010
1000
0000
0100
0000
1000
0000
0000
0110
0000
0000
0000
,  // measure 13
1000
0000
0001
0000
0100
0001
0000
0010
0000
0001
0000
0000
1001
0000
0001
0000
,  // measure 14
0101
0000
1010
0000
1000
0100
1000
0011
,  // measure 15
0000
0000
1100
0000
1000
0000
0000
0010
1000
0001
0000
0001
0010
0000
0100
1000
,  // measure 16
0001
0010
0001
0001
1000
0010
1000
1000
,  // measure 17
0001
0000
0100
0000
0010
1000
0000
0001
0000
0001
0000
0010
0200
0000
0000
0000
,  // measure 18
1300
0010
1000
1000
0001
0010
0001
0002
,  // measure 19
0000
0000
1003
0000
0010
0000
0200
0000
0000
0000
0301
0000
1001
0000
0001
1000
,  // measure 20
0100
0010
0001
0001
0100
0010
1000
1000
,  // measure 21
0100
0000
1000
0000
0001
0100
0000
0010
0000
0010
0000
1000
0001
0000
0020
0000
,  // measure 22
0000
0130
1000
1100
0000
0011
0000
0101
,  // measure 23
0001
1000
0000
1000
0100
0010
0000
0010
0001
0100
0000
0100
0010
0000
1000
0001
,  // measure 24
0020
0000
0230
0000
1300
0010
0100
0001
,  // measure 25
2000
0000
3100
0002
0000
0103
1000
0010
,  // measure 26
1000
0000
0010
0010
0100
0100
0000
0102
,  // measure 27
0000
0000
0013
0000
0100
0000
2100
0000
0000
3010
0100
0000
0001
0000
0001
1000
,  // measure 28
0020
0000
0230
0000
0301
0010
0100
1000
,  // measure 29
0002
0000
0103
2000
0000
3100
0001
0010
,  // measure 30
0001
0000
0010
0011
0000
1100
0000
0101
,  // measure 31
0001
0100
0000
0100
0010
1000
0000
1000
0100
0010
0000
0010
0100
0000
1000
0001
,  // measure 32
0100
0010
1000
0100
0010
1000
0010
0001
,  // measure 33
0100
0010
1000
2200
3300
2002
3003
2010
,  // measure 34
3100
0010
0001
0100
0010
0001
0010
1000
,  // measure 35
0100
0010
0001
0202
0303
2002
3003
0021
,  // measure 36
0130
1000
0001
0100
0010
1000
0001
0020
,  // measure 37
0000
0000
1000
0000
0000
0000
0100
0000
0000
0000
0031
0000
0000
0000
1000
0001
,  // measure 38
0100
0000
0010
0000
1000
0001
0000
0001
0000
1000
0000
0000
1100
0000
0000
0000
,  // measure 39
0100
0010
0000
0010
0001
1000
0000
1000
0001
0100
0000
0100
0010
0000
2000
0000
,  // measure 40
0000
0000
0000
0000
0000
0000
0000
3200
0000
0000
0000
0000
0000
0000
0310
0002
,  // measure 41
0000
0000
0000
0000
0000
0000
0000
0023
0000
0000
0000
0000
0000
0030
0001
1000
,  // measure 42
0200
0000
0000
0000
0000
0000
0000
0320
0000
0000
0000
0000
0000
0031
0000
1000
,  // measure 43
0100
1000
0001
0100
0010
1000
0001
0010
1000
0010
0001
1000
0010
0100
2001
0000
,  // measure 44
3200
0000
0320
0000
0031
0100
0010
1000
,  // measure 45
0002
0000
0013
2000
0000
3010
0001
0100
,  // measure 46
0001
0000
0100
0100
0010
0010
0000
2010
,  // measure 47
0000
0000
3100
0000
0010
0000
0012
0000
0000
0103
0010
0000
1000
0000
1000
0001
,  // measure 48
0200
0000
0320
0000
1030
0100
0010
0001
,  // measure 49
2000
0000
3010
0002
0000
0013
1000
0100
,  // measure 50
1000
0000
0100
1100
0000
0011
0000
1010
,  // measure 51
1000
0010
0000
0010
0100
0001
0000
0001
0010
0100
0000
0100
0010
0000
0001
1000
,  // measure 52
0010
0000
0000
0000
;
