#VERSION:0.83;
#TITLE:drizzly rain;
#SUBTITLE:~ うーーー(><) ぱちゅりみっくす ~;
#ARTIST:COOL&CREATE vs IOSYS;
#TITLETRANSLIT:drizzly rain;
#SUBTITLETRANSLIT:~Pachi Yurimix~;
#ARTISTTRANSLIT:;
#GENRE:;
#ORIGIN:;
#CREDIT:;
#BANNER:;
#BACKGROUND:;
#PREVIEWVID:;
#JACKET:;
#CDIMAGE:;
#DISCIMAGE:;
#LYRICSPATH:;
#CDTITLE:;
#MUSIC:[Round B] - drizzly rain ~Pachi Yurimix~.ogg;
#OFFSET:-0.001000;
#SAMPLESTART:51.169998;
#SAMPLELENGTH:12.800000;
#SELECTABLE:YES;
#BPMS:0.000=150.000;
#STOPS:;
#DELAYS:;
#WARPS:;
#TIMESIGNATURES:0.000=4=4;
#TICKCOUNTS:0.000=4;
#COMBOS:0.000=1;
#SPEEDS:0.000=1.000=0.000=0;
#SCROLLS:0.000=1.000;
#FAKES:;
#LABELS:0.000=Song Start;
#LASTSECONDHINT:132.000000;
#BGCHANGES:;
#KEYSOUNDS:;
#ATTACKS:
;

//---------------dance-single - ----------------
#NOTEDATA:;
#CHARTNAME:;
#STEPSTYPE:dance-single;
#DESCRIPTION:;
#CHARTSTYLE:;
#DIFFICULTY:Beginner;
#METER:2;
#RADARVALUES:0.162598,0.203539,0.014227,0.099591,0.000000,160.000000,158.000000,2.000000,14.000000,0.000000,0.000000,0.000000,0.000000,0.000000,0.162598,0.203539,0.014227,0.099591,0.000000,160.000000,158.000000,2.000000,14.000000,0.000000,0.000000,0.000000,0.000000,0.000000;
#CREDIT:;
#NOTES:
0000
0000
0000
0000
,
0000
0000
0000
0000
,
0000
0000
0000
0000
,
0000
0000
0000
0000
,
1000
0000
0100
0000
,
1000
0000
0001
0000
,
0010
0010
0010
0010
,
0020
0000
0000
0030
,
0001
0000
0100
0000
,
0010
0000
1000
0000
,
1000
0000
0010
0000
,
0100
0000
0001
0000
,
1000
0000
0100
0000
,
0010
0000
0001
0000
,
0001
0000
0010
0000
,
0100
0000
1000
0000
,
0002
0000
0003
1000
,
2000
0000
3000
0010
,
0020
0000
0030
0100
,
0200
0000
0300
0001
,
2000
0000
3000
0001
,
0002
0000
0003
0100
,
0100
0000
0010
0000
,
1000
1000
1000
0000
,
0100
0000
0010
0000
,
0001
0000
1000
0000
,
0010
0000
0100
0000
,
0001
0000
1000
0000
,
0100
0000
1000
0000
,
0001
0000
0010
0000
,
0001
0001
0001
0000
,
2000
0000
3010
0000
,
1000
0000
0100
0000
,
1000
0000
0001
0000
,
0010
0000
0001
0000
,
0100
0000
0010
0000
,
1000
0000
0010
0000
,
1000
0000
0001
0000
,
0100
0000
0001
0000
,
0010
0000
0100
0000
,
1000
0000
0100
0000
,
0001
0000
0100
0000
,
1000
0000
0010
0000
,
0001
0000
0010
0000
,
0100
0000
0001
0000
,
1000
0000
0100
0000
,
0010
0000
0001
0000
,
1000
0000
0010
0010
,
0010
0000
1000
0000
,
0100
0000
1000
0000
,
0002
0000
0100
0000
,
0100
0000
0013
0000
,
0010
0000
0001
0000
,
0100
0000
0001
0000
,
2000
0000
0010
0000
,
0010
0000
3100
0000
,
0010
0000
0001
0000
,
1000
0000
0010
0000
,
0200
0000
0001
0000
,
0001
0000
0310
0000
,
0100
0000
0001
0000
,
1000
0000
0100
0000
,
0020
0000
0001
0000
,
0031
0000
1000
0000
,
1000
0000
0010
0000
,
0100
0000
0001
0000
,
0001
0000
0100
0000
,
0010
0000
1000
0000
,
0001
0000
0010
0000
,
0100
0000
1000
0000
,
1000
0000
0100
0000
,
0010
0000
0001
0000
,
1000
0000
1000
0000
,
0010
0000
0010
0000
,
0100
0000
0100
0000
,
0001
0000
0001
0000
,
0010
0000
0010
0000
,
0001
0000
0001
0000
,
0100
0000
0100
0000
,
0010
0000
1000
0000
,
2002
0000
0000
0000
,
3003
0000
0000
0110
;

//---------------dance-single - ----------------
#NOTEDATA:;
#CHARTNAME:;
#STEPSTYPE:dance-single;
#DESCRIPTION:;
#CHARTSTYLE:;
#DIFFICULTY:Hard;
#METER:9;
#RADARVALUES:0.630065,0.756002,0.298773,0.512182,0.526409,620.000000,578.000000,42.000000,72.000000,0.000000,0.000000,0.000000,0.000000,0.000000,0.630065,0.756002,0.298773,0.512182,0.526409,620.000000,578.000000,42.000000,72.000000,0.000000,0.000000,0.000000,0.000000,0.000000;
#CREDIT:;
#NOTES:
0000
0000
0000
0000
,
0000
0000
0000
0000
,
0000
0000
0000
0000
,
0000
0000
0000
0000
,
0002
0000
0000
0000
0000
0000
0103
0010
2000
0000
0000
0000
0000
0000
3100
0010
,
0200
0000
0000
1300
0000
0010
0000
0100
,
0101
0011
1010
1100
,
0100
0000
1000
0000
0010
0000
0100
0000
0001
1000
0001
1000
0001
1000
0001
0000
,
0100
0000
0010
0000
1000
0000
0100
0000
1000
0000
0001
0100
0000
0001
0000
0020
,
0000
0000
0130
0000
0110
0000
0010
0001
0000
0001
0100
0000
1000
0000
0100
0020
,
0000
0000
1030
0000
1002
0000
0000
0103
0000
0001
2000
0000
3100
0000
1000
0000
,
0010
0000
0100
0000
1000
0100
0000
0001
0010
0001
0010
0000
2100
0000
0000
0000
,
3100
0000
0010
0000
0001
0000
0100
0000
0001
0000
1000
0100
0000
1000
0000
0020
,
0000
0000
0130
0000
0110
0000
0010
1000
0000
1000
0001
0000
0010
0001
0000
2000
,
0000
0000
3001
0000
0101
0000
0100
0000
0010
0000
1000
0001
0000
0010
0100
1000
,
0001
0000
0100
0000
0001
0100
0000
0001
1000
0100
1000
0100
0010
0001
0010
0001
,
2000
0000
0000
0000
0000
0000
3001
0000
0200
0000
0000
0000
0000
0000
0310
0100
,
0002
0000
0000
0000
0000
0000
1003
0100
0020
0000
0000
0000
0000
0000
0031
0100
,
0002
0000
0000
0013
0100
0000
1001
0000
,
2000
0010
0000
3010
0100
0001
1000
0000
,
0002
0000
0000
0000
0000
0000
0103
0010
2000
0000
0000
0000
0000
0000
3001
1000
,
0200
0000
0000
0320
0000
0032
0000
1003
,
1010
0000
0011
0000
0001
0100
0010
2000
,
0000
0000
3010
0000
0100
0000
0010
0000
0001
0000
0010
1000
0001
0010
0100
0000
,
0200
0000
0000
0000
1300
0001
0100
0020
,
0000
1000
0000
0001
0000
0130
0000
0002
,
0000
0000
0000
0103
0010
1000
0100
2000
,
0000
0000
0010
0000
0000
0000
0100
0000
0000
0000
3001
0000
1000
0001
1000
0000
,
0100
0000
1001
0000
0001
0100
0010
1000
,
0000
0001
0000
0001
0010
0100
0000
0100
,
1000
0000
0010
0000
0100
0000
0010
0000
0001
0000
0010
0000
0100
0000
0001
0010
,
0100
0000
1000
0100
1000
0000
0001
1000
0001
0000
0100
0001
0010
0000
0000
0000
,
1001
0001
0100
0001
1000
0100
1000
0020
,
0000
0000
0031
0000
0010
0000
1000
0000
0001
0000
0000
0001
0000
0000
1000
0000
,
0000
0000
0100
0000
1000
0000
0001
0000
1000
0000
0000
1000
0000
0000
0010
0000
,
0100
0000
0100
0000
0001
0000
1000
0001
0000
0010
0001
1000
0100
0000
0000
0000
,
1001
1000
0010
1000
0001
0010
0001
0200
,
0000
0000
1300
0000
0100
0000
0001
0000
1000
0000
0000
1000
0000
0000
0002
0000
,
0000
0000
0013
0000
0100
0000
0010
0000
0001
0000
0000
0001
0000
1000
0000
0010
,
1000
0000
0001
0000
0010
0000
0100
0010
0000
0001
1000
0010
0100
0010
0100
0000
,
0101
0000
0000
0000
1002
0000
0000
1003
0100
0000
0000
0000
1100
0000
0100
0000
,
2001
0000
0000
0001
0000
0000
3002
0000
0103
0000
0000
0000
0010
0000
0100
0000
,
0001
0000
0100
0000
0010
0000
1000
0010
0000
0010
0000
0100
0001
0000
0010
0000
,
0011
0000
0000
1010
0000
0000
2002
0000
3000
0000
2000
0003
3100
0000
0220
0000
,
0000
0000
0300
0031
0100
0000
0000
0210
,
0000
0000
0310
0000
1000
0000
0100
0000
1000
0010
0000
0100
0000
0010
1000
0100
,
0010
0000
0000
0000
0001
0010
0001
0010
0100
1000
0100
1000
0001
0000
0100
0000
,
0010
1000
0010
1000
0001
0010
0001
0010
0000
0100
0010
0000
1001
0000
0000
0000
,
1000
0000
0100
0000
0010
0000
0100
0000
0001
0000
0000
0100
0000
0000
2000
0000
,
0000
3010
0100
0010
0001
0000
0010
2000
,
0000
0000
0001
0000
3002
0000
0000
0000
0100
0000
0000
0203
0000
0000
0310
0000
,
0010
0000
0001
0000
1000
0000
0100
0001
0000
0001
1000
0000
1001
0000
0000
0000
,
0001
0000
0010
0000
0100
0000
0010
0000
1000
0000
0000
0010
0000
0000
0002
0000
,
0000
0000
0103
0000
0010
0000
0100
0000
1000
0000
0100
0001
0010
0000
0002
0000
,
0000
0000
1000
0000
2003
0000
0000
0000
0010
0000
0000
3020
0000
0000
0130
0000
,
0100
0000
1000
0000
0001
0000
0010
1000
0000
1000
0001
0000
2001
0000
0000
0000
,
3010
0000
1000
0000
0001
0000
1000
0000
0100
0000
0000
0010
0000
0000
0002
0000
,
0000
0013
0001
1000
0100
0000
1000
0020
,
0000
0000
0100
0000
0230
0000
0000
0000
0001
0000
0000
0302
0000
0000
1003
0000
,
1000
0000
0100
0000
0010
0000
0001
0100
0000
0100
0010
0000
0110
0000
0000
0000
,
0100
0000
0001
0000
1000
0000
0001
0000
0010
0000
0010
0100
0000
0000
2000
0000
,
0000
3100
1000
0001
0010
0000
0001
0200
,
0000
0000
0010
0000
0320
0000
0000
0000
1000
0000
0000
2030
0000
0000
3001
0000
,
0001
0000
0010
0000
0100
0000
1000
0010
0000
0010
0100
0000
0110
0000
0000
0000
,
0100
0000
0010
0000
1000
0000
0100
0000
1000
0000
0001
0100
0000
0001
0000
0020
,
0000
0000
0130
0000
0110
0000
0010
0001
0000
0001
0100
0000
1000
0000
0100
0020
,
0000
0000
1030
0000
1002
0000
0000
0103
0000
0001
2000
0000
3100
0000
1000
0000
,
0010
0000
0100
0000
1000
0100
0000
0001
0010
0001
0010
0000
2100
0000
0000
0000
,
3100
0000
0010
0000
0001
0000
0100
0000
0001
0000
1000
0100
0000
1000
0000
0020
,
0000
0000
0130
0000
0110
0000
0010
1000
0000
1000
0001
0000
0010
0001
0000
2000
,
0000
0000
3001
0000
0101
0000
0100
0000
0010
0000
1000
0001
0000
0010
0100
1000
,
0001
0000
0100
0000
0001
0100
0000
0001
1000
0100
1000
0100
0010
0001
0010
0001
,
0100
0000
0001
0000
0010
0000
0001
0000
1000
0000
0100
1000
0000
1000
0000
0020
,
0000
0000
0130
0000
0110
0000
0010
1000
0000
1000
0100
0000
0001
0000
0100
0020
,
0000
0000
0031
0000
2001
0000
0000
3100
0000
1000
0002
0000
0103
0000
0001
0000
,
0010
0000
0100
0000
0001
0100
0000
1000
0010
1000
0010
0000
0102
0000
0000
0000
,
0103
0000
0010
0000
1000
0000
0100
0000
1000
0000
0001
0100
0000
0001
0000
0020
,
0000
0000
0130
0000
0110
0000
0010
0001
0000
0001
1000
0000
0010
1000
0000
0002
,
0000
0000
1003
0000
1100
0000
0100
0000
0010
0000
0001
1000
0000
0010
0100
0001
,
1000
0000
0100
0000
1000
0100
0000
1000
0001
0100
0001
0100
0010
1000
0010
2000
,
0002
0000
0000
3003
,
1100
0000
0000
0011
0000
0000
0101
0000
0000
0000
0020
0000
1030
0000
0000
0000
;

//---------------dance-single - ----------------
#NOTEDATA:;
#CHARTNAME:;
#STEPSTYPE:dance-single;
#DESCRIPTION:;
#CHARTSTYLE:;
#DIFFICULTY:Easy;
#METER:4;
#RADARVALUES:0.307919,0.378001,0.177841,0.078250,0.000000,303.000000,278.000000,25.000000,11.000000,0.000000,0.000000,0.000000,0.000000,0.000000,0.307919,0.378001,0.177841,0.078250,0.000000,303.000000,278.000000,25.000000,11.000000,0.000000,0.000000,0.000000,0.000000,0.000000;
#CREDIT:;
#NOTES:
0000
0000
0000
0000
,
0000
0000
0000
0000
,
0000
0000
0000
0000
,
0000
0000
0000
0000
,
1000
0000
0100
0000
,
0010
0000
0001
0000
,
0100
0100
0100
0100
,
0200
0000
0000
0310
,
1000
0010
0100
0001
,
0010
0010
0010
0100
,
0001
0100
1000
0100
,
0010
0001
1000
1001
,
0001
0010
0100
1000
,
0010
0010
1000
0010
,
0100
0001
1000
0100
,
0010
0100
0110
1001
,
1000
0000
0100
0000
,
0001
0000
0100
0000
,
0020
0000
0001
0000
,
0100
0000
0031
1001
,
0001
0000
0100
0000
,
1000
0000
0100
0000
,
0020
0000
1000
0000
,
0130
0010
1000
0001
,
1000
0000
0100
1000
,
0010
0100
0001
0100
,
0001
0000
0100
0010
,
1000
0001
0010
0100
,
1000
0000
0001
1000
,
0010
0100
0001
1000
,
0100
0100
0010
0010
,
2002
0000
3003
0110
,
1001
1000
0100
1000
,
0001
0100
0001
0010
,
1000
0010
0001
1000
,
0001
0001
1000
1000
,
1001
0001
0010
0001
,
1000
0010
1000
0100
,
0001
0100
1000
0001
,
0010
0001
2000
0000
,
3010
0020
0030
1000
,
1000
0001
0001
0010
,
0100
0001
0100
1000
,
0010
0100
0001
0000
,
2002
0000
3003
0000
,
0110
1010
0011
1001
,
0001
0100
0100
0010
,
0010
1000
0100
0010
,
0001
0001
0100
0100
,
1000
1000
0100
0100
,
0010
1000
0001
0010
,
0100
1000
0001
1001
,
1000
1000
0100
0100
,
0001
0001
0100
0100
,
0010
0001
1000
0010
,
0100
0001
1000
1001
,
1000
1000
0010
0010
,
0001
0001
0010
0010
,
0100
1000
0001
0100
,
0010
1000
0001
0110
,
1001
0001
0010
0010
,
1000
1000
0010
0010
,
0100
1000
0010
0100
,
0001
0010
0100
1001
,
0001
0100
0010
1000
,
0100
0100
0100
0010
,
1000
0010
0001
0010
,
0100
1000
0001
1001
,
1000
0100
0010
0001
,
0100
0100
0001
0100
,
0010
1000
0001
0010
,
0100
0010
0110
1001
,
1000
0010
0100
0001
,
0010
0010
0010
0100
,
0001
0100
1000
0100
,
0010
0001
1000
1001
,
0001
0010
0100
1000
,
0010
0010
1000
0010
,
0100
0001
1000
0100
,
0010
0100
0110
0110
,
2002
0000
0000
3003
,
1000
0000
0000
0001
0000
0000
0010
0000
;

//---------------dance-single - ----------------
#NOTEDATA:;
#CHARTNAME:;
#STEPSTYPE:dance-single;
#DESCRIPTION:;
#CHARTSTYLE:;
#DIFFICULTY:Medium;
#METER:6;
#RADARVALUES:0.453241,0.494309,0.128046,0.170727,0.003557,446.000000,428.000000,18.000000,24.000000,0.000000,0.000000,0.000000,0.000000,0.000000,0.453241,0.494309,0.128046,0.170727,0.003557,446.000000,428.000000,18.000000,24.000000,0.000000,0.000000,0.000000,0.000000,0.000000;
#CREDIT:;
#NOTES:
// measure 0
0000
0000
0000
0000
,  // measure 1
0000
0000
0000
0000
,  // measure 2
0000
0000
0000
0000
,  // measure 3
0000
0000
0000
0000
,  // measure 4
2000
0000
0000
3100
0020
0000
0000
0031
,  // measure 5
0200
0000
0000
0310
0002
0000
0000
0013
,  // measure 6
1000
1100
0001
0101
,  // measure 7
0001
1000
0001
1000
0001
1000
0001
0000
,  // measure 8
0100
0010
1000
0100
1000
0100
1000
0000
,  // measure 9
0010
0100
0001
0000
0010
0100
1000
0000
,  // measure 10
0001
0100
0001
0000
1000
0100
1000
0000
,  // measure 11
0010
0100
0001
1000
0010
0010
1000
0000
,  // measure 12
0100
0010
0001
0100
0001
0100
0001
0000
,  // measure 13
0010
0001
0010
0000
0100
1000
0010
0100
,  // measure 14
0001
0100
0001
0000
1000
0100
1000
0000
,  // measure 15
0010
0100
1000
0100
0001
1000
0100
0010
,  // measure 16
0001
0000
0000
0100
0001
0000
0000
1000
,  // measure 17
0100
0000
0000
1000
0010
0000
0000
0001
,  // measure 18
0020
0000
1000
1000
,  // measure 19
0000
0100
0000
0130
0001
0010
0100
0000
,  // measure 20
0002
0000
0000
0103
0020
0000
0000
0031
,  // measure 21
0200
0000
0000
0310
0000
2000
0000
3100
,  // measure 22
0010
0000
0110
0000
0100
1000
0010
0100
,  // measure 23
0000
0001
0100
1000
0100
0001
0100
0010
,  // measure 24
2000
0000
0000
0000
3100
1000
0001
0010
,  // measure 25
0000
0001
0000
0100
0000
0010
0000
2000
,  // measure 26
0000
0000
3000
1000
0001
0100
0001
0010
,  // measure 27
0000
0100
0000
1000
0000
0010
0000
0002
,  // measure 28
0000
0000
0003
0000
0010
1000
0100
0010
,  // measure 29
0000
0001
0000
0100
0001
1000
0000
0100
,  // measure 30
0010
0011
0100
1100
,  // measure 31
1000
0010
0100
0001
0010
0100
1001
0000
,  // measure 32
0001
0100
0001
0100
0010
0000
0010
0000
,  // measure 33
1000
0010
1000
0010
0100
0000
0100
0000
,  // measure 34
0001
0010
0001
0010
0100
0000
0100
0000
,  // measure 35
1000
0100
1000
0100
0010
0000
0010
0000
,  // measure 36
0001
1000
0001
1000
0010
0000
0010
0000
,  // measure 37
1000
0001
1000
0001
0100
0000
0100
0000
,  // measure 38
0001
0010
0100
0000
1000
0010
0100
0000
,  // measure 39
0001
1000
0001
1000
0001
1000
0010
0000
,  // measure 40
1010
0000
0202
0000
0303
0000
0001
0100
,  // measure 41
0010
0000
0000
0010
0000
0000
1000
0100
,  // measure 42
1000
0001
0010
0000
0010
0000
0001
1000
,  // measure 43
0100
0000
0000
0100
0000
0000
0000
2002
,  // measure 44
0000
0000
0000
0000
3003
0000
0000
0110
,  // measure 45
0000
1001
1000
0001
0010
0000
0100
0010
,  // measure 46
0001
0000
1000
0010
0100
0001
1000
0010
,  // measure 47
0100
0001
0010
0100
1000
0001
1001
0000
,  // measure 48
0001
0100
0001
0100
1000
0000
0100
0000
,  // measure 49
0001
0010
0001
0010
1000
0000
0010
0002
,  // measure 50
0000
1000
0100
0010
,  // measure 51
1000
0010
0103
1001
,  // measure 52
1000
0010
1000
0010
0001
0000
0010
0000
,  // measure 53
1000
0100
1000
0100
0001
0000
0100
2000
,  // measure 54
0000
0001
0010
0100
,  // measure 55
0001
0100
3010
1001
,  // measure 56
0100
1000
0100
1000
0010
0000
1000
0000
,  // measure 57
0001
0100
0001
0100
0010
0000
1000
0200
,  // measure 58
0000
0010
1000
0001
,  // measure 59
0010
0001
1300
0110
,  // measure 60
0100
1000
0100
1000
0010
0000
1000
0000
,  // measure 61
0001
0100
0001
0100
0010
0000
0001
0020
,  // measure 62
0000
0100
1000
0001
,  // measure 63
0100
0001
1030
2001
,  // measure 64
3010
0100
0001
0010
0001
0010
0001
0000
,  // measure 65
0100
0010
1000
0000
0100
0010
0001
0000
,  // measure 66
1000
0010
1000
0000
0001
0010
0001
0000
,  // measure 67
0100
0010
1000
0001
0100
0100
0001
0000
,  // measure 68
0010
0100
1000
0010
1000
0010
1000
0000
,  // measure 69
0100
1000
0100
0000
0010
0001
0100
0010
,  // measure 70
1000
0010
1000
0000
0001
0010
0001
0000
,  // measure 71
0100
0010
0001
0010
1000
0001
1002
0000
,  // measure 72
0103
0010
1000
0100
1000
0100
1000
0000
,  // measure 73
0010
0100
0001
0000
0010
0100
1000
0000
,  // measure 74
0001
0100
0001
0000
1000
0100
1000
0000
,  // measure 75
0010
0100
0001
1000
0010
0010
1000
0000
,  // measure 76
0100
0010
0001
0100
0001
0100
0001
0000
,  // measure 77
0010
0001
0010
0000
0100
1000
0010
0100
,  // measure 78
0001
0100
0001
0000
1000
0100
1000
0000
,  // measure 79
0010
0100
1000
0100
0001
1000
0100
0010
,  // measure 80
0220
0000
0000
0330
,  // measure 81
0010
0000
0000
0100
0000
0000
1000
0000
0000
0000
0001
0000
0100
0000
0000
0000
;
