#TITLE:The Setting Sun;
#SUBTITLE:;
#ARTIST:DJBor;
#TITLETRANSLIT:;
#SUBTITLETRANSLIT:;
#ARTISTTRANSLIT:;
#GENRE:;
#CREDIT:;
#BANNER:;
#BACKGROUND:The Setting Sun.png;
#LYRICSPATH:;
#CDTITLE:;
#MUSIC:[Round B] - The Setting Sun.ogg;
#OFFSET:-0.002495;
#SAMPLESTART:51.615997;
#SAMPLELENGTH:12.500000;
#SELECTABLE:YES;
#BPMS:0.000000=114.084999
,8.000000=114.584999
,12.000000=115.084999
,16.000000=115.585999
,20.000000=115.084999
,32.000000=57.542999
,34.000000=114.994003
;
#STOPS:200.000000=0.521000
;
#BGCHANGES:;
#KEYSOUNDS:;
#ATTACKS:;

//---------------dance-single - ----------------
#NOTES:
     dance-single:
     :
     Hard:
     9:
     0.567018,0.576335,0.102650,0.643272,0.780138,580.000000,565.000000,15.000000,94.000000,0.000000,0.000000,0.567018,0.576335,0.102650,0.643272,0.780138,580.000000,565.000000,15.000000,94.000000,0.000000,0.000000:
// measure 0
0000
0000
0000
0000
,  // measure 1
0000
0000
0000
0000
,  // measure 2
0000
0000
0000
0000
,  // measure 3
0010
0000
0000
0000
0010
0000
1000
0001
0000
0000
0010
0000
0000
0000
0010
0000
,  // measure 4
0100
0000
0000
0000
0100
0000
0000
1000
0000
0000
0001
0000
0100
0000
0100
0000
,  // measure 5
0010
0000
1000
0010
0000
1000
0010
0100
0001
0000
0010
0001
0000
0010
0001
0010
,  // measure 6
0100
0000
1000
0100
0000
1000
0100
0010
0001
0000
0100
0001
0000
0100
0010
1000
,  // measure 7
0100
0000
0010
0100
0000
0010
0100
1000
0010
0000
0100
0010
0000
0100
0001
0010
,  // measure 8
0200
0000
0000
0000
0010
0000
0000
0001
0000
0000
0010
0000
1000
0000
0000
0000
1300
0000
0000
0000
0000
0000
1000
0000
0100
0000
0010
0000
0100
0000
0010
0000
,  // measure 9
0001
0000
0001
0000
2000
0000
0000
0000
3010
0000
0000
0010
0100
0001
0100
0001
,  // measure 10
1000
0100
1000
0100
0010
0000
0010
0000
0001
0000
0000
0001
1000
0010
1000
0010
,  // measure 11
0100
0000
0100
0000
0002
0000
0000
0000
2003
0000
3010
0100
0002
0000
2003
0000
,  // measure 12
3200
0000
0310
0000
0220
0000
0330
0000
1000
0000
0000
0010
1000
0100
1000
0001
,  // measure 13
0010
0000
0010
0000
0200
0000
0000
0000
0310
0000
0000
0001
0100
0001
1000
0010
,  // measure 14
0100
0001
0100
0001
0010
0000
0010
0000
0100
0000
0000
1000
0010
1000
0001
0010
,  // measure 15
0100
0000
0100
0000
2000
0000
0000
0000
3002
0000
0013
0100
1000
0000
0001
0000
,  // measure 16
0100
0010
0210
0320
2030
0000
3002
0000
,  // measure 17
0013
0001
0010
0100
0000
1000
0000
0010
0000
0010
0000
1000
0100
0010
0200
0000
,  // measure 18
0000
0000
0000
0000
0001
0000
0000
0000
0000
0000
1300
0000
0100
0000
0010
0000
0002
0000
0000
0000
0000
0000
0103
0000
0010
0000
1000
0000
0000
0001
0010
0000
,  // measure 19
0000
0001
0020
0000
0000
0000
0000
0000
0000
0000
0230
0000
0000
0000
1300
0000
0010
0000
0000
0000
0100
0000
0001
0000
0100
0000
1000
0000
0000
0000
0200
0000
,  // measure 20
0000
0000
0310
1000
0100
1000
0001
0010
0200
0000
0000
0000
0320
0000
0000
0000
,  // measure 21
0031
0000
0000
0000
0000
0000
0000
0000
0000
0000
0000
0000
0010
0000
0000
0000
0000
0000
0000
0000
0000
0000
0000
0000
0001
0000
0000
0000
0000
0000
0000
0000
0000
0000
0000
0000
1000
0000
0000
0000
0000
0000
0000
0000
0000
0000
0000
0000
0000
0000
0000
0000
0000
0000
0000
0000
0000
0000
0000
0000
0100
0000
0000
0000
0000
0000
0000
0000
0000
0000
0000
0000
0000
0000
0000
0000
0000
0000
0000
0000
0000
0000
0000
0000
0001
0000
0000
0000
0000
0000
0000
0000
0000
0000
0000
0000
0000
0000
0000
0000
0000
0000
0001
0000
0000
0000
0000
0000
0100
0000
0000
0000
0000
0000
0000
0000
0000
0000
0000
0000
0000
0000
0000
0000
1000
0000
0000
0000
0000
0000
0000
0000
0100
0000
0000
0000
0000
0000
0000
0000
0000
0000
0000
0000
0000
0000
0000
0000
0000
0000
0000
0000
0000
0000
0000
0000
1000
0000
0000
0000
0000
0000
0000
0000
0000
0000
0000
0000
0001
0000
0000
0000
0000
0000
0000
0000
0000
0000
0000
0000
1000
0000
0000
0000
0000
0000
0000
0000
0000
0000
0000
0000
,  // measure 22
0020
0000
0000
0000
0000
0000
0000
0000
0000
0000
0000
0000
0000
0000
0000
0000
0000
0000
0000
0000
0000
0000
0000
0000
0000
0000
0000
0000
0000
0000
0000
0000
0030
0000
0000
0000
0100
0000
0000
0000
0000
0000
0001
0000
0000
0000
0000
0000
0200
0000
0000
0000
0000
0000
0000
0000
0000
0000
0000
0000
0000
0000
0000
0000
0000
0000
0000
0000
0000
0000
0000
0000
0000
0000
0000
0000
0000
0000
0000
0000
0000
0000
0000
0000
0000
0000
0000
0000
0000
0000
0000
0000
0000
0000
0000
0000
0320
0000
0000
0000
0000
0000
0000
0000
0000
0000
0000
0000
0000
0000
0000
0000
0000
0000
0000
0000
0000
0000
0000
0000
0000
0000
0000
0000
0000
0000
0000
0000
0000
0000
0000
0000
1030
0000
0000
0000
0000
0000
0000
0000
0000
0000
0000
0000
0100
0000
0000
0000
0000
0000
0000
0000
0000
0000
0000
0000
1000
0000
0000
0000
0000
0000
0000
0000
0000
0000
0000
0000
0000
0000
0000
0000
0000
0000
0001
0000
0000
0000
0000
0000
0010
0000
0000
0000
0000
0000
0000
0000
0000
0000
0000
0000
,  // measure 23
0000
0001
0020
0000
0000
0000
0000
0000
0000
0000
0230
0000
0000
0000
0310
0000
0002
0000
0000
0000
0000
0000
0103
0000
1000
0000
0100
0000
0000
0000
0002
0000
,  // measure 24
0000
0000
0000
0000
1003
0001
1000
0001
0200
0000
0000
0000
0001
0000
0010
0000
,  // measure 25
0300
0010
1000
0000
0100
0000
0000
0000
0200
0000
0000
0000
0001
0000
0010
0000
,  // measure 26
0300
1000
0001
0000
0100
0000
0000
0000
0020
0000
0000
0000
0001
0000
0100
0000
,  // measure 27
0030
1000
0001
0000
0010
0000
0000
0000
0200
0000
0000
0000
0010
0000
1300
0000
,  // measure 28
0000
0001
1000
0000
0001
1000
0001
1000
0020
0000
0000
0000
1000
0000
0100
0000
,  // measure 29
0030
0100
0001
0000
0010
0000
0000
0000
0020
0000
0000
0000
1000
0000
0100
0000
,  // measure 30
0030
0001
1000
0000
0010
0000
0000
0000
0200
0000
0000
0000
0000
0301
0010
0100
,  // measure 31
2000
3020
0230
0302
,  // measure 32
0020
0000
0000
0033
0200
0000
0010
0000
,  // measure 33
0010
0000
0000
0000
0310
0001
0010
0001
1000
0000
0000
1010
0000
0000
0100
0000
,  // measure 34
0000
0001
0100
0001
1000
1000
0100
0100
0010
0000
0000
0011
0000
0001
0010
0001
,  // measure 35
1000
0000
0010
0000
0200
0000
0000
0000
0310
0000
0000
1010
0000
0000
0001
0000
,  // measure 36
0000
0010
0001
0010
0100
0100
0010
0010
0001
0000
0000
0101
0000
0010
1000
0001
,  // measure 37
0010
0000
0100
0000
2000
0000
0000
0000
3001
0000
0000
0011
0000
0000
0100
0000
,  // measure 38
0000
1000
0100
1000
0001
0001
0100
0100
0010
0000
0000
1010
0000
1000
0001
0010
,  // measure 39
0001
0000
0100
0000
0020
0000
0000
0000
1030
0000
0000
1100
0000
0000
0001
0000
,  // measure 40
0000
0010
0100
0010
0001
0001
1000
1000
0002
0000
0013
0100
1000
0000
0001
0000
,  // measure 41
0100
0000
0010
0000
0220
0000
0330
0000
1000
0000
0000
0100
1000
0001
0010
0100
,  // measure 42
0010
0000
0010
0000
0002
0000
0000
0000
1003
0000
0000
1000
0001
0100
0001
0010
,  // measure 43
0001
0100
0010
1000
0001
0000
0010
0000
0200
0000
0000
0310
0001
0100
0001
1000
,  // measure 44
0010
0000
0010
0000
0200
0000
0000
0000
0320
0000
1030
0100
0002
0000
0203
0000
,  // measure 45
2300
0000
3010
0000
0220
0000
0330
0000
2000
0000
3100
1000
0001
0010
0100
0010
,  // measure 46
0001
0000
0001
0000
2000
0000
0000
0000
3020
0000
0130
0001
1000
0001
0010
0100
,  // measure 47
1000
0100
1000
0100
0010
0000
1001
0000
0002
0000
0103
0010
1000
0100
1000
0001
,  // measure 48
0010
0000
0010
0000
0200
0000
0000
0000
1300
0000
0001
0100
1000
0000
0100
0000
,  // measure 49
0002
0000
0000
0000
0023
0000
0000
0000
0130
0100
1000
0010
0000
1000
0100
0010
,  // measure 50
0011
0000
0000
0000
0200
0000
0000
0000
0010
0000
1000
0000
0300
0001
0100
0000
,  // measure 51
0010
0000
1000
0000
0200
0000
0000
0000
0001
0000
1000
0000
0300
1000
0001
0000
,  // measure 52
0100
0000
0000
0000
0020
0000
0000
0000
0001
0000
0100
0000
0030
0001
1000
0000
,  // measure 53
0001
0000
0010
0000
0200
0000
0000
0000
0001
0000
0010
0000
0300
1000
0001
0000
,  // measure 54
0100
0010
0100
0010
2000
0000
0000
0000
0001
0000
0100
0000
0000
0100
3100
0000
,  // measure 55
0010
0000
0001
0000
0200
0000
0000
0000
1000
0000
0010
0000
0000
0010
0310
0000
,  // measure 56
1000
0000
0000
0000
0000
0000
0000
0000
0002
0000
0000
0000
0000
0000
1003
0000
0100
0000
0010
0000
0000
0001
0100
0000
0000
0001
0200
0000
0000
0000
0000
0000
,  // measure 57
0000
0320
0000
1030
0002
0000
0000
0013
1000
0010
0000
0200
0000
0000
0000
0000
,  // measure 58
1300
0010
0100
0001
2000
0000
0000
0000
3002
0000
0000
0000
0013
0100
1000
0100
,  // measure 59
0000
1000
0000
0001
0000
0001
0000
0100
1000
0100
0002
0000
0000
0010
0010
0003
,  // measure 60
0000
0000
0100
0000
1000
0000
0001
0000
0200
0000
0000
0000
0000
0000
1300
0000
0100
0000
0010
0000
0000
1000
0100
0000
0000
1000
0200
0000
0000
0000
0000
0000
,  // measure 61
0000
0310
0000
0001
2000
0000
3100
0001
0100
1000
0000
0020
0000
0000
0130
0001
,  // measure 62
0010
0100
1000
0001
0200
0000
0000
0000
0320
0000
0000
0000
0130
0001
0010
1000
,  // measure 63
0000
0010
0000
0200
0000
0000
1300
0000
0001
0100
0010
1000
0200
0000
0000
0000
,  // measure 64
0302
0000
0000
0103
1000
0000
0000
1000
0000
0100
0010
0001
2000
0000
0000
3020
,  // measure 65
0000
0000
0130
0000
0001
0010
0000
0001
0010
0000
0100
0000
1000
0010
0000
1000
,  // measure 66
0010
0000
0100
0000
2002
0000
0000
0000
0000
0000
3003
0000
0001
0010
0010
0100
,  // measure 67
1000
1000
0010
1000
2200
0000
3300
0000
0000
0000
0000
0000
0000
0000
0000
0000
;

//---------------dance-single - ----------------
#NOTES:
     dance-single:
     :
     Medium:
     7:
     0.407666,0.483224,0.027373,0.260046,0.290841,417.000000,413.000000,4.000000,38.000000,0.000000,0.000000,0.407666,0.483224,0.027373,0.260046,0.290841,417.000000,413.000000,4.000000,38.000000,0.000000,0.000000:
0000
0000
0000
0000
,
0000
0000
0000
0000
,
0000
0000
0000
0000
,
0000
0000
0000
0000
,
0000
0000
0000
0000
,
1000
0000
0000
1000
0000
0000
1000
0000
0010
0000
0000
0010
0000
0000
0010
0000
,
0100
0000
0000
0100
0000
0000
0100
0000
0001
0000
0000
0001
0000
0000
0001
0000
,
0010
0000
0000
0010
0000
0000
0010
0000
0100
0000
0000
0100
0000
0000
0100
0000
,
2000
0000
0000
0000
0000
0000
0000
0000
3001
0000
0000
0001
0100
0000
0001
0000
,
0010
0000
0001
0000
0200
0000
0000
0000
0310
0000
0000
0010
1000
0000
0100
0000
,
0010
0000
0010
0000
0001
0000
0010
0000
0100
0000
0000
0100
1000
0000
0010
0000
,
1000
0100
0020
0000
0031
0100
0010
1000
,
0100
0000
0010
0000
0200
0000
0000
0000
1300
0000
0000
1000
0010
0000
1000
0000
,
0100
0000
1000
0000
0020
0000
0000
0000
0130
0000
0000
0100
0001
0000
0010
0000
,
0100
0000
0100
0000
0010
0000
0100
0000
1000
0000
0000
1000
0010
0000
1000
0000
,
0100
0010
0002
0000
0103
0010
1000
0001
,
0010
0000
0100
0000
2000
0000
0000
0000
3001
0000
0000
0001
0000
0000
1000
0000
,
0010
0000
0000
0010
0000
0000
0100
0000
0001
0000
0000
0001
0000
0000
0010
0000
,
0100
0000
0000
0100
0000
0000
1000
0000
0010
0000
0000
1000
0000
0000
0100
0000
,
0010
0000
0000
0001
0000
0000
0100
0000
0001
0000
0000
1000
0000
0000
0010
0000
,
0001
0000
0000
0010
0000
0000
0110
0000
1000
0000
0000
1000
0000
0000
0100
0000
,
0010
0000
0000
0010
0000
0000
0001
0000
1000
0000
0000
1000
0000
0000
0010
0000
,
0100
0000
0000
0100
0000
0000
0001
0000
0010
0000
0000
0100
0000
0000
1000
0000
,
0010
0000
0000
1000
0000
0000
0100
0000
0010
0000
0000
0001
0000
0000
0100
0000
,
0010
0000
0000
0000
1000
0001
1000
0001
0100
0000
0000
0000
0010
0000
0000
0000
,
1000
0100
0001
0000
0100
1000
0010
1000
,
0001
0100
0010
0000
0100
0000
0001
0000
,
0010
0100
1000
0000
0001
0010
1000
0010
,
0100
0000
1000
0000
0010
0100
0010
0100
0010
0000
0000
0000
1000
0000
0000
0000
,
0001
0100
1000
0000
0100
0001
1000
0100
,
0010
0100
1000
0000
0002
0000
0000
0103
,
0020
1030
0002
0023
,
0200
0000
0000
0330
2000
0000
0000
0000
,
0000
0000
0000
0000
3001
0100
0001
0100
0001
0000
0000
0100
0000
0000
0010
0000
,
0000
0100
0000
0000
0001
0000
0010
0000
0100
0000
0000
1000
0000
0000
0010
0000
,
1000
0000
0100
0000
0020
0000
0000
0000
0031
0000
0000
0001
0000
0000
1000
0000
,
0000
1000
0000
0000
0010
0000
1000
0000
0100
0000
0000
0100
0000
0000
0010
0000
,
0001
0000
0100
0000
0020
0000
0000
0000
0130
0000
0000
0010
0000
0000
0100
0000
,
0000
0001
0000
0000
0010
0000
0010
0000
0100
0000
0000
1000
0000
0000
0010
0000
,
1000
0000
0100
0000
0020
0000
0000
0000
0130
0000
0000
0100
0000
0000
1000
0000
,
0000
1000
0000
0000
0010
0000
0100
0000
0001
0000
1000
0000
0100
0000
0010
0000
,
0100
0000
1000
0000
0020
0000
0000
0000
0130
0000
0000
0100
0001
0000
0100
0000
,
0010
0000
1000
0000
0200
0000
0000
0000
0310
0000
0000
0010
0001
0000
0010
0000
,
0100
0000
0100
0000
0010
0000
0100
0000
1000
0000
0000
1000
0010
0000
1000
0000
,
0001
0100
2000
0000
3100
0001
1000
0100
,
0010
0000
0100
0000
0220
0000
0330
0000
1000
0000
0001
0100
0001
0000
0010
0000
,
0100
0000
0100
0000
0020
0000
0000
0000
0031
0000
0100
0001
0100
0000
0010
0000
,
1000
0000
1000
0000
0001
0000
1000
0000
0100
0000
0010
0001
0010
0000
0100
0000
,
0010
0000
0010
0000
0200
0000
0000
0000
1300
0000
0010
1000
0010
0000
0100
0000
,
0002
0000
0000
0000
0023
0000
0000
0000
0130
0000
0000
1000
0000
0000
0001
0000
,
0101
0000
0100
0000
0010
0000
1000
0100
,
0001
0000
0100
1000
0010
1000
0001
0100
,
1000
0000
0100
0000
0001
0000
0010
1000
,
0010
0000
0001
0100
0010
1000
0100
0010
,
0100
0010
0100
0010
0100
0000
0000
0000
0010
0000
0000
0000
0001
0000
0100
0000
,
1000
0000
0100
0001
1000
0100
0010
0100
,
0010
0000
0001
0000
1000
0010
0001
0010
,
1000
0001
0010
1000
0010
0001
0200
0000
,
0310
0000
0010
0000
2000
0000
0000
0000
3200
0000
0000
0000
0310
0001
0010
0001
,
0000
1000
0000
0010
0000
0010
0000
1000
0001
1000
0002
0000
0000
0000
0000
0000
,
0000
0013
0100
0010
0200
0000
0000
1300
0001
1000
0100
1000
0000
1000
0000
0000
,
0000
0010
0000
0100
0001
0000
1000
0001
1000
0001
0000
0010
0000
0000
0100
0000
,
0100
0010
0100
0010
0002
0000
0000
0000
1003
0000
0000
0000
0001
0100
0001
0100
,
0000
0010
0000
1000
0000
0000
0001
0000
0010
0100
0010
0100
2000
0000
0000
0000
,
3020
0000
0000
0000
0130
0000
0000
0100
0000
0000
0001
0000
2000
0000
0000
3100
,
0000
0000
0010
0000
0002
0000
0000
0010
0000
0000
0010
0000
2003
0000
0000
0010
,
0000
0000
3010
0000
2002
0000
0000
0000
0000
0000
3003
0000
0100
0000
0000
0010
,
0000
1000
0001
0000
0000
0000
0000
0000
;

//---------------dance-single - ----------------
#NOTES:
     dance-single:
     :
     Easy:
     4:
     0.209210,0.276128,0.013687,0.622742,0.000000,214.000000,212.000000,2.000000,91.000000,0.000000,0.000000,0.209210,0.276128,0.013687,0.622742,0.000000,214.000000,212.000000,2.000000,91.000000,0.000000,0.000000:
0000
0000
0000
0000
,
0000
0000
0000
0000
,
0000
0000
0000
0000
,
0000
0000
0000
0000
,
0000
0000
0000
0000
,
1000
0100
0000
0010
,
0000
0001
0000
1000
,
0000
0001
0000
0100
,
0020
0000
0000
0030
1000
0000
0100
0000
,
0100
1000
0001
0010
,
0001
0001
1000
0001
,
0100
0100
0010
1000
,
0001
1000
0001
0000
1000
0000
0100
0000
,
0010
0010
0100
1000
,
0001
0001
1000
0001
,
0100
0100
0020
0000
,
0000
0030
2000
0000
,
3002
0000
0023
0000
,
0130
0010
0002
0000
,
2003
0000
3010
0100
,
0001
1000
0200
0000
,
0320
0000
0032
0000
,
1003
0001
0200
0000
,
0320
0000
2030
3001
,
1001
0000
2000
0000
,
3020
0000
0230
0302
,
0023
0230
2300
0000
,
3002
0000
0023
0230
,
2300
3020
0230
0000
,
0302
0000
2003
3200
,
0320
0000
0032
0000
0203
0000
0000
0300
,
0020
0000
2030
3002
,
0023
0000
0130
0000
,
0000
2000
3001
0100
,
1000
0200
0310
1000
,
0001
1000
0002
0000
0013
0000
1000
0000
,
0010
0002
1003
0010
,
0100
0001
2000
0000
3100
0000
0010
0000
,
0100
2000
3010
0100
,
0001
0010
0200
0000
1300
0000
0001
0000
,
0100
0010
1000
0000
0002
0000
0000
0000
,
0000
2003
3001
0010
,
0010
0001
1000
0100
,
1000
1000
0001
1000
,
0010
0010
0100
0001
,
1000
0001
1000
0000
0001
0000
0010
0000
,
0100
0100
0010
0001
,
1000
1000
0001
1000
,
0010
0010
0200
0000
,
0302
2003
3200
0000
,
0310
0002
0000
2003
,
0000
3020
0230
0302
,
2003
3200
0000
0320
,
0000
0230
2300
3002
,
0203
0320
0000
2030
,
0000
3002
0023
0230
,
2300
3020
0000
0230
,
0000
0302
1003
1001
,
0000
2000
0100
3002
,
0100
2003
3020
0230
,
0302
2003
0100
3002
,
0010
0203
0320
2030
,
3002
0023
0100
0032
,
0100
2003
3020
0230
,
0301
0000
1000
0000
0100
1000
0100
0000
,
0010
0000
0002
0000
0103
0010
2000
0000
,
3010
0100
0002
0000
0000
0000
2000
0000
,
0000
3003
0000
0000
;

//---------------dance-single - ----------------
#NOTES:
     dance-single:
     :
     Beginner:
     1:
     0.128068,0.184085,0.006843,0.041060,0.000000,131.000000,130.000000,1.000000,6.000000,0.000000,0.000000,0.128068,0.184085,0.006843,0.041060,0.000000,131.000000,130.000000,1.000000,6.000000,0.000000,0.000000:
0000
0000
0000
0000
,
0000
0000
0000
0000
,
0000
0000
0000
0000
,
0000
0000
0000
0000
,
0000
0000
0000
0000
,
1000
0000
1000
0000
,
0001
0000
0001
0000
,
0010
0000
0010
0000
,
0100
0000
1000
0000
,
0000
0000
0001
0000
,
0000
0000
0100
0000
,
0000
0000
0010
0010
,
0010
0000
0100
0000
,
0000
0000
0001
0000
,
0000
0000
1000
0000
,
0000
0000
0200
0000
,
0300
0000
1000
0000
,
1000
0000
0010
0000
,
0000
0000
0001
0000
,
0001
0000
0100
0000
,
0000
0000
1000
0000
,
1000
0000
0100
0000
,
0000
0000
0001
0000
,
0001
0000
0010
0000
,
0000
0000
1000
0000
,
0001
0000
0100
0100
,
0100
0000
0001
0000
,
1000
0000
0100
0100
,
0100
0000
0010
0000
,
0100
0000
0010
0010
,
0010
0000
1000
0000
,
0001
0000
1000
1000
,
1000
0000
0002
0000
,
0000
0003
0100
0000
,
0100
0000
0001
0001
,
0001
0000
1000
0000
,
1000
0000
0100
0100
,
0100
0000
0010
0000
,
0010
0000
0100
0100
,
0100
0000
1000
0000
,
1000
0000
0002
0000
,
0000
0003
0100
0000
,
0100
0000
0010
0000
,
0010
0000
1000
0000
,
1000
0000
0001
0001
,
0001
0000
0001
0000
,
0010
0000
0001
0000
,
0010
0000
0100
0000
,
1000
0000
0200
0300
,
0010
0010
0010
0000
,
0010
1000
0000
0001
,
0000
0100
0100
0100
,
0000
0001
0000
1000
,
0000
0010
0010
0010
,
0000
0100
0000
0001
,
0000
1000
1000
1000
,
0000
0100
0000
0010
,
0000
0001
0001
0001
,
0000
1000
0000
0010
,
0000
1000
1000
1000
,
0000
0001
0000
0010
,
0000
0001
0001
0001
,
0000
0010
0000
0100
,
0000
0010
0010
0010
,
0000
0100
0000
1000
,
0000
0001
0001
1000
,
1000
2002
0000
0000
,
0000
3003
0000
0000
;
