#VERSION:0.83;
#TITLE:Run Go Run;
#SUBTITLE:;
#ARTIST:Kaeru Underground;
#TITLETRANSLIT:;
#SUBTITLETRANSLIT:;
#ARTISTTRANSLIT:;
#GENRE:;
#ORIGIN:;
#CREDIT:;
#BANNER:[Round B] - Run Go Run.png;
#BACKGROUND:[Round B] - Run Go Run-bg.png;
#PREVIEWVID:;
#JACKET:[Round B] - Run Go Run-jacket.png;
#CDIMAGE:;
#DISCIMAGE:;
#LYRICSPATH:;
#CDTITLE:;
#MUSIC:[Round B] - Run Go Run.ogg;
#OFFSET:0.000000;
#SAMPLESTART:7.980000;
#SAMPLELENGTH:12.000000;
#SELECTABLE:YES;
#BPMS:0.000=180.000;
#STOPS:;
#DELAYS:;
#WARPS:;
#TIMESIGNATURES:0.000=4=4;
#TICKCOUNTS:0.000=4;
#COMBOS:0.000=1;
#SPEEDS:0.000=1.000=0.000=0;
#SCROLLS:0.000=1.000;
#FAKES:;
#LABELS:0.000=Song Start;
#BGCHANGES:;
#KEYSOUNDS:;
#ATTACKS:
;

//---------------dance-single - ----------------
#NOTEDATA:;
#CHARTNAME:;
#STEPSTYPE:dance-single;
#DESCRIPTION:;
#CHARTSTYLE:;
#DIFFICULTY:Easy;
#METER:4;
#RADARVALUES:0.302753,0.365540,0.130734,0.006881,0.000000,308.000000,289.000000,19.000000,1.000000,0.000000,0.000000,0.000000,0.000000,0.000000,0.302753,0.365540,0.130734,0.006881,0.000000,308.000000,289.000000,19.000000,1.000000,0.000000,0.000000,0.000000,0.000000,0.000000;
#CREDIT:;
#NOTES:
0000
0000
0000
0000
,
0000
0000
0000
0000
,
0000
0000
0000
0000
,
0000
0000
0000
0000
,
0000
0000
0000
0000
,
0000
0000
0000
0000
,
1000
0100
0000
1000
,
0010
0000
1000
0100
,
0000
1000
0010
0000
,
0001
0100
0000
0001
,
0010
0000
0001
0100
,
0000
0001
0010
0000
,
1001
0000
0000
1000
,
0100
0010
0100
1000
,
0010
0100
0001
1000
,
1001
0000
0001
0100
,
0000
0010
0100
0000
,
0001
0100
0000
0010
,
0100
0000
0001
1000
,
0000
0100
1000
0000
,
0000
1000
0010
1000
,
1001
0000
1000
0100
,
0000
0010
0100
0000
,
1000
0100
0000
0010
,
0001
0000
1000
0100
,
0000
1000
0100
0100
,
0010
0010
0001
1000
,
1010
0000
0100
0001
,
0000
1000
0100
0000
,
0010
0001
0000
0100
,
0010
0000
1000
0100
,
0000
1000
0010
0000
,
0100
0001
0000
1000
,
0011
0000
1000
0100
,
0000
0010
0100
0000
,
1000
0001
0000
0100
,
0001
0000
0010
0100
,
0000
1000
0200
0000
,
0310
0001
1000
0001
,
0101
0000
1000
0010
,
0000
1000
0001
0000
,
1000
0100
0000
0010
,
0100
0000
1000
0100
,
0000
0010
0001
0000
,
1000
0010
0000
0100
,
0010
0000
1000
0100
,
0000
1000
0001
0000
,
1000
0010
0000
0100
,
0010
0000
1000
0100
,
0000
1000
0001
0000
,
1000
0010
0000
1000
,
0100
0000
0010
0100
,
0000
1000
0010
0000
,
0100
0001
0000
0010
,
0001
0000
0100
0010
,
0000
1000
0010
0000
,
1000
0001
0000
1000
,
0100
0000
0010
0001
,
0000
0010
0100
0000
,
1000
0001
0000
1000
,
0100
0000
0010
0100
,
0000
0010
0001
0000
,
1000
0100
1000
0100
,
1001
0000
0100
0010
,
0100
0001
0000
0000
,
1001
0000
0100
0010
,
0100
1000
0000
0000
,
0110
0000
0001
1000
,
0001
0100
0000
0000
,
0110
0000
0000
0000
,
1001
0000
0000
0000
,
1001
0100
0010
0100
,
0001
1000
0000
0000
,
1001
0100
0010
0100
,
1000
0001
0000
0000
,
1100
0001
0100
0001
,
1000
0100
0000
0000
,
1000
0001
0000
0000
,
1000
0100
0000
0000
,
0010
0100
0000
0010
,
1000
0010
0100
0001
,
1000
0001
0100
0010
,
0100
0001
1000
0000
,
1001
0100
0001
1000
,
0001
0010
0001
1000
,
0010
0100
0001
1000
,
0001
1000
0010
0100
,
0001
1000
0100
0010
,
0001
1000
0100
0010
,
0001
0100
0010
0100
,
0001
1000
0100
1000
,
1010
0100
0001
1000
,
0010
0100
0001
1000
,
0001
0010
0100
1000
,
0001
0010
0100
1000
,
0001
1000
0001
0100
,
0001
1000
0001
0010
,
0100
0100
1000
1000
,
0001
0001
0100
0100
,
1001
0000
0000
0000
,
0010
0100
0000
0000
,
1001
0000
0000
0000
,
0100
0010
0000
0000
,
1010
0000
0000
0000
,
0100
0001
0000
0000
,
1000
0000
1000
0001
,
0100
0100
0000
0000
;

//---------------dance-single - ----------------
#NOTEDATA:;
#CHARTNAME:;
#STEPSTYPE:dance-single;
#DESCRIPTION:;
#CHARTSTYLE:;
#DIFFICULTY:Medium;
#METER:6;
#RADARVALUES:0.406947,0.621418,0.158257,0.006881,0.000000,414.000000,391.000000,23.000000,1.000000,0.000000,0.000000,0.000000,0.000000,0.000000,0.406947,0.621418,0.158257,0.006881,0.000000,414.000000,391.000000,23.000000,1.000000,0.000000,0.000000,0.000000,0.000000,0.000000;
#CREDIT:;
#NOTES:
0000
0000
0000
0000
,
0000
0000
0000
0000
,
0000
0000
0000
0000
,
0000
0000
0000
0000
,
0000
0000
0000
0000
,
0000
0000
0000
0000
,
1000
0100
1000
0000
0000
0000
0001
0000
,
0100
0000
0010
0000
1000
0100
1000
0000
,
0000
0001
0100
0010
,
1000
0001
1000
0000
0000
0000
0001
0000
,
0010
0000
0001
0000
0100
0010
0100
0000
,
0000
0001
0010
0100
,
1000
0010
1000
0000
0000
0000
0100
0000
,
1000
0010
0100
0001
,
1000
0100
0010
0100
,
1001
0000
0000
0000
0010
0100
0001
0000
,
0000
1000
0001
0000
,
1000
0000
0010
0000
0000
0000
0100
0010
,
1000
0000
0010
0100
,
0000
0000
0001
0000
0100
0010
0000
1000
,
0010
1000
0010
0100
,
1001
0000
0000
0000
0100
0010
1000
0000
,
0000
0001
1000
0000
,
0001
0000
0010
0000
0000
0000
0001
0010
,
0100
0000
1000
0100
,
0000
1000
0000
0010
0100
0000
0001
0000
,
0001
1000
1000
0100
,
1001
0000
0000
0000
1000
0100
0010
0000
,
0000
0100
0010
0000
,
0001
0000
0100
0000
0000
0000
0001
0010
,
0100
0000
0010
0100
,
0000
1000
0100
0000
,
0010
0000
0100
0000
0000
0000
0010
0001
,
0100
0000
0000
0000
0010
0100
0001
0000
,
0000
0100
0001
0000
,
1000
0000
0010
0000
0000
0000
0100
0001
,
0100
0000
0010
1000
,
0000
0000
0100
0000
2000
0000
0000
3010
,
0000
1000
0001
0000
1000
0000
0100
0000
,
1001
0000
0000
0000
0100
1000
0010
0000
,
0000
1000
0100
0000
,
0010
0001
0100
0000
0000
0000
0001
0000
,
0100
0000
0000
0000
0010
0100
0001
0000
,
0000
1000
0001
0000
,
1000
0001
0100
0000
0000
0000
0010
0000
,
0100
0000
0000
0000
0001
0100
0010
0000
,
0000
1000
0001
0000
,
1000
0000
0010
0000
0000
0000
0100
0010
,
1000
0000
0001
0001
,
0000
0000
0100
0010
1000
0000
0000
0000
,
0001
0100
0000
0010
,
0100
0000
0000
0000
0001
0100
0010
0000
,
0000
1000
0001
0000
,
0100
0000
0001
0000
0000
0000
1000
0001
,
0100
0000
0000
0001
0100
0010
1000
0000
,
0000
0100
1000
0000
,
0001
0000
0100
0000
0000
0000
0001
1000
,
0100
0000
0000
0000
1000
0100
1000
0000
,
0000
0001
0100
0001
,
1000
0000
0001
0100
0010
0000
1000
0100
,
0010
0100
1000
1000
,
0000
0000
0010
0100
0001
0000
1000
0100
,
0010
0001
0100
0000
0010
0000
0100
0000
,
1001
0000
0000
1001
0000
0000
0010
0100
,
0001
0100
0000
0000
,
1001
0000
0000
1001
0000
0000
0010
0100
,
0010
1000
0000
0000
,
1010
0000
0000
1010
0000
0000
0001
0100
,
0010
1000
0000
0010
,
1000
0100
0010
0000
0000
0000
0001
0000
,
0100
0010
1000
0000
0000
0000
0001
0000
,
1010
0000
0100
0000
0001
0010
0100
1000
,
0001
0000
1000
0000
0000
0011
0000
0000
,
0011
0000
0000
0000
1000
0100
0010
0001
,
0100
0000
0001
0000
0000
1010
0000
0000
,
1010
0000
0000
0000
0001
0100
0010
1000
,
0100
0000
0010
0000
0000
0001
0000
0000
,
1000
0100
0010
0000
0000
0000
0001
0000
,
1000
0010
0100
0000
0000
0000
0000
0000
,
0110
0000
0000
0000
0000
0001
1000
0001
,
0100
0001
0010
0001
1000
0100
0010
0100
,
0000
1000
0100
0010
0001
1000
0100
0010
,
0001
1000
0010
1000
0100
0000
0000
0000
,
1001
0000
0100
0000
0001
0000
1000
0100
,
0010
0001
0100
0010
,
1000
0010
0100
0010
,
1000
0000
0001
0000
0100
0000
0010
1000
,
0001
0000
1000
0000
0100
0000
1000
0010
,
0100
0010
0100
0001
,
1000
0100
0010
0001
,
1000
0001
1000
0000
0010
0000
0100
0000
,
1001
0000
0100
0000
0001
0000
0100
0010
,
1000
0100
1000
0001
,
0100
0010
1000
0100
,
0010
0000
0001
0000
0100
0000
0001
0010
,
0100
1000
1000
0010
,
0010
1000
0001
0100
,
0010
1000
0100
0010
0001
0100
0010
1000
,
0001
0010
0100
1000
0001
1000
0100
0000
,
1001
0000
0000
0000
1000
0100
0010
0001
,
0100
0001
0000
0000
,
1001
0000
0000
0000
0001
0010
0100
1000
,
0010
1000
0000
0000
,
1001
0000
0000
0000
1000
0001
0100
0010
,
1000
0001
0000
0000
,
1010
0000
0000
0000
1010
0000
0001
0100
,
0010
1000
0000
0000
;

//---------------dance-single - ----------------
#NOTEDATA:;
#CHARTNAME:;
#STEPSTYPE:dance-single;
#DESCRIPTION:;
#CHARTSTYLE:;
#DIFFICULTY:Hard;
#METER:8;
#RADARVALUES:0.551443,0.694526,0.165138,0.027523,0.006881,561.000000,537.000000,24.000000,4.000000,0.000000,0.000000,0.000000,0.000000,0.000000,0.551443,0.694526,0.165138,0.027523,0.006881,561.000000,537.000000,24.000000,4.000000,0.000000,0.000000,0.000000,0.000000,0.000000;
#CREDIT:;
#NOTES:
// measure 0
0000
0000
0000
0000
,  // measure 1
0000
0000
0000
0000
,  // measure 2
0000
0000
0000
0000
,  // measure 3
0000
0000
0000
0000
,  // measure 4
0000
0000
0000
0000
,  // measure 5
0000
0000
0000
0000
,  // measure 6
1000
0100
1000
0000
0000
0000
1000
0000
,  // measure 7
0100
0000
0010
0000
0001
0100
0001
0000
,  // measure 8
0000
0001
0010
0100
,  // measure 9
1000
0001
1000
0000
0000
0000
1000
0000
,  // measure 10
0010
0000
0100
0000
0001
1000
0001
0000
,  // measure 11
0000
0001
0100
0010
,  // measure 12
1000
0100
1000
0000
0000
0000
0010
0000
,  // measure 13
1000
0010
0100
0001
,  // measure 14
1000
0100
0010
0100
,  // measure 15
1001
0000
0000
0000
1000
0010
0100
0000
,  // measure 16
0000
0010
0100
0000
,  // measure 17
0010
0000
1000
0000
0000
0000
0010
0100
,  // measure 18
0001
0000
0001
0100
,  // measure 19
0000
0000
0001
0000
0020
0000
0000
2030
,  // measure 20
0000
3020
0031
0100
,  // measure 21
1001
0000
0010
0000
1000
0100
0010
0000
,  // measure 22
0001
0100
1000
0100
,  // measure 23
0001
0000
0010
0000
0001
0000
1000
0010
,  // measure 24
1000
0100
0001
1000
,  // measure 25
0010
1000
0000
0010
0001
1000
0010
0100
,  // measure 26
0001
0010
1000
0010
0001
0100
1000
0000
,  // measure 27
1001
0000
0100
0000
1000
0100
0010
0000
,  // measure 28
0001
1000
0010
0100
,  // measure 29
1000
0000
0100
0000
0001
0000
0010
0100
,  // measure 30
0001
0100
1000
0100
,  // measure 31
0100
1000
0010
0010
,  // measure 32
0100
0001
0001
0010
,  // measure 33
1000
0000
1000
0000
0010
0100
0001
0000
,  // measure 34
0001
0100
1000
1000
,  // measure 35
0100
0000
0001
0000
0010
0000
0001
0100
,  // measure 36
0010
0010
1000
0001
,  // measure 37
0001
0000
0100
0000
1002
0000
1003
0100
,  // measure 38
0000
1000
0001
0000
1000
0000
0010
0000
,  // measure 39
1001
0000
0010
0000
0001
1000
0010
0000
,  // measure 40
1000
0000
0100
0001
0100
0000
1000
0000
,  // measure 41
0001
0010
1000
0000
0001
0000
1000
0010
,  // measure 42
0100
0000
0001
0000
1000
0010
0001
0000
,  // measure 43
0100
0000
0001
0010
1000
0000
0001
0000
,  // measure 44
1000
0100
0001
0000
1000
0000
0010
0100
,  // measure 45
1000
0000
0001
0000
1000
0100
0010
0000
,  // measure 46
1000
0000
0100
0010
0001
0000
1000
0000
,  // measure 47
0100
0010
1000
0000
0001
0000
1000
0010
,  // measure 48
0100
0000
0010
0000
0001
0100
1000
0000
,  // measure 49
0001
0000
0010
0100
0001
0000
0100
0000
,  // measure 50
0010
0100
0001
0000
0100
0000
1000
0100
,  // measure 51
0010
0000
0100
0000
1000
0100
0010
0000
,  // measure 52
0001
0000
1000
0010
1000
0000
0100
0000
,  // measure 53
0001
0010
0001
0000
0100
0000
1000
0001
,  // measure 54
0010
0000
0100
1000
0100
0010
1000
0000
,  // measure 55
0001
0000
0100
0010
0100
0000
0001
0000
,  // measure 56
0001
0010
0100
0000
1000
0000
0100
1000
,  // measure 57
0001
0000
0010
0000
0100
1000
0010
0000
,  // measure 58
0000
1000
0001
0100
,  // measure 59
0001
0000
0010
0100
1000
0000
0001
0100
,  // measure 60
0010
0000
1000
0000
0001
0010
0001
0000
,  // measure 61
0000
0000
1000
0100
1000
0000
0001
0100
,  // measure 62
0010
0001
1000
0100
0001
0000
1000
0000
,  // measure 63
1001
0000
0010
0001
1000
0100
0001
1000
,  // measure 64
0100
0000
0010
1000
0000
0000
0010
0000
,  // measure 65
1001
0000
0100
1000
0010
0100
0001
0010
,  // measure 66
1000
0000
0001
0100
0000
0000
0001
0000
,  // measure 67
1010
0000
0100
0001
0100
1000
0001
1000
,  // measure 68
0100
0000
0001
0010
0000
0000
0011
0000
,  // measure 69
1000
0100
1000
0000
0000
0000
1100
0000
,  // measure 70
0010
0000
0100
0001
0100
0000
0001
0000
0100
0000
0000
0000
0010
0000
0001
0000
,  // measure 71
1010
0000
0001
0000
0100
0010
1000
0100
,  // measure 72
1000
0000
0001
0000
1000
0001
0000
0001
,  // measure 73
1100
0000
0001
0001
1000
0100
0010
0100
,  // measure 74
1000
0000
0001
0001
0000
1000
0001
1000
,  // measure 75
1001
0000
1000
1000
0001
0100
0010
1000
,  // measure 76
0100
0000
0010
0001
1000
1001
0000
0000
,  // measure 77
1000
0100
0010
0000
0001
1000
0001
0000
,  // measure 78
1000
0010
0100
0000
1000
0001
1000
0000
,  // measure 79
0110
0000
1001
0000
0100
1000
0001
0100
,  // measure 80
0010
1000
0100
0010
0001
0100
0010
1000
,  // measure 81
0001
1000
0100
0010
0001
1000
0010
0100
,  // measure 82
0001
1000
0100
0010
0001
0000
1000
0000
,  // measure 83
1001
0000
1000
1000
0001
0000
1000
0100
,  // measure 84
0010
0000
0001
0001
0100
0000
0010
0100
,  // measure 85
0001
0000
0010
0010
0100
0000
0010
0100
,  // measure 86
0001
0000
0100
0100
1000
0010
0100
1000
,  // measure 87
0100
0000
0010
0010
0100
0000
0001
0010
,  // measure 88
0100
0000
0010
0010
0100
0000
1000
0001
,  // measure 89
1000
0000
0100
0100
0010
0000
0001
0100
,  // measure 90
1000
0000
0010
1000
0010
0000
1000
0000
0001
0000
0010
0000
0100
0000
1000
0000
,  // measure 91
1001
0100
0001
0001
1000
1000
0100
0010
,  // measure 92
0001
0100
1000
1000
0001
0001
0100
1000
,  // measure 93
0100
0010
0001
0001
0010
0010
0100
1000
,  // measure 94
0001
0010
1000
1000
0001
0001
1000
0010
,  // measure 95
0100
1000
0001
0001
1000
1000
0010
0100
,  // measure 96
0010
0001
1000
1000
0001
0001
0100
0010
,  // measure 97
1000
1000
0100
0010
0001
0100
0010
1000
,  // measure 98
0001
0010
0100
1000
0001
1000
0100
0010
,  // measure 99
1001
0000
0001
1000
1000
0100
0010
0001
,  // measure 100
0100
0001
0000
0000
,  // measure 101
1001
0000
1000
0001
0001
0010
0100
1000
,  // measure 102
0010
1000
0000
0000
,  // measure 103
1001
0000
0001
1000
1000
0001
0100
0010
,  // measure 104
1000
0001
0000
0000
,  // measure 105
1010
0000
0000
0000
1010
0000
0001
0100
,  // measure 106
0010
1001
0000
0000
;
