#VERSION:0.83;
#TITLE:Lifted;
#SUBTITLE:;
#ARTIST:CL;
#TITLETRANSLIT:;
#SUBTITLETRANSLIT:;
#ARTISTTRANSLIT:;
#GENRE:;
#ORIGIN:;
#CREDIT:;
#BANNER:;
#BACKGROUND:;
#PREVIEWVID:;
#JACKET:;
#CDIMAGE:;
#DISCIMAGE:;
#LYRICSPATH:;
#CDTITLE:;
#MUSIC:[Round B] - Lifted.ogg;
#OFFSET:-0.140000;
#SAMPLESTART:52.807007;
#SAMPLELENGTH:22.000006;
#SELECTABLE:YES;
#BPMS:0.000=90.000;
#STOPS:;
#DELAYS:;
#WARPS:;
#TIMESIGNATURES:0.000=4=4;
#TICKCOUNTS:0.000=4;
#COMBOS:0.000=1;
#SPEEDS:0.000=1.000=0.000=0;
#SCROLLS:0.000=1.000;
#FAKES:;
#LABELS:0.000=Song Start;
#BGCHANGES:;
#KEYSOUNDS:;
#ATTACKS:
;

//---------------dance-single - ----------------
#NOTEDATA:;
#CHARTNAME:;
#STEPSTYPE:dance-single;
#DESCRIPTION:;
#CHARTSTYLE:;
#DIFFICULTY:Hard;
#METER:7;
#RADARVALUES:0.403443,0.366406,0.237255,0.053574,0.114801,369.000000,338.000000,31.000000,7.000000,0.000000,0.000000,0.000000,0.000000,0.000000,0.403443,0.366406,0.237255,0.053574,0.114801,369.000000,338.000000,31.000000,7.000000,0.000000,0.000000,0.000000,0.000000,0.000000;
#CREDIT:;
#NOTES:
0000
0000
0000
0000
,
0000
0000
0000
0000
,
0000
0000
0000
0000
,
0000
0000
0000
0000
,
1001
0000
1100
0000
1000
0001
0011
0000
,
0001
0000
0010
0000
0001
0000
0100
0000
1000
0000
0100
0001
0000
0100
0000
0000
,
0000
0100
0010
0100
0001
1000
0100
0000
,
1000
0100
0010
0001
0000
0100
0100
0001
,
1000
0000
0100
0000
0010
0000
0010
0000
0001
1000
0001
0000
1001
0000
0000
0000
,
0002
0000
0103
0000
2000
0000
3100
0000
0001
1000
0001
0000
1001
0000
0000
0000
,
2000
0000
3010
0000
0002
0000
0013
0000
1000
0001
1000
0000
1001
0000
0000
0000
,
2000
0000
3100
0000
0002
0000
0013
0000
1000
0001
1000
0000
2001
0000
3100
0000
,
0010
0001
0100
0001
0010
0100
1001
0000
,
1000
0001
0010
0001
0100
0010
1010
0000
,
1000
0100
0001
0100
1000
0010
0100
0001
,
0010
1000
0010
0001
1000
0001
0110
0000
,
1000
0010
0000
0100
0000
0001
0000
0000
0001
0010
0000
0100
0000
1000
0000
0000
,
1000
0000
1000
0000
0001
0000
0001
0000
0100
0010
0000
1000
0000
1000
0000
0000
,
0001
0100
0010
0010
1000
1000
0001
0001
,
0010
0100
0010
0100
1000
1000
0001
0001
,
0101
0100
0010
1000
0001
0010
0100
1000
,
1100
1000
0010
0100
0001
0010
0100
0010
,
0101
0100
0010
1000
0001
0001
1000
0010
,
0110
0100
0001
0010
0001
0001
1000
0010
,
1010
1000
0010
0100
0001
0010
0100
0010
,
0011
0001
0100
0010
1000
0100
0010
0100
,
1010
1000
0010
0100
0001
0001
0100
0010
,
1001
1000
0100
0010
0001
0001
1000
0010
,
1000
0100
0000
0010
0000
0010
0000
0001
0000
1000
0001
0000
1001
0000
0000
0000
,
0001
0000
1000
0000
0001
0000
0100
0010
1000
0000
0001
0000
1000
0001
0000
0000
,
0101
0000
0001
0100
1000
0100
0110
0000
,
0100
0001
0010
1000
0010
0010
0001
0000
,
0001
0010
0100
1000
0001
1000
0100
0000
,
0010
0001
0100
0001
0010
0100
1000
0000
,
1000
0001
0010
0001
1000
0010
0100
0100
,
0001
1000
0001
0010
0100
0010
1001
0000
,
1000
0010
0000
0100
0001
0000
0000
0000
0001
0010
0000
0100
0000
1000
0000
0000
,
1000
0000
0100
0000
0001
0000
0010
0000
1000
0010
0000
0100
0000
0001
0000
0000
,
1000
0100
0010
0001
0100
0100
0010
0010
,
1000
0010
0100
0001
0010
0010
0100
0100
,
1100
1000
0010
0100
0001
0010
0100
0010
,
0101
0001
0100
0010
1000
0100
0010
0001
,
0110
1000
0001
0100
1000
0100
0001
1000
,
0110
0001
0100
0010
1000
0100
0010
0001
,
0101
0100
1000
0100
0010
1000
0100
0010
,
1001
0001
0100
0010
1000
0100
0010
0001
,
1001
0001
0100
0010
1000
1000
0100
0010
,
1001
0001
0100
0010
1000
1000
0000
1001
;

//---------------dance-single - ----------------
#NOTEDATA:;
#CHARTNAME:;
#STEPSTYPE:dance-single;
#DESCRIPTION:;
#CHARTSTYLE:;
#DIFFICULTY:Medium;
#METER:5;
#RADARVALUES:0.306136,0.329766,0.244909,0.030614,0.057400,280.000000,248.000000,32.000000,4.000000,0.000000,0.000000,0.000000,0.000000,0.000000,0.306136,0.329766,0.244909,0.030614,0.057400,280.000000,248.000000,32.000000,4.000000,0.000000,0.000000,0.000000,0.000000,0.000000;
#CREDIT:;
#NOTES:
0000
0000
0000
0000
,
0000
0000
0000
0000
,
0000
0000
0000
0000
,
0000
0000
0000
0000
,
1001
0000
1100
0000
1000
0001
1000
0000
,
0001
0000
0010
0000
0100
0010
0100
0000
,
1001
0000
0110
0000
0001
1000
0010
0000
,
1001
0000
0110
0000
1000
0001
0000
0001
,
0010
0000
0100
0100
1000
1000
1001
0000
,
0001
1000
0001
1000
0001
1000
1001
0000
,
0100
0010
0100
0010
0100
0010
0110
0000
,
1000
0001
1000
0001
1000
0001
1000
0000
,
0100
0000
0010
0010
0001
0000
1001
0000
,
0001
0000
0100
0100
1000
0000
0100
0000
,
0001
0000
0010
0010
0100
0000
1100
0000
,
1001
0000
0001
0000
0100
0100
0010
0000
,
1010
0000
0000
0001
0000
0001
0000
0000
0011
0000
0000
1000
0000
1000
0000
0000
,
0200
0000
0000
0000
0302
0000
0000
0000
0023
0000
0000
1000
0030
1000
0000
0000
,
1001
0000
1000
0001
1000
0000
1000
0000
,
0100
0000
0010
0100
0010
0000
0010
0000
,
0011
0100
0010
0000
1000
0000
0001
0000
,
0101
0010
0100
0000
1000
0000
0001
0000
,
1000
0100
0010
0000
0001
0000
1000
0000
,
0001
0100
0010
0000
1000
0000
0100
0000
,
0110
0001
1000
0000
0001
0000
0010
0000
,
0110
1000
0001
0000
1000
0000
0010
0000
,
0100
0001
0010
0000
1000
0000
0010
0000
,
0100
1000
0010
0000
0001
0000
0010
0000
,
1000
0000
0000
0001
0000
1000
0000
0010
0000
0000
0000
0000
0110
0000
0000
0000
,
0100
0001
1000
0000
0100
1000
0001
0000
,
1001
0000
1000
0001
1000
0100
0010
0000
,
0001
0000
0100
0000
0010
0010
1001
0000
,
1000
0100
0010
0000
1000
0100
0010
0000
,
0001
0010
0100
0000
0001
0010
0100
0000
,
1000
0100
0001
0000
0001
0100
1000
0000
,
0001
0100
1000
0000
1000
0100
0001
0000
,
0101
0000
0000
1000
0000
1000
0000
0000
1100
0000
0000
0001
0000
0001
0000
0000
,
1000
0000
0100
0000
0001
0000
0100
0000
2000
0000
0000
0010
3000
0010
0000
0000
,
1000
0000
0010
0000
0100
0010
0100
0010
,
0100
0000
0010
0000
1000
0001
1000
0001
,
1001
0000
0001
0100
0010
0100
0001
0000
,
0101
0000
0001
0100
1000
0100
0001
0000
,
0101
0000
0001
0100
0010
0010
1000
0000
,
1100
0000
1000
0100
0010
0010
0001
0000
,
1001
0000
1000
0100
0010
0100
1000
0000
,
1100
0000
1000
0100
0001
0100
1000
0000
,
1001
0000
0001
0010
0100
0100
1000
0000
,
1001
0000
1000
0010
0100
0100
0001
1000
;

//---------------dance-single - ----------------
#NOTEDATA:;
#CHARTNAME:;
#STEPSTYPE:dance-single;
#DESCRIPTION:;
#CHARTSTYLE:;
#DIFFICULTY:Easy;
#METER:3;
#RADARVALUES:0.180401,0.219844,0.091841,0.183681,0.000000,165.000000,153.000000,12.000000,24.000000,0.000000,0.000000,0.000000,0.000000,0.000000,0.180401,0.219844,0.091841,0.183681,0.000000,165.000000,153.000000,12.000000,24.000000,0.000000,0.000000,0.000000,0.000000,0.000000;
#CREDIT:;
#NOTES:
0000
0000
0000
0000
,
0000
0000
0000
0000
,
0000
0000
0000
0000
,
0000
0000
0000
0000
,
1000
1000
0200
0300
,
0001
0001
0200
0300
,
1000
0010
0200
0300
,
0001
0000
0010
0000
0000
0100
0000
0000
,
1000
0100
0020
0030
,
0001
0100
0020
0030
,
1000
0010
0200
0300
,
0001
0010
0200
0300
,
1000
0100
0001
0100
,
1000
0100
0010
0100
,
2000
3000
0002
0003
,
0020
0030
0100
0110
,
0001
0100
1000
0100
,
0001
0000
1000
0000
,
0001
0010
0100
0100
,
1000
0010
0100
0100
,
1001
0001
0100
0010
,
1001
1000
0100
0010
,
0001
0200
0310
0010
,
1000
0200
0310
0001
,
0011
0001
0100
0010
,
1010
1000
0100
0010
,
0001
0200
0310
0010
,
1000
0200
0310
0000
,
0001
0100
0200
0300
,
1000
0100
0200
0300
,
0001
1000
0001
0010
,
0000
0000
0000
0000
,
0100
1000
0002
0003
,
1000
0001
0220
0330
,
1000
0100
0001
0001
,
0100
1000
0002
0003
,
0001
0100
1000
0100
,
0001
0100
0010
0100
,
0001
0100
0010
0010
,
1000
0100
0010
0010
,
0110
0001
0100
0010
,
1001
0100
0010
0001
,
0110
2000
3001
0001
,
0100
0002
1003
0001
,
0110
1000
0010
0100
,
1001
0001
0010
0100
,
0110
0002
1003
1000
,
0010
0000
2000
0000
3001
0000
0000
0100
;

//---------------dance-single - ----------------
#NOTEDATA:;
#CHARTNAME:;
#STEPSTYPE:dance-single;
#DESCRIPTION:;
#CHARTSTYLE:;
#DIFFICULTY:Beginner;
#METER:2;
#RADARVALUES:0.138854,0.179855,0.176028,0.000000,0.000000,127.000000,104.000000,23.000000,0.000000,0.000000,0.000000,0.000000,0.000000,0.000000,0.138854,0.179855,0.176028,0.000000,0.000000,127.000000,104.000000,23.000000,0.000000,0.000000,0.000000,0.000000,0.000000,0.000000;
#CREDIT:;
#NOTES:
0000
0000
0000
0000
,
0000
0000
0000
0000
,
0000
0000
0000
0000
,
0000
0000
0000
0000
,
1000
0000
0000
0000
,
0001
0000
0000
0000
,
0100
0000
0000
0100
,
0100
0000
0000
0000
,
0001
0000
0100
0000
,
1000
0000
0100
0000
,
0001
0000
1000
0000
,
0001
0000
0010
0000
,
1001
0000
0001
0000
,
1001
0000
1000
0000
,
1001
0000
0001
0001
,
1001
0000
1000
1000
,
1001
0000
0110
0000
,
1001
0001
0001
0001
,
1000
0000
0100
0100
,
0100
0000
0010
0010
,
0110
0000
0001
0001
,
1001
0000
0100
0100
,
0110
0000
1000
0000
,
1001
0000
0001
0000
,
0110
0100
0100
0000
,
1001
1000
1000
0000
,
0110
0000
0010
0000
,
0110
0000
0100
0000
,
0001
0000
0001
0001
,
0001
0000
0010
0010
,
0010
0000
0100
0000
,
1000
0000
0000
0000
,
0001
0000
0001
0000
,
0100
0000
0100
0000
,
1000
0000
1000
0000
,
0100
0000
0100
0000
,
0010
0000
0100
0000
,
0001
0000
1000
0000
,
1000
0000
0100
0100
,
0100
0000
0010
0010
,
0110
0000
0100
0100
,
0110
0000
0001
0001
,
1001
0000
1000
1000
,
1001
0000
0001
0001
,
0110
0000
1000
1000
,
0110
0000
0100
0100
,
1001
0000
0010
0010
,
1001
0000
0000
0000
;

//---------------dance-double - ----------------
#NOTEDATA:;
#CHARTNAME:;
#STEPSTYPE:dance-double;
#DESCRIPTION:;
#CHARTSTYLE:;
#DIFFICULTY:Hard;
#METER:8;
#RADARVALUES:0.452644,0.439687,0.214295,0.000000,0.489817,414.000000,386.000000,28.000000,0.000000,0.000000,0.000000,0.000000,0.000000,0.000000,0.452644,0.439687,0.214295,0.000000,0.489817,414.000000,386.000000,28.000000,0.000000,0.000000,0.000000,0.000000,0.000000,0.000000;
#CREDIT:;
#NOTES:
00000000
00000000
00000000
00000000
,
00000000
00000000
00000000
00000000
,
00000000
00000000
00000000
00000000
,
00000000
00000000
00000000
00000000
,
00011000
00000000
00000000
00000000
10010000
00000000
00000000
00000000
10000000
01000000
00000000
10000000
00000000
00010000
00000000
00000000
,
10000000
00100000
00000000
10000000
00000000
00010000
00100000
00001000
00010000
00000000
00000100
00001000
00000000
00000100
00000000
00000000
,
00000110
00000000
00000001
00000100
00000010
00000000
00000100
00000000
00000001
00000010
00000100
00000000
00010000
00000000
00001000
00000000
,
01000000
00000000
00010000
01000000
00100000
00000000
01000000
00000000
00000000
00000000
10010000
00000000
00000000
00000000
10000000
00010000
,
01000000
00000000
00001000
00000000
00010000
00000000
00000100
00000000
00000010
00000001
00001000
00000000
00001001
00000000
00000000
00000000
,
00001000
00000001
00001000
00000000
00000001
00001000
00000001
00000000
00000100
00000000
00001000
00000000
00011000
00000000
00000000
00000000
,
00010000
00001000
00010000
00000000
00001000
00010000
00001000
00000000
00010000
00000000
01000000
00000000
10010000
00000000
00000000
00000000
,
10000000
00010000
10000000
00000000
00010000
10000000
00010000
00000000
00100000
00000000
10000000
00000000
00100000
00000000
00001000
00000000
,
00010000
00000000
00000010
00000100
00000001
00000000
00000100
00000000
00000010
00000000
00001000
00000001
00000010
00000000
00000000
00000000
,
00000100
00000000
00010000
00001000
00100000
00000000
00010000
00000000
10000000
00000000
00100000
10000000
00010000
00000000
00000000
00000000
,
00100000
00000000
10000000
00000000
00100000
00000000
00001000
00000000
00010000
00000100
00000010
00000000
00001001
00000000
00000001
00000000
,
00000100
00000000
00001000
00010000
01000000
00000000
00100000
00000000
00010000
10000000
00010000
10000000
00100000
00000000
00000000
00000000
,
10000000
00100000
00000000
01000000
00000000
00001000
00000000
00000000
00010000
00000100
00000000
00000001
00000000
00000100
00000000
00000000
,
00001000
00000010
00001000
00000010
00000100
00000001
00000100
00000001
00000100
00001000
00000000
00010000
00000000
00100000
00000000
00000000
,
10000000
00010000
10000000
00100000
10000000
00000000
01000000
00000000
00010000
00000000
00001000
00000000
00000100
00000000
00000001
00000000
,
00000010
00000001
00001000
00000001
00000010
00000000
00001000
00000000
00010000
00000000
00100000
00000000
10000000
00000000
00010000
00000000
,
10010000
00010000
00100000
01000000
00010000
00001000
00000010
00000001
,
00001001
00000001
00000100
00000010
00000001
00000010
00010000
00001000
,
00011000
00000000
00001000
01000000
00000000
00100000
00000000
10000000
00000000
10000000
00000000
00000000
10000000
00000000
01000000
10000000
,
00100000
00000000
00010000
00001000
00000000
00000100
00000000
00000010
00000000
00000010
00000000
00000000
00001000
00000000
00000001
00000000
,
00000011
00000001
00000100
00001000
00100000
00010000
10000000
01000000
,
11000000
10000000
00100000
01000000
00001000
00010000
00001000
00000010
,
00000110
00000000
00000100
00001000
00000000
00000001
00000000
00000010
00000000
00000010
00000000
00000000
00000001
00000000
00000100
00001000
,
00010000
00000000
01000000
00100000
00000000
00010000
00000000
10000000
00000000
10000000
00000000
00000000
00000000
00000000
00100000
00000000
,
10000000
01000000
00000000
00010000
00000000
00010000
00000000
00000010
00000000
00001000
00000001
00000000
00001001
00000000
00000000
00000000
,
00000001
00000000
00001000
00000000
00000100
00000000
00010000
00001000
00010000
00000000
00001000
00000000
01000000
00100000
00000000
00000000
,
10010000
00000000
00000000
00000000
10000000
01000000
00000000
00100000
00001000
00000000
00010000
00000000
00000010
00000000
00000000
00000000
,
00001000
00000010
00001000
00000010
00010000
00001000
00010000
00001000
00100000
00010000
00100000
00010000
10000000
00000000
00000000
00000000
,
10010000
00000000
10000000
00100000
00000000
01000000
00000000
00001000
00000000
00010000
00000100
00000000
00001000
00000000
00000000
00000000
,
00001100
00000000
00001000
00000100
00000000
00000010
00000000
00000001
00000000
00000010
00000000
00001000
00010000
00000000
00000000
00000000
,
00010000
00000000
00001000
01000000
00000000
10000000
00000000
01000000
00000000
00100000
10000000
00000000
10010000
00000000
01010000
00000000
,
00011000
00000000
00010000
00000100
00000010
00000000
00001000
00000010
00000000
00000001
00000000
00000100
00001000
00000000
00000000
00000000
,
00100000
01000000
00000000
10000000
00000000
00010000
00000000
00000000
00100000
00010000
00000000
00001000
00000000
00000010
00000000
00000000
,
00000100
00000010
00000100
00000000
00000001
00001000
00000001
00000000
00000010
00000100
00000000
00010000
00000000
01000000
00000000
00000000
,
10000000
01000000
10000000
00010000
10000000
00000000
00100000
00000000
00010000
00000000
00001000
00000000
00000100
00000000
00000001
00000000
,
00001000
00000100
00001000
00000001
00001000
00000000
00000010
00000000
00000100
00000000
00001000
00000000
00100000
00000000
00010000
00000000
,
01010000
01000000
00100000
10000000
01000000
00100000
00001000
00010000
,
00011000
00010000
00000010
00000100
00000001
00000010
00000100
00001000
,
00001100
00000000
00010000
00001000
00000000
01000000
00000000
00010000
00000000
00010000
00000000
00000000
10000000
00000000
01000000
10000000
,
00010000
00000000
00100000
00001000
00000000
00010000
00000000
00000010
00000000
00000010
00000000
00000000
00001000
00000000
00000010
00000000
,
00000101
00000001
00000010
00000100
00010000
00001000
01000000
00100000
,
11000000
10000000
00100000
01000000
00001000
00010000
00000100
00000010
,
00001001
00000000
00000001
00000100
00000000
00001000
00000000
00100000
00000000
00100000
00000000
00000000
00010000
00000000
10000000
00010000
,
00100000
00000000
01000000
00010000
00000000
00001000
00000000
00000010
00000000
00000010
00000000
00000000
00000000
00000000
00010010
00000000
;

//---------------dance-double - ----------------
#NOTEDATA:;
#CHARTNAME:;
#STEPSTYPE:dance-double;
#DESCRIPTION:;
#CHARTSTYLE:;
#DIFFICULTY:Medium;
#METER:6;
#RADARVALUES:0.354243,0.329766,0.298482,0.000000,0.091841,324.000000,285.000000,39.000000,0.000000,0.000000,0.000000,0.000000,0.000000,0.000000,0.354243,0.329766,0.298482,0.000000,0.091841,324.000000,285.000000,39.000000,0.000000,0.000000,0.000000,0.000000,0.000000,0.000000;
#CREDIT:;
#NOTES:
00000000
00000000
00000000
00000000
,
00000000
00000000
00000000
00000000
,
00000000
00000000
00000000
00000000
,
00000000
00000000
00000000
00000000
,
00011000
00000000
00001100
00000000
00001000
00000100
00000010
00000000
,
00000010
00000001
00000100
00000010
00001000
00000100
00010000
00000000
,
00010000
00001000
01000000
00000000
01000000
00010000
10000000
00000000
,
10000000
01000000
00100000
00000000
00000000
00011000
00000000
00010000
,
00000100
00000001
00000100
00001000
00000100
00000010
00000001
00000000
,
00000001
00000100
00001000
00010000
00100000
10000000
00010000
00000000
,
10000000
01000000
00010000
00001000
00000010
00000001
00001000
00000000
,
00000010
00001000
00000100
00010000
00100000
10000000
01000000
00100000
,
00001000
00000000
00011000
00010000
00000100
00000000
00001100
00000000
,
00001001
00000000
00000001
00000100
00000110
00000000
00011000
00000000
,
01100000
00000000
11000000
00000000
10000000
01000000
00010000
00001000
,
00010000
00000100
00000010
00000001
00000100
00000010
00010000
00000000
,
00001000
00010000
01000000
10000000
01000000
00010000
00001000
00000100
,
00000001
00000010
00001000
00000010
00000001
00000100
00001000
00010000
,
00100000
10000000
01000000
00100000
00010000
10000000
00010000
10000000
,
00100000
00010000
00001000
00000100
00000001
00001000
00000001
00001000
,
00001001
00000000
00000001
00000100
00000010
00010000
00001000
00000000
,
00011000
00000000
00001000
01000000
00100000
10000000
00010000
00000000
,
10010000
00000000
00000000
10000000
00000000
01000000
00000000
00010000
00000000
00000000
00000000
00000000
00010000
00000000
00001000
00000000
,
00011000
00000000
00000000
00010000
00000000
00001000
00000000
00000100
00000000
00000000
00000000
00000000
00000100
00000000
00000001
00000000
,
00001001
00000000
00000001
00000100
00001000
00100000
00010000
00000000
,
10010000
00000000
10000000
00100000
01000000
00001000
00010000
00000000
,
00011000
00000000
00000000
00010000
00000000
00000100
00000000
00000010
00000000
00000000
00000000
00000000
00000001
00000000
00001000
00000000
,
00001001
00000000
00000000
00000001
00000000
00000100
00000000
00001000
00000000
00000000
00000000
00000000
00010000
00000000
00001000
00000000
,
01000000
01000000
00100000
10000000
01000000
00010000
00011000
00000000
,
00010000
00000100
00000010
00000100
00001000
00000010
00000100
00000000
,
00000101
00000000
00001100
00000000
00000100
00010000
00011000
00000000
,
00100000
00010000
01000000
10000000
01000000
00001000
00011000
00000000
,
00001010
00000000
00001001
00000000
00000001
00000100
00011000
00000000
,
00110000
00000000
10010000
00000000
10000000
01000000
00011000
00000000
,
00010000
00000100
00000010
00000100
00001000
00000001
00001001
00000000
,
00000001
00000010
00000100
00001000
00000100
00010000
00011000
00000000
,
00010000
00001000
01000000
10000000
01000000
00001000
00000010
00000001
,
00000100
00000010
00010000
01000000
00100000
00010000
10000000
00100000
,
01000000
00001000
00010000
00000100
00000001
00000100
00000001
00000100
,
00010000
00001000
01000000
00100000
10000000
00100000
10000000
00100000
,
10100000
00000000
10000000
01000000
00100000
00001000
00010000
00000000
,
00011000
00000000
00010000
00000100
00000010
00000001
00000100
00000000
,
00000101
00000000
00000000
00000001
00000000
00001000
00000000
00000100
00000000
00000000
00000000
00000000
00010000
00000000
00001000
00000000
,
00011000
00000000
00000000
00001000
00000000
00100000
00000000
00010000
00000000
00000000
00000000
00000000
10000000
00000000
00010000
00000000
,
01010000
00000000
01000000
00001000
00010000
00000100
00000010
00000000
,
00000011
00000000
00000001
00000100
00000010
00010000
00001000
00000000
,
00011000
00000000
00000000
00001000
00000000
00100000
00000000
00010000
00000000
00000000
00000000
00000000
10000000
00000000
00010000
00000000
,
10010000
00000000
00000000
10000000
00000000
00100000
00000000
01000000
00000000
00000000
00000000
00000000
00001000
00000000
00010000
00000000
;

//---------------dance-double - ----------------
#NOTEDATA:;
#CHARTNAME:;
#STEPSTYPE:dance-double;
#DESCRIPTION:;
#CHARTSTYLE:;
#DIFFICULTY:Easy;
#METER:4;
#RADARVALUES:0.226322,0.238164,0.252562,0.000000,0.000000,207.000000,174.000000,33.000000,0.000000,0.000000,0.000000,0.000000,0.000000,0.000000,0.226322,0.238164,0.252562,0.000000,0.000000,207.000000,174.000000,33.000000,0.000000,0.000000,0.000000,0.000000,0.000000,0.000000;
#CREDIT:;
#NOTES:
00000000
00000000
00000000
00000000
,
00000000
00000000
00000000
00000000
,
00000000
00000000
00000000
00000000
,
00000000
00000000
00000000
00000000
,
00010000
00001000
00010000
01000000
,
10000000
00100000
10000000
01000000
,
00010000
00001000
00000100
00000010
,
00010000
00001000
00000100
00000001
,
00001000
00000001
00000100
00000110
,
00001000
00000100
00010000
00011000
,
00001000
01000000
00100000
01100000
,
10000000
01000000
00100000
00010000
,
10010000
01000000
10010000
00100000
,
00011000
00000100
00011000
00100000
,
00010000
00001000
00000010
00001000
,
01000000
00010000
00000100
00000110
,
00000010
00000100
00010000
00001000
,
01000000
00100000
10000000
00010000
,
10000000
01000000
00010000
00010000
,
00001000
00000100
00000001
00000001
,
00000011
00000001
00000100
00000010
,
00001010
00000010
00010000
00001000
,
01010000
01000000
00100000
00100000
,
11000000
01000000
00100000
00100000
,
00011000
00000100
00000010
00000001
,
00000101
00000100
00000010
00010000
,
00011000
00001000
01000000
01000000
,
01010000
00010000
10000000
10000000
,
01000000
00100000
00001000
00011000
,
00000100
00000010
00000100
00011000
,
01010000
01000000
00100000
10000000
,
01000000
00000000
00000000
01100000
,
01000000
10000000
01000000
00011000
,
00000100
00000001
00000100
00011000
,
00100000
10000000
00100000
00011000
,
00000010
00000001
00000010
00011000
,
00010000
01000000
00001000
00000100
,
00010000
00100000
00001000
00000010
,
00000100
00000001
00000010
00000010
,
01000000
10000000
00100000
00100000
,
01100000
01000000
00001000
00010000
,
00011000
00000100
00000010
00000001
,
00000101
00000100
00000010
00000010
,
00001010
00001000
00000100
00010000
,
00011000
00001000
01000000
00100000
,
10100000
10000000
01000000
00010000
,
00011000
00010000
00000100
00000010
,
00001001
00000000
00000001
00000000
00000100
00000000
00000000
00011000
;

//---------------dance-single - Lifts!----------------
#NOTEDATA:;
#CHARTNAME:;
#STEPSTYPE:dance-single;
#DESCRIPTION:Lifts!;
#CHARTSTYLE:;
#DIFFICULTY:Challenge;
#METER:9;
#RADARVALUES:0.490911,0.476328,0.359710,0.091841,0.543391,449.000000,402.000000,47.000000,12.000000,0.000000,0.000000,0.000000,10.000000,0.000000,0.490911,0.476328,0.359710,0.091841,0.543391,449.000000,402.000000,47.000000,12.000000,0.000000,0.000000,0.000000,10.000000,0.000000;
#CREDIT:;
#NOTES:
// measure 0
0000
0000
0000
0000
,  // measure 1
0000
0000
0000
0000
,  // measure 2
0000
0000
0000
0000
,  // measure 3
0000
0000
0000
0000
,  // measure 4
1001
0000
0000
0000
0101
0000
0000
0001
0100
0000
0010
0000
1000
0000
0000
0000
,  // measure 5
1000
0010
0000
0001
0000
0010
0100
0001
1000
0000
0100
1000
0000
1001
0000
0000
,  // measure 6
1100
0000
1000
0100
0020
0030
00L0
0000
0001
0100
0010
0000
2002
0000
3003
0000
,  // measure 7
0000
0000
0000
0000
0000
0000
0001
0000
0000
0100
0000
0000
0020
0000
0000
0030
0000
0000
00L0
0000
0000
0000
0000
0000
0000
0000
0000
0000
0000
0000
1001
0000
0000
0000
0000
0000
0000
0000
0000
0000
0000
0000
1000
0000
0100
0000
0000
0000
,  // measure 8
1000
0000
1000
0010
0100
0000
0001
0000
1000
0001
1000
0000
1001
0000
0000
0000
,  // measure 9
1000
0100
0010
0000
0001
0100
0010
0000
1000
0001
1000
0000
1001
0000
0000
0000
,  // measure 10
1000
0100
0001
0000
1000
0010
0001
0000
1000
0001
1000
0000
1001
0000
0000
0000
,  // measure 11
0001
0100
1000
0000
0001
0010
1000
0000
0001
1000
0001
0000
1001
0000
1000
0000
,  // measure 12
1100
0000
1000
0100
0010
0000
0100
0000
1000
0000
0001
0100
0010
0000
0000
0000
,  // measure 13
1000
0000
0010
0100
0001
0000
0010
0100
1000
0000
0001
1000
0001
0000
0000
0000
,  // measure 14
1000
0000
0100
1000
0001
0000
0100
0001
1000
0001
0100
0010
1000
0000
1000
0100
,  // measure 15
0010
0001
1000
0001
0010
0000
0100
1000
0010
0100
0001
1000
0001
0000
0000
0000
,  // measure 16
0010
0100
0000
1000
0010
0000
0000
0000
0010
0100
0000
0001
0000
0010
0000
0000
,  // measure 17
0100
1000
0100
0001
0100
1000
0010
1000
0100
0010
0000
0001
0000
0001
0000
0000
,  // measure 18
0100
0001
0100
1000
0100
0000
0100
0000
0110
0000
1000
0000
0110
0000
0001
0000
,  // measure 19
0010
1000
0010
0001
0010
0000
0100
0000
1001
0000
0010
0000
1001
0000
0100
0000
,  // measure 20
1001
1000
0100
0010
0001
0100
0010
1000
,  // measure 21
1001
0000
0001
0000
0010
0000
0100
0000
1000
0000
0010
0000
0100
0000
0001
1000
,  // measure 22
1100
0000
1000
0100
0000
0010
0000
0002
0003
000L
0000
0000
0001
0000
0100
0010
,  // measure 23
1010
0000
1000
0010
0000
0100
0000
0002
0003
000L
0000
0000
0100
0000
0010
0000
,  // measure 24
1001
1000
0100
0010
0001
0100
0010
0100
,  // measure 25
1001
0000
0001
0000
0010
0000
0100
0000
1000
0000
0010
0000
0100
0000
0001
0010
,  // measure 26
0011
0000
0001
0100
0000
0010
0000
2000
3000
L000
0000
0000
1000
0000
0100
0010
,  // measure 27
0011
0000
0001
0100
0000
0010
0000
2000
3000
L000
0000
0000
0000
0000
0100
0000
,  // measure 28
1000
0001
0000
0010
0000
0010
0000
1000
0000
0010
0100
0000
1001
0000
0000
0000
,  // measure 29
1010
0000
0001
0000
0011
0000
0001
0100
0010
0000
1000
0000
0001
0010
0000
0000
,  // measure 30
0110
0000
0000
0000
1000
0100
0000
0010
0001
0000
1000
0000
1001
0000
0000
0000
,  // measure 31
1000
0010
1000
0100
0010
0001
0100
0001
0010
0100
0010
0100
1000
0000
0000
0000
,  // measure 32
1001
0000
0001
0010
0000
0100
0000
0010
0000
0001
1000
0000
1001
0000
0000
0000
,  // measure 33
1000
0000
0001
0100
0000
0010
0000
0110
0000
0100
0000
0001
1000
0000
0000
0000
,  // measure 34
1000
0000
0001
0010
0000
0100
0000
0010
0000
0001
1000
0000
1001
0000
0110
0000
,  // measure 35
1001
0000
1000
0100
0010
0000
0001
1000
0000
0010
0000
1000
0001
0000
1000
0000
,  // measure 36
0100
0010
0000
0001
0000
0010
0000
0000
0100
1000
0000
0010
0000
1000
0000
0000
,  // measure 37
0001
0010
1000
0010
0001
0100
0010
0100
0001
0010
0000
0100
0000
0100
0000
0000
,  // measure 38
1000
0010
0001
0010
1000
0000
0001
0000
0101
0000
1000
0000
1100
0000
0001
0000
,  // measure 39
0010
1000
0010
0001
0010
0000
0100
0000
1100
0000
0010
0000
0101
0000
0010
0000
,  // measure 40
0110
0001
0100
0010
1000
0100
0001
0100
,  // measure 41
0110
0000
1000
0000
0100
0000
0010
0000
0001
0000
0100
0000
0010
0000
1000
0001
,  // measure 42
1001
0000
1000
0100
0000
0010
0000
0002
0003
000L
0000
0000
0100
0000
0010
1000
,  // measure 43
1001
0000
0001
0100
0000
0010
0000
2000
3000
L000
0000
0000
0100
0000
0010
0000
,  // measure 44
1001
0001
0010
0100
1000
0010
0001
0010
,  // measure 45
1001
0000
1000
0000
0100
0000
0001
0000
0100
0000
1000
0000
0010
0000
0100
0010
,  // measure 46
0110
0000
0100
0001
0000
1000
0000
0020
0030
00L0
0000
0000
1000
0000
0001
0010
,  // measure 47
0110
0000
0100
1000
0000
0010
0000
0200
0300
0L00
0000
0000
0000
0000
1001
0000
;

//---------------dance-single - DDRish challenge----------------
#NOTEDATA:;
#CHARTNAME:;
#STEPSTYPE:dance-single;
#DESCRIPTION:DDRish challenge;
#CHARTSTYLE:;
#DIFFICULTY:Edit;
#METER:8;
#RADARVALUES:0.482164,0.476328,0.359710,0.015307,0.512777,441.000000,394.000000,47.000000,2.000000,0.000000,0.000000,0.000000,0.000000,0.000000,0.482164,0.476328,0.359710,0.015307,0.512777,441.000000,394.000000,47.000000,2.000000,0.000000,0.000000,0.000000,0.000000,0.000000;
#CREDIT:;
#NOTES:
// measure 0
0000
0000
0000
0000
,  // measure 1
0000
0000
0000
0000
,  // measure 2
0000
0000
0000
0000
,  // measure 3
0000
0000
0000
0000
,  // measure 4
1001
0000
0000
0000
0101
0000
0000
0001
0100
0000
0010
0000
1000
0000
0000
0000
,  // measure 5
1000
0010
0000
0001
0000
0010
0100
0001
1000
0000
0100
1000
0000
1001
0000
0000
,  // measure 6
1100
0000
1000
0100
0010
0000
0010
0000
0001
0100
0010
0000
2002
0000
3003
0000
,  // measure 7
0000
0000
0000
0000
0000
0000
0001
0000
0000
0100
0000
0000
0010
0000
0000
0000
0000
0000
0010
0000
0000
0000
0000
0000
0000
0000
0000
0000
0000
0000
1001
0000
0000
0000
0000
0000
0000
0000
0000
0000
0000
0000
1000
0000
0100
0000
0000
0000
,  // measure 8
1000
0000
1000
0010
0100
0000
0001
0000
1000
0001
1000
0000
1001
0000
0000
0000
,  // measure 9
1000
0100
0010
0000
0001
0100
0010
0000
1000
0001
1000
0000
1001
0000
0000
0000
,  // measure 10
1000
0100
0001
0000
1000
0010
0001
0000
1000
0001
1000
0000
1001
0000
0000
0000
,  // measure 11
0001
0100
1000
0000
0001
0010
1000
0000
0001
1000
0001
0000
1001
0000
1000
0000
,  // measure 12
1100
0000
1000
0100
0010
0000
0100
0000
1000
0000
0001
0100
0010
0000
0000
0000
,  // measure 13
1000
0000
0010
0100
0001
0000
0010
0100
1000
0000
0001
1000
0001
0000
0000
0000
,  // measure 14
1000
0000
0100
1000
0001
0000
0100
0001
1000
0001
0100
0010
1000
0000
1000
0100
,  // measure 15
0010
0001
1000
0001
0010
0000
0100
1000
0010
0100
0001
1000
0001
0000
0000
0000
,  // measure 16
0010
0100
0000
1000
0010
0000
0000
0000
0010
0100
0000
0001
0000
0010
0000
0000
,  // measure 17
0100
1000
0100
0001
0100
1000
0010
1000
0100
0010
0000
0001
0000
0001
0000
0000
,  // measure 18
0100
0001
0100
1000
0100
0000
0100
0000
0110
0000
1000
0000
0110
0000
0001
0000
,  // measure 19
0010
1000
0010
0001
0010
0000
0100
0000
1001
0000
0010
0000
1001
0000
0100
0000
,  // measure 20
1001
1000
0100
0010
0001
0100
0010
1000
,  // measure 21
1001
0001
0010
0100
1000
0010
1000
0100
,  // measure 22
1100
0000
1000
0100
0000
0010
0000
0001
0000
0001
0000
0000
0001
0000
1000
0000
,  // measure 23
1010
0000
1000
0010
0000
0100
0000
0001
0000
0001
0000
0000
0100
0000
0010
0000
,  // measure 24
1001
1000
0100
0010
0001
0100
0010
0100
,  // measure 25
1001
0001
0010
0100
1000
0010
0100
0001
,  // measure 26
0011
0000
0001
0100
0000
0010
0000
1000
0000
1000
0000
0000
1000
0000
0001
0000
,  // measure 27
0011
0000
0001
0100
0000
0010
0000
1000
0000
1000
0000
0000
0000
0000
0100
0000
,  // measure 28
1000
0001
0000
0010
0000
0010
0000
1000
0000
0010
0100
0000
1001
0000
0000
0000
,  // measure 29
1010
0000
0001
0000
0011
0000
0001
0100
0010
0000
1000
0000
0001
0010
0000
0000
,  // measure 30
0110
0000
0000
0000
1000
0100
0000
0010
0001
0000
1000
0000
1001
0000
0000
0000
,  // measure 31
1000
0010
1000
0100
0010
0001
0100
0001
0010
0100
0010
0100
1000
0000
0000
0000
,  // measure 32
1001
0000
0001
0010
0000
0100
0000
0010
0000
0001
1000
0000
1001
0000
0000
0000
,  // measure 33
1000
0000
0001
0100
0000
0010
0000
0110
0000
0100
0000
0001
1000
0000
0000
0000
,  // measure 34
1000
0000
0001
0010
0000
0100
0000
0010
0000
0001
1000
0000
1001
0000
0110
0000
,  // measure 35
1001
0000
1000
0100
0010
0000
0001
1000
0000
0010
0000
1000
0001
0000
1000
0000
,  // measure 36
0100
0010
0000
0001
0000
0010
0000
0000
0100
1000
0000
0010
0000
1000
0000
0000
,  // measure 37
0001
0010
1000
0010
0001
0100
0010
0100
0001
0010
0000
0100
0000
0100
0000
0000
,  // measure 38
1000
0010
0001
0010
1000
0000
0001
0000
0101
0000
1000
0000
1100
0000
0001
0000
,  // measure 39
0010
1000
0010
0001
0010
0000
0100
0000
1100
0000
0010
0000
0101
0000
0010
0000
,  // measure 40
0110
0001
0100
0010
1000
0100
0001
0100
,  // measure 41
0110
1000
0100
0010
0001
0100
0010
1000
,  // measure 42
1001
0000
1000
0100
0000
0010
0000
0001
0000
0001
0000
0000
0100
0000
0010
0000
,  // measure 43
1001
0000
0001
0100
0000
0010
0000
1000
0000
1000
0000
0000
0100
0000
0010
0000
,  // measure 44
1001
0001
0010
0100
1000
0010
0001
0010
,  // measure 45
1001
1000
0100
0001
0100
1000
0010
0100
,  // measure 46
0110
0000
0100
0001
0000
1000
0000
0010
0000
0010
0000
0000
1000
0000
0001
0000
,  // measure 47
0110
0000
0100
1000
0000
0010
0000
0100
0000
0100
0000
0000
0000
0000
1001
0000
;
