#VERSION:0.83;
#TITLE:Istanbul;
#SUBTITLE:;
#ARTIST:REVen-G;
#TITLETRANSLIT:;
#SUBTITLETRANSLIT:;
#ARTISTTRANSLIT:;
#GENRE:;
#ORIGIN:;
#CREDIT:;
#BANNER:[round b] - istanbul.png;
#BACKGROUND:[Round B] - Istanbul-bg.png;
#PREVIEWVID:;
#JACKET:;
#CDIMAGE:;
#DISCIMAGE:;
#LYRICSPATH:;
#CDTITLE:;
#MUSIC:[Round B] - Istanbul.ogg;
#OFFSET:0.010000;
#SAMPLESTART:71.950005;
#SAMPLELENGTH:16.000000;
#SELECTABLE:YES;
#BPMS:0.000=120.000;
#STOPS:;
#DELAYS:;
#WARPS:;
#TIMESIGNATURES:0.000=4=4;
#TICKCOUNTS:0.000=4;
#COMBOS:0.000=1;
#SPEEDS:0.000=1.000=0.000=0;
#SCROLLS:0.000=1.000;
#FAKES:;
#LABELS:0.000=Song Start;
#BGCHANGES:;
#KEYSOUNDS:;
#ATTACKS:
;

//---------------dance-single - ----------------
#NOTEDATA:;
#CHARTNAME:;
#STEPSTYPE:dance-single;
#DESCRIPTION:;
#CHARTSTYLE:;
#DIFFICULTY:Hard;
#METER:8;
#RADARVALUES:0.517293,0.644868,0.515789,0.084211,0.205263,344.000000,295.000000,49.000000,8.000000,0.000000,0.000000,0.000000,0.000000,0.000000,0.517293,0.644868,0.515789,0.084211,0.205263,344.000000,295.000000,49.000000,8.000000,0.000000,0.000000,0.000000,0.000000,0.000000;
#CREDIT:;
#NOTES:
// measure 0
0000
0000
0000
0000
,  // measure 1
0000
0000
0000
0000
,  // measure 2
0000
0000
0000
0000
,  // measure 3
0000
0000
0000
0000
,  // measure 4
0000
0000
0000
0000
,  // measure 5
1000
0100
0001
0100
0020
0001
0001
0001
,  // measure 6
0130
0010
0001
1000
0020
0100
0100
0130
,  // measure 7
0110
0010
0100
0001
0101
0100
0001
1000
,  // measure 8
1001
0000
1100
0000
0010
0000
0100
0010
,  // measure 9
0110
0000
0000
0000
0011
0000
0000
0000
1001
0000
0000
0000
0101
0000
0000
0100
,  // measure 10
0010
0000
0000
0000
0110
0000
0000
0000
1010
0000
0000
0000
1001
0000
0000
0001
,  // measure 11
1000
0001
0000
0000
0011
0000
0000
0000
0110
0000
0000
0010
0001
0000
0000
0000
,  // measure 12
0010
0000
0010
0000
0001
0000
0000
0000
0011
0000
0000
0001
0000
0100
0000
0000
,  // measure 13
0101
0000
0000
0000
0110
0000
0000
0000
1010
0000
0000
0000
0010
0000
1000
0010
,  // measure 14
1000
0000
0000
0000
1001
0000
0000
1000
0100
0000
0000
0000
1000
0000
0100
1000
,  // measure 15
0100
0000
0000
0000
0010
0100
0000
0000
0010
0100
0000
0100
1000
0000
0001
1000
,  // measure 16
0001
0100
0000
0000
0101
0000
0000
0000
0110
0000
0000
0000
0010
0000
0100
0000
,  // measure 17
0110
0000
0000
0100
0000
0000
0010
0000
1000
0000
0100
0000
0010
0000
0100
0000
,  // measure 18
0001
0000
0000
0100
0000
0000
0001
0000
0100
0000
0010
0000
0001
0000
0100
0000
,  // measure 19
0010
0000
0000
0100
0000
0000
0010
0000
1000
0000
0010
0000
0100
0000
0010
0000
,  // measure 20
0001
0000
0000
0010
0000
0000
0001
0000
0010
0000
0001
0010
0000
0100
0000
0010
,  // measure 21
1000
0010
0000
0000
1000
0000
0100
0000
0010
0000
0101
0000
0010
0000
1100
0000
,  // measure 22
0010
0000
0001
0010
0100
1010
0100
0011
,  // measure 23
0100
0000
0010
0001
1000
0110
1000
0110
,  // measure 24
2000
0000
0000
0000
3001
1000
0000
1000
0010
0000
1000
0000
0001
0000
0100
0000
,  // measure 25
0010
0000
0100
0000
0002
0000
0000
1000
0000
0000
0013
0000
0110
0000
0000
0000
,  // measure 26
0010
0000
0100
0000
2000
0000
0000
0001
0000
0000
3010
0000
0110
0000
0000
0000
,  // measure 27
0100
0001
0010
0010
0001
0010
1000
0000
,  // measure 28
1000
0010
0100
1000
0001
0100
1000
0010
,  // measure 29
0001
0000
0100
0001
0000
0000
0100
0000
0000
0000
0100
0000
0001
0000
0001
0000
,  // measure 30
1000
0000
0001
1000
0000
0000
0001
0000
0000
0000
0001
0000
0100
0000
0100
0000
,  // measure 31
0010
0100
0001
1000
0100
0001
0100
1000
,  // measure 32
0010
0100
1000
0100
0020
0000
0100
0000
,  // measure 33
1030
0000
0000
0010
0000
0000
0100
0000
0000
0010
0100
0000
0001
0000
0100
0000
,  // measure 34
0010
0100
0000
0000
0000
0000
0100
0000
0000
0100
0000
0000
0100
0000
0010
0000
,  // measure 35
1000
0100
0010
0001
0100
0010
0100
0001
,  // measure 36
0101
0100
0001
1000
1010
0010
0100
0010
,  // measure 37
0110
0010
1010
1000
1001
0001
0011
0010
,  // measure 38
0110
0010
0011
0001
1001
1000
1010
0010
,  // measure 39
0110
0100
0010
1000
0100
1000
0001
1000
,  // measure 40
0100
1000
0000
0000
1000
0000
0100
0000
0110
0000
0010
0000
0100
0000
1000
0000
,  // measure 41
0101
0100
0110
0010
1010
1000
1001
0100
,  // measure 42
1010
0000
0001
0000
0110
0000
1000
0000
0101
0000
0100
0000
0010
0000
0001
0010
,  // measure 43
1000
0000
0010
0000
1000
0001
0000
0001
0010
0000
0001
0000
0010
0000
0100
0000
,  // measure 44
1000
0000
0000
0100
0000
0000
0010
0000
0000
0010
0100
0000
0010
0000
0001
0000
,  // measure 45
0100
0000
0000
0001
0000
0000
1000
0000
0001
0000
0100
0000
0010
0000
0100
0000
,  // measure 46
2020
0000
0000
0000
,  // measure 47
0000
3030
0000
0000
0000
0000
0000
0000
;

//---------------dance-single - ----------------
#NOTEDATA:;
#CHARTNAME:;
#STEPSTYPE:dance-single;
#DESCRIPTION:;
#CHARTSTYLE:;
#DIFFICULTY:Challenge;
#METER:10;
#RADARVALUES:0.771429,0.818487,0.347368,0.042105,1.005263,513.000000,480.000000,33.000000,4.000000,8.000000,0.000000,0.000000,0.000000,0.000000,0.771429,0.818487,0.347368,0.042105,1.005263,513.000000,480.000000,33.000000,4.000000,8.000000,0.000000,0.000000,0.000000,0.000000;
#CREDIT:;
#NOTES:
// measure 0
0000
0000
0000
0000
,  // measure 1
0000
0000
0000
0000
,  // measure 2
0000
0000
0000
0000
,  // measure 3
0000
0000
0000
0000
,  // measure 4
0000
0000
0000
0000
,  // measure 5
1100
0000
1000
0100
1000
0000
0100
0010
0100
0000
0010
0000
0100
0010
0001
1000
,  // measure 6
0001
0000
0100
0001
0100
0000
0001
1000
0001
0000
1000
0000
0001
1000
0010
0100
,  // measure 7
0110
0100
0001
1000
1001
0001
0010
0100
,  // measure 8
0110
0000
0000
0000
1001
0000
0000
0000
0000
0000
0000
0000
1000
0001
1000
0001
,  // measure 9
1000
0100
0010
0001
1000
0100
0010
0001
0010
0000
0100
0000
0010
0001
0010
0001
,  // measure 10
0010
0100
1000
0001
0010
0100
1000
0001
1000
0000
0100
0000
1000
0001
1000
0001
,  // measure 11
1000
0010
0100
0001
1000
0010
0100
0001
0100
0000
0010
0000
0100
0001
0100
0001
,  // measure 12
0100
0000
0101
0000
1001
0000
1000
0001
0010
0100
0010
0001
0000
1000
0100
1000
,  // measure 13
0001
0010
0100
1000
0001
0010
0100
1000
0100
0000
0010
0000
0100
1000
0100
1000
,  // measure 14
0100
0010
0001
1000
0100
0010
0001
1000
0001
0000
0010
0000
0001
1000
0001
1000
,  // measure 15
0001
0100
0010
1000
0001
0100
0010
1000
0010
0100
0000
0010
1000
0010
1000
0010
,  // measure 16
1000
0100
0000
0100
0010
0000
0000
0000
0110
0000
0000
0000
0100
0010
0100
0010
,  // measure 17
0001
0000
0010
0100
0000
0010
0001
1000
0010
0100
0010
1000
0010
0000
0100
0000
,  // measure 18
0010
0000
1000
0001
0000
1000
0100
0010
0001
1000
0001
0010
0001
0000
1000
0000
,  // measure 19
0001
0000
0100
0010
0000
0100
0001
1000
0100
0010
0100
1000
0100
0000
0010
0000
,  // measure 20
0100
0000
1000
0001
0000
1000
0010
0100
0001
1000
0001
0100
0001
1000
0000
1000
,  // measure 21
0010
0100
0000
0000
0100
0000
0010
0000
1000
0010
1000
0001
1000
0000
0001
0000
,  // measure 22
1000
0000
0100
0010
0000
0100
1000
0001
0100
0010
0100
0001
0100
0000
0010
0000
,  // measure 23
0100
0000
0001
1000
0000
0001
0010
0100
1000
0001
1000
0100
1000
0000
0001
0000
,  // measure 24
1000
0000
0000
0000
0100
0000
0000
0000
0010
0000
0100
0000
0000
0000
0100
0000
1000
0100
1000
0000
0100
0000
1000
0000
0001
0000
0100
0000
0001
0000
1000
0000
,  // measure 25
0001
0000
0100
0000
0201
0000
0000
0001
0000
0000
0310
0000
0110
0000
0000
0000
,  // measure 26
1000
0000
0100
0000
1200
0000
0000
1000
0000
0000
0310
0000
0110
0000
0000
0000
,  // measure 27
0010
0000
0100
0000
1000
0100
1000
0001
0100
0010
1000
0010
0100
0000
0000
0010
,  // measure 28
1000
0000
0000
0000
0000
0000
0100
0000
0000
0000
0000
0000
1000
0000
0000
0100
0000
0000
0010
0000
0000
0001
0000
0000
1000
0000
0100
0000
1000
0000
0001
0000
0010
0000
0001
0000
0100
0000
0010
0000
0100
0000
0001
0000
1000
0000
0001
0000
,  // measure 29
1000
0000
0001
0010
0000
0000
0100
0000
0000
0000
0110
0000
0011
0000
1001
0000
,  // measure 30
0001
0000
1000
0010
0000
0000
0100
0000
0000
0000
0110
0000
1010
0000
1001
0000
,  // measure 31
1000
0000
0100
0000
1000
0001
1000
0100
0010
0001
0100
0000
0010
1000
0100
0000
,  // measure 32
0010
0000
0100
0000
1000
0100
1000
0001
0100
0010
0100
0000
1010
0000
0000
0000
,  // measure 33
0001
0100
0010
0100
0001
0100
0010
0100
0010
1000
0010
0000
1000
0000
0001
1000
,  // measure 34
0100
0010
0001
0010
0001
0010
0100
1000
0100
0010
0100
1000
0001
1000
0010
0100
,  // measure 35
0001
1000
0001
1000
0010
1000
0010
0000
1000
0010
1000
0010
1000
0001
1001
0000
,  // measure 36
0101
0000
0001
0100
0010
0000
0100
0000
0110
0000
0010
0100
0001
0000
1000
0000
,  // measure 37
1100
0000
0100
1000
0001
0000
1000
0100
0010
0000
0100
1000
0001
0000
1000
0010
,  // measure 38
0100
0000
0010
0100
0001
0000
0100
0001
1000
0000
0001
1000
0100
0000
1000
0001
,  // measure 39
0010
0000
0100
0000
0010
0001
0010
0001
1000
0010
1000
0010
0100
0001
0100
0001
,  // measure 40
0100
0010
0000
0000
0010
0000
0100
0000
0101
0000
0001
0010
0100
0000
0010
0000
,  // measure 41
0110
0000
0100
0010
0001
0000
0010
0001
1000
0000
0001
0100
0010
0000
0110
0000
,  // measure 42
1010
0000
0000
0000
0000
0000
1000
0000
0000
0001
0000
0000
1001
0000
0000
0000
0000
0000
1000
0000
0000
0100
0000
0000
1100
0000
0000
0000
0000
0000
0010
0000
0000
0000
0000
0000
0001
0000
0000
0000
0000
0000
0010
0000
0100
0000
1000
0000
,  // measure 43
0001
0000
1000
0000
0001
1000
0000
1000
0010
1000
0001
1000
0010
0000
0100
0000
,  // measure 44
0110
0000
0010
1000
0000
0000
1010
0000
0000
1000
0010
1000
0001
0000
1000
0100
,  // measure 45
0010
0000
0000
0000
0000
0000
0110
0000
0000
0000
0000
0000
1100
0000
0000
0100
1000
0000
0100
0000
1000
0000
0100
0000
1000
0000
0001
0000
1000
0000
0001
0000
,  // measure 46
0100
0001
0200
0000
000M
0000
000M
0000
000M
0000
000M
0000
000M
0000
000M
0000
000M
0000
000M
0000
0000
0000
0020
0000
0000
0000
0000
0000
0000
0000
0000
0000
,  // measure 47
0000
0330
0000
0000
0000
0000
0000
0000
;

//---------------dance-single - ----------------
#NOTEDATA:;
#CHARTNAME:;
#STEPSTYPE:dance-single;
#DESCRIPTION:;
#CHARTSTYLE:;
#DIFFICULTY:Medium;
#METER:6;
#RADARVALUES:0.365414,0.446447,0.221053,0.210526,0.000000,243.000000,222.000000,21.000000,20.000000,0.000000,0.000000,0.000000,0.000000,0.000000,0.365414,0.446447,0.221053,0.210526,0.000000,243.000000,222.000000,21.000000,20.000000,0.000000,0.000000,0.000000,0.000000,0.000000;
#CREDIT:;
#NOTES:
0000
0000
0000
0000
,
0000
0000
0000
0000
,
0000
0000
0000
0000
,
0000
0000
0000
0000
,
0000
0000
0000
0000
,
0100
0000
0100
0000
0100
0000
0100
0010
,
1000
0000
1000
0000
1000
0000
1000
0100
,
0001
0000
0001
0100
1000
0000
0001
0100
,
1000
0000
0100
0000
0010
0000
0001
0010
,
1000
0100
0020
1000
,
0130
1000
0020
0100
,
0031
0010
0200
1000
,
0310
0100
0001
0000
1000
0000
0001
1000
,
0100
0010
0100
0010
0200
0000
0001
0000
,
0310
0001
0010
0001
0200
0000
1000
0000
,
0310
0100
0010
0100
0020
0000
0001
0000
,
0130
0001
0100
0001
0010
0000
1000
0010
,
0001
0010
0001
0010
0001
0010
0001
0010
,
0001
0100
0001
0100
0001
0100
0001
0100
,
0010
0100
0010
0100
0010
0100
0010
0100
,
0010
1000
0010
1000
0010
1000
0010
1000
,
0001
0000
0001
0100
0010
1000
0001
1000
,
0100
0000
1000
0100
0010
0001
1000
0001
,
0100
0000
0010
0100
0001
1000
0100
1000
,
0002
0000
0000
0000
1003
0100
0010
0001
,
2000
0001
3020
0100
,
0001
0100
2030
0001
,
3100
1000
0100
0010
0100
0010
0001
0000
,
0010
0001
0100
0010
0001
0010
0100
0010
,
2000
0001
3200
0010
,
0001
0010
2300
0100
,
3001
1000
0010
1000
0100
0010
0100
1000
,
0001
0100
0010
0100
0020
0000
1030
0000
,
0010
0000
0000
0100
0000
0000
0010
0000
,
0100
0000
0000
0001
0000
0000
1000
0000
,
0002
0023
2030
3100
,
1001
1000
1100
0100
,
0110
0011
0101
0110
,
1010
1100
1001
0101
,
0120
1000
0100
1030
,
1010
0010
0110
0100
,
1010
1100
0110
0011
,
1100
0000
0101
0000
1100
0000
0100
0010
,
0011
0000
0001
0100
0010
0000
0100
0001
,
0020
0000
0000
1000
0000
0000
0001
0000
,
0100
0000
0000
0031
0010
0001
0100
0001
,
2000
0000
0000
0000
,
0000
3000
0000
0000
0000
0000
0000
0000
;

//---------------dance-single - ----------------
#NOTEDATA:;
#CHARTNAME:;
#STEPSTYPE:dance-single;
#DESCRIPTION:;
#CHARTSTYLE:;
#DIFFICULTY:Easy;
#METER:4;
#RADARVALUES:0.236090,0.322434,0.178947,0.505263,0.000000,157.000000,140.000000,17.000000,48.000000,0.000000,0.000000,0.000000,0.000000,0.000000,0.236090,0.322434,0.178947,0.505263,0.000000,157.000000,140.000000,17.000000,48.000000,0.000000,0.000000,0.000000,0.000000,0.000000;
#CREDIT:;
#NOTES:
0000
0000
0000
0000
,
0000
0000
0000
0000
,
0000
0000
0000
0000
,
0000
0000
0000
0000
,
0000
0000
0000
0000
,
0010
0100
0020
0100
,
1030
0010
2000
0010
,
3001
0000
1001
0000
,
0001
0010
0000
0100
,
0120
0001
0200
0330
,
0012
1000
0200
0303
,
0210
1000
0020
0330
,
2010
0001
0100
3100
,
1000
0100
0020
0100
,
0031
0100
0020
0100
,
1030
0010
0200
1000
,
0310
0100
0101
0001
,
1001
0000
1000
0000
0100
0100
0100
0000
,
1000
0000
0100
0000
0010
0010
0010
0000
,
0100
0000
0010
0000
0001
0001
0001
0000
,
0010
0000
0001
0000
1000
1000
1000
0000
,
1001
0000
0100
0000
0010
0010
0010
0000
,
0100
0000
0010
0000
1000
1000
1000
0000
,
0010
0000
1000
0000
0001
0001
0001
0000
,
2002
3003
0110
1001
,
0002
0000
0200
0000
,
0000
0003
0020
0330
,
0010
1000
0100
0020
,
1030
0010
0200
1000
,
0320
0000
0032
0000
,
0000
0000
0200
0303
,
0001
0100
0010
1000
,
0100
0010
0001
0011
,
0020
0000
0000
0000
,
0230
0000
0000
0000
,
2300
3002
0203
0320
,
0230
0001
0320
0001
,
0230
0320
2030
3200
,
0320
0230
2300
3002
,
0203
1000
0001
1000
,
0320
1000
0230
1000
,
0320
0230
0302
0013
,
0110
0011
0110
0001
,
1001
0000
0200
0000
,
0020
0000
0000
0000
,
0000
0000
0000
0330
,
2002
0000
0000
0000
,
0000
3003
0000
0000
0000
0000
0000
0000
;

//---------------dance-single - ----------------
#NOTEDATA:;
#CHARTNAME:;
#STEPSTYPE:dance-single;
#DESCRIPTION:;
#CHARTSTYLE:;
#DIFFICULTY:Beginner;
#METER:3;
#RADARVALUES:0.153383,0.248026,0.189474,0.315789,0.000000,102.000000,84.000000,18.000000,30.000000,0.000000,0.000000,0.000000,0.000000,0.000000,0.153383,0.248026,0.189474,0.315789,0.000000,102.000000,84.000000,18.000000,30.000000,0.000000,0.000000,0.000000,0.000000,0.000000;
#CREDIT:;
#NOTES:
0000
0000
0000
0000
,
0000
0000
0000
0000
,
0000
0000
0000
0000
,
0000
0000
0000
0000
,
0000
0000
0000
0000
,
1001
0000
0200
0000
,
0310
0000
0200
0000
,
0301
0000
0001
0000
,
0001
0001
0000
0000
,
1001
0000
2000
0000
,
3100
0000
0200
0000
,
0310
0000
0020
0000
,
0031
0000
0002
0000
,
1003
0001
2000
0000
,
3001
1000
0002
0000
,
1003
0001
2000
0000
,
3001
1000
0001
0000
,
1001
0000
0110
0000
,
1001
0000
0110
0000
,
0110
0000
1001
0000
,
0110
0000
1001
0000
,
1001
0000
0011
0000
,
1001
0000
1010
0000
,
1001
0000
1100
0000
,
0220
0000
0330
0000
,
0020
0000
0002
0000
,
0000
0030
0020
0033
,
0001
0000
0100
0000
,
1000
0000
0020
0000
,
0032
0000
0200
0000
,
0000
0003
0002
0303
,
0100
0000
0010
0000
,
1000
0000
0001
0000
,
2000
0000
0000
0000
,
3020
0000
0000
0000
,
0230
0000
0000
0000
,
0320
0000
2030
0000
,
3010
0010
0010
0010
,
0010
1000
0010
1000
,
0020
0000
0000
0000
,
0230
0000
0302
0000
,
1003
0001
0001
0001
,
0100
0010
1000
0000
,
1020
0000
0200
0330
,
0020
0000
0000
0000
,
0000
0000
0000
0000
,
0200
0000
0000
0000
,
0000
0330
0000
0000
0000
0000
0000
0000
;
