#TITLE:Emoji;
#SUBTITLE:;
#ARTIST:Pegboard Nerds;
#TITLETRANSLIT:;
#SUBTITLETRANSLIT:;
#ARTISTTRANSLIT:;
#GENRE:Future Bass;
#CREDIT:;
#BANNER:;
#BACKGROUND:;
#LYRICSPATH:;
#CDTITLE:rook-cd.png;
#MUSIC:[Round B] - Emoji.ogg;
#OFFSET:-0.103000;
#SAMPLESTART:23.662708;
#SAMPLELENGTH:11.779140;
#SELECTABLE:YES;
#BPMS:0.000000=163.000000
;
#STOPS:
;
#BGCHANGES:;
#KEYSOUNDS:;
#ATTACKS:;

//---------------dance-single - ----------------
#NOTES:
     dance-single:
     :
     Hard:
     9:
     0.558683,0.801234,0.143077,0.190770,0.135129,450.000000,18.000000,24.000000,19.000000,0.000000,1.000000,0.558683,0.801234,0.143077,0.190770,0.135129,450.000000,18.000000,24.000000,19.000000,0.000000,1.000000:
0000
0000
0000
0000
,
0000
0000
0000
0000
,
0000
0000
0000
0000
,
0000
0000
0000
0000
,
0000
0000
0000
0000
,
0000
0000
0000
0000
,
0000
0000
0000
0000
,
0000
0000
0000
0000
0000
0000
0000
0000
1000
0000
0001
0010
0100
0000
0010
0000
,
0001
1000
0010
0100
0001
1000
0100
1000
,
0001
0100
0001
1000
0010
1000
0001
1000
,
0010
0001
0010
0100
0001
1000
0100
0010
,
0100
0000
0000
1000
0000
0000
0001
0000
0000
0100
0000
0000
0010
0000
0000
1000
0001
1000
0001
0000
0000
0010
0000
0000
,
0001
0100
0010
1000
0001
0010
0100
0010
,
0001
1000
0001
1000
0100
0010
0100
0010
0001
1000
0001
1000
0001
0100
0001
0100
,
0001
0000
0000
0000
,
M000
M000
M000
M000
M000
M000
M000
0000
0000
0000
000M
000M
000M
000M
000M
000M
100M
0000
0000
0000
0001
0000
0100
0000
0010
0000
0000
0000
0100
0000
0000
0000
,
0101
1000
0001
0001
0010
0100
1000
0001
,
0000
0000
0001
0000
0000
0000
0100
0000
0010
0000
0010
0000
0200
0000
0000
0300
,
1010
0001
1000
0100
0010
0001
0010
0001
,
0000
0000
0001
0000
0000
0000
0001
0000
1000
0000
0010
0000
0200
0000
0000
0300
,
0101
0001
0001
0001
1000
0100
0010
0001
,
0000
0000
0001
0000
0000
0000
0001
0000
1000
0000
0010
0000
0200
0000
0000
0300
,
0101
0001
1000
0100
1000
0001
0100
0010
,
0000
0000
0010
0000
0000
0000
0010
0000
0100
0000
0000
0000
0002
0000
0000
0003
,
2001
0000
0000
0000
3100
1000
1000
0010
,
0000
0000
0010
0000
0000
0000
0100
0000
0001
0000
1000
0000
0200
0000
0000
0300
,
0110
0001
1000
0010
0100
0001
1000
0100
,
0000
0100
0000
0100
1000
0001
1000
0001
,
0101
0000
1000
0001
0010
0100
1000
0001
,
0000
0001
0000
0001
1000
0010
0100
0100
,
0101
0001
1000
0001
0010
0100
1000
0001
,
0000
0000
0001
0000
0000
0000
0001
0000
1000
0000
0000
0000
0020
0000
0000
0030
,
0101
0000
1000
0000
0001
0010
0100
0010
,
0000
0001
1000
0010
0100
0001
0100
0001
,
1001
0000
1000
0000
0100
0010
0001
1000
,
0000
0M01
01M0
M010
100M
0000
00M1
0000
,
1100
0000
0001
0000
1000
0010
0100
0010
,
0000
2000
0000
3002
0013
0100
0010
0100
,
1100
0000
0001
0000
0100
0010
0100
0001
,
0000
1000
0100
1000
0001
0100
0010
1000
,
1001
0000
0001
0000
1000
0010
0100
0001
,
0000
1000
0100
0010
0001
1000
0010
0100
,
0101
0000
1000
0000
0001
0010
0100
0010
,
0000
0001
1000
0010
0100
0010
1000
0001
,
1000
0100
0010
0000
0010
0000
0100
1000
,
0000
1000
0001
0000
0100
0010
2000
0000
,
3001
0000
0000
0000
,
0000
0000
0000
0000
,
2000
0000
0000
3002
,
0000
0000
0000
0000
0000
0000
0103
0010
,
2000
0000
0000
3200
,
0000
0000
0000
0000
0000
0000
0310
0100
,
2000
0000
0000
3002
,
0000
0000
0000
0000
0000
0000
1003
0010
,
0200
0000
0310
2000
,
0000
0000
0000
0000
0000
0000
3000
0000
1000
0000
0001
0100
0010
0000
0100
0000
,
0001
1000
0010
0100
0001
1000
0100
1000
,
0001
0100
0010
1000
0001
0010
0100
1000
,
0010
0001
0010
0100
0001
0010
0100
1000
,
0001
0000
0000
0100
0000
0000
0010
0000
0000
1000
0000
0000
0001
0000
0000
0010
0100
0010
0100
0000
0000
1000
0000
0000
,
0001
0100
0010
0100
0001
1000
0010
0100
,
0010
1000
0010
1000
0001
1000
0001
1000
0001
0010
0001
0010
0100
1000
0100
1000
,
0001
0000
0000
0000
,
0000
0000
0000
0000
0000
0000
0000
0000
1000
0000
0001
0100
0010
0000
0100
0000
,
0102
0000
0000
0000
1003
0001
0010
0100
,
0000
0000
0100
0000
0000
0000
0100
0000
1000
0000
0001
0000
0200
0000
0000
0300
,
1010
0001
1000
0100
0010
0000
0001
1000
,
0000
0000
1000
0000
0000
0000
1000
0000
0020
0000
0000
0000
0230
0000
0000
0300
,
0101
0000
0000
1000
0001
0010
0100
1000
,
0000
0000
1000
0000
0000
0000
1000
0000
0001
0000
0100
0000
0020
0000
0000
0030
,
1010
1000
0001
0010
0100
1000
0001
0100
,
0000
0100
0000
0100
0010
1000
0010
1000
,
0001
0010
0001
1000
0010
0100
0001
1000
,
0100
1000
0001
0100
0010
1000
0001
0010
,
0100
1000
0001
0100
0001
1000
0100
0010
,
0001
1000
0010
0100
0001
1000
0100
1000
,
0001
0100
0010
0100
0001
1000
0100
0010
,
0001
1000
0001
0100
0010
1000
0001
0010
,
0100
1000
0001
0100
0001
1000
0100
1000
,
0001
0100
0010
0100
0001
1000
0200
0000
,
0000
0000
0000
4000
,
0000
0000
0000
0000
,
0300
0000
0000
0000
,
0000
0000
0000
0000
,
3000
0000
0000
0000
;

//---------------dance-single - ----------------
#NOTES:
     dance-single:
     :
     Medium:
     6:
     0.373591,0.434002,0.031795,0.405386,0.000000,274.000000,4.000000,51.000000,0.000000,0.000000,0.000000,0.373591,0.434002,0.031795,0.405386,0.000000,274.000000,4.000000,51.000000,0.000000,0.000000,0.000000:
// measure 0
0000
0000
0000
0000
,  // measure 1
0000
0000
0000
0000
,  // measure 2
0000
0000
0000
0000
,  // measure 3
0000
0000
0000
0000
,  // measure 4
0000
0000
0000
0000
,  // measure 5
0000
0000
0000
0000
,  // measure 6
0000
0000
0000
0000
,  // measure 7
0000
0000
0000
0000
,  // measure 8
1000
0000
0001
0000
0100
0010
0100
0000
,  // measure 9
0001
0000
1000
0000
0100
0010
0100
0000
,  // measure 10
1000
0000
0001
0000
1000
0010
1000
0000
,  // measure 11
0001
0000
0010
0000
0100
1000
0001
1000
,  // measure 12
0001
0100
0001
0100
0010
1000
0010
1000
,  // measure 13
0002
0000
0000
0000
,  // measure 14
0003
0000
0000
0000
,  // measure 15
0000
0000
0000
0000
1000
0001
0010
0000
,  // measure 16
1001
0000
0001
1000
0010
0000
0100
0010
,  // measure 17
0000
0100
0000
0000
0010
1000
0002
0000
,  // measure 18
1003
0000
1000
0001
0010
0000
0010
0100
,  // measure 19
0000
0010
0000
0000
0100
1000
0002
0000
,  // measure 20
1003
0000
0001
1000
0010
0000
0100
0001
,  // measure 21
0000
1000
0000
0000
0001
0010
0200
0000
,  // measure 22
1300
0000
0001
0100
0010
0000
0100
0001
,  // measure 23
0000
1000
0000
0000
0001
0000
0020
0000
,  // measure 24
0230
0000
0000
0000
1300
0000
1000
0010
,  // measure 25
0000
0100
0000
0000
0001
1000
0200
0000
,  // measure 26
0310
0000
0001
1000
0010
0000
1000
0100
,  // measure 27
0000
1000
0000
0000
0002
0000
0000
0000
,  // measure 28
1003
0000
1000
0001
0010
0000
0001
1000
,  // measure 29
0000
0001
0000
0000
1000
0200
0000
0000
,  // measure 30
0310
0000
0001
1000
0010
0000
0100
0002
,  // measure 31
0000
0000
0003
0020
,  // measure 32
0230
0000
0000
0000
1300
0000
0001
1000
,  // measure 33
0000
0000
0001
0100
0001
1000
0100
0010
,  // measure 34
0002
0000
0000
0000
0103
0000
0001
1000
,  // measure 35
0000
0000
0001
0000
,  // measure 36
2001
0000
0000
0000
3010
0000
1000
0001
,  // measure 37
0000
2000
0000
3200
0310
0000
0100
0000
,  // measure 38
1002
0000
0000
0000
0103
0000
0001
1000
,  // measure 39
0000
0001
0010
0100
1000
0001
0100
0010
,  // measure 40
1000
0000
0001
0000
1000
0000
0001
0010
,  // measure 41
0000
0000
0100
0010
0001
1000
0010
0100
,  // measure 42
0002
0000
0000
0000
1003
0000
0001
0010
,  // measure 43
0000
0100
1000
0001
0100
0010
1000
0001
,  // measure 44
0010
0000
0100
0000
0100
0000
0100
1000
,  // measure 45
0000
1000
0001
0000
0100
0000
0020
0000
,  // measure 46
1030
0000
0000
0000
,  // measure 47
0000
0000
0000
0000
,  // measure 48
2000
0000
0000
3002
,  // measure 49
0000
0000
0000
0013
,  // measure 50
0200
0000
0000
2300
,  // measure 51
0000
0000
0000
3001
,  // measure 52
0020
0000
0000
0230
,  // measure 53
0000
0000
0000
1300
,  // measure 54
0020
0000
0130
0002
,  // measure 55
0000
0000
0000
0000
1003
0001
0010
0000
,  // measure 56
0001
0000
1000
0000
0010
0100
0010
0000
,  // measure 57
1000
0000
0001
0000
0010
0100
0010
0000
,  // measure 58
0001
0000
1000
0000
0001
0100
0001
0000
,  // measure 59
1000
0000
0100
0000
0010
0100
0010
0001
,  // measure 60
1000
0010
1000
0010
0100
0001
0100
0001
,  // measure 61
2000
0000
0000
0000
,  // measure 62
3001
0000
0000
0000
,  // measure 63
0000
0000
0000
0000
1000
0100
0010
0000
,  // measure 64
0012
0000
0000
0000
1003
0000
0001
0100
,  // measure 65
0000
0010
0000
0000
0100
0001
2000
0000
,  // measure 66
3010
0000
1000
0001
0010
0000
0100
1000
,  // measure 67
0000
0001
0000
0000
0200
0000
0320
0000
,  // measure 68
1030
0000
0000
0001
0010
0000
0100
1000
,  // measure 69
0000
0001
0000
0000
0100
0010
2000
0000
,  // measure 70
3001
0000
1000
0010
0100
0000
0001
0100
,  // measure 71
0000
0001
0000
0000
1000
0100
1000
0100
,  // measure 72
0020
0000
0000
0032
,  // measure 73
0000
0000
0000
0003
0000
0000
2000
0000
,  // measure 74
3020
0000
0230
0302
,  // measure 75
0000
0003
0000
2000
,  // measure 76
3020
0000
0230
0302
,  // measure 77
0000
2003
3200
0320
,  // measure 78
0032
2003
0000
3020
,  // measure 79
0000
0000
0000
0030
0000
0000
0200
0000
,  // measure 80
0000
0000
0000
0000
,  // measure 81
0000
0000
0000
0000
,  // measure 82
0302
0000
0000
0000
,  // measure 83
0000
0000
0000
0000
,  // measure 84
0003
0000
0000
0000
;

//---------------dance-single - ----------------
#NOTES:
     dance-single:
     :
     Easy:
     4:
     0.263444,0.400617,0.039744,0.365642,0.000000,181.000000,5.000000,46.000000,0.000000,0.000000,0.000000,0.263444,0.400617,0.039744,0.365642,0.000000,181.000000,5.000000,46.000000,0.000000,0.000000,0.000000:
// measure 0
0000
0000
0000
0000
,  // measure 1
0000
0000
0000
0000
,  // measure 2
0000
0000
0000
0000
,  // measure 3
0000
0000
0000
0000
,  // measure 4
0000
0000
0000
0000
,  // measure 5
0000
0000
0000
0000
,  // measure 6
0000
0000
0000
0000
,  // measure 7
0000
0000
0000
0000
,  // measure 8
1000
0100
0010
0001
,  // measure 9
1000
0010
0100
0001
,  // measure 10
1000
0100
0010
0100
,  // measure 11
1000
0001
0100
0010
,  // measure 12
0100
0001
1000
0100
,  // measure 13
0020
0000
0000
0000
,  // measure 14
0030
0000
0000
0000
,  // measure 15
0000
0000
0001
0001
,  // measure 16
1001
1000
0010
0000
,  // measure 17
0000
0000
0010
0200
,  // measure 18
0301
1000
0100
0010
,  // measure 19
0000
0000
0010
0002
,  // measure 20
1003
0010
0100
0001
,  // measure 21
0000
0000
0001
0020
,  // measure 22
0130
0010
0001
1000
,  // measure 23
0000
0000
1000
0020
,  // measure 24
0230
0000
0301
1000
,  // measure 25
0000
0000
1000
0200
,  // measure 26
0310
0001
1000
0010
,  // measure 27
0000
0000
0200
0000
,  // measure 28
0301
1000
0100
0010
,  // measure 29
0000
0000
0010
0001
,  // measure 30
1001
1000
0010
0100
,  // measure 31
0000
0000
0001
0020
,  // measure 32
0230
0000
1300
0001
,  // measure 33
0000
0001
0001
0001
,  // measure 34
2000
0000
3001
0100
,  // measure 35
0000
0000
0100
0000
,  // measure 36
2010
0000
3001
1000
,  // measure 37
0000
0000
0010
0010
,  // measure 38
0200
0000
0301
1000
,  // measure 39
0000
0000
0001
0000
,  // measure 40
0012
0000
1003
0001
,  // measure 41
0000
0010
0010
0010
,  // measure 42
0200
0000
1300
0001
,  // measure 43
0000
1000
0100
0000
,  // measure 44
0010
0010
0010
0010
,  // measure 45
0100
0100
0100
0100
,  // measure 46
1000
0000
0000
0000
,  // measure 47
0000
0000
0000
0000
,  // measure 48
2000
0000
0000
3002
,  // measure 49
0000
0000
0000
0013
,  // measure 50
0200
0000
0000
2300
,  // measure 51
0000
0000
0000
3001
,  // measure 52
0020
0000
0000
0230
,  // measure 53
0000
0000
0000
1300
,  // measure 54
0020
0000
0130
0002
,  // measure 55
0000
0000
1003
0001
,  // measure 56
1000
0100
0010
0001
,  // measure 57
1000
0010
0100
0001
,  // measure 58
1000
0100
0010
0100
,  // measure 59
1000
0001
0100
0010
,  // measure 60
0100
0001
1000
0100
,  // measure 61
0020
0000
0000
0000
,  // measure 62
0030
0000
0000
0000
,  // measure 63
0000
0000
0000
0000
,  // measure 64
0012
0000
1003
0001
,  // measure 65
0000
0000
0001
2000
,  // measure 66
3010
1000
0001
0010
,  // measure 67
0000
0000
0200
2300
,  // measure 68
3001
0000
1000
0010
,  // measure 69
0000
0000
0010
2000
,  // measure 70
3001
0001
0001
0001
,  // measure 71
0000
0000
1000
0100
,  // measure 72
0020
0000
0000
0230
,  // measure 73
0000
0000
0300
2000
,  // measure 74
3002
0000
0203
0320
,  // measure 75
0000
0030
0000
2000
,  // measure 76
3002
0000
0203
0320
,  // measure 77
0000
2030
3200
0320
,  // measure 78
0032
2003
0000
3020
,  // measure 79
0000
0000
0000
0030
0000
0000
0200
0000
,  // measure 80
0000
0000
0000
0000
,  // measure 81
0000
0000
0000
0000
,  // measure 82
0000
0000
0000
0000
,  // measure 83
0000
0000
0000
0000
,  // measure 84
0300
0000
0000
0000
;
