#TITLE:Decomposition;
#SUBTITLE:;
#ARTIST:Sihanatsuka;
#TITLETRANSLIT:;
#SUBTITLETRANSLIT:;
#ARTISTTRANSLIT:;
#GENRE:;
#CREDIT:;
#BANNER:[Round B] - Decomposition.png;
#BACKGROUND:[Round B] - Decomposition-bg.png;
#LYRICSPATH:;
#CDTITLE:;
#MUSIC:[Round B] - Decomposition.ogg;
#OFFSET:0.000000;
#SAMPLESTART:100.000000;
#SAMPLELENGTH:15.000000;
#SELECTABLE:YES;
#DISPLAYBPM:92.500000:185.000000;
#BPMS:0.000000=185.000000
,99.000000=370.000000
,100.000000=185.000000
,103.500000=370.000000
,104.500000=185.000000
,108.000000=370.000000
,109.000000=185.000000
,112.500000=370.000000
,113.500000=185.000000
,117.000000=370.000000
,118.000000=185.000000
,121.500000=370.000000
,122.500000=185.000000
,126.000000=370.000000
,127.000000=185.000000
,131.500000=370.000000
,137.500000=185.000000
,166.000000=92.500000
,166.500000=185.000000
,196.500000=92.500000
,197.000000=185.000000
,199.000000=92.500000
,213.000000=185.000000
,213.750000=92.500000
,214.750000=115.750000
,216.000000=92.500000
,247.000000=185.000000
,311.000000=92.500000
,312.000000=185.000000
;
#STOPS:137.500000=0.162000,
167.500000=0.081000,
167.750000=0.081000,
168.000000=0.081000,
168.250000=0.081000,
198.000000=0.081000,
198.250000=0.081000,
198.500000=0.081000,
198.750000=0.081000,
214.125000=0.081000,
214.250000=0.081000,
214.375000=0.081000,
214.500000=0.081000,
214.625000=0.081000
;
#BGCHANGES:;
#KEYSOUNDS:;
#ATTACKS:;

//---------------dance-single - ----------------
#NOTES:
     dance-single:
     :
     Hard:
     10:
     0.553487,0.846865,0.889209,0.479890,0.197602,549.000000,423.000000,126.000000,68.000000,0.000000,0.000000,0.553487,0.846865,0.889209,0.479890,0.197602,549.000000,423.000000,126.000000,68.000000,0.000000,0.000000:
2000
0000
0000
3010
,
0000
0000
0000
0000
0000
0000
0000
0000
0000
0000
0000
0000
0000
0000
1000
0010
,
0200
0000
0000
0001
0000
0000
0000
0000
0000
0000
0000
0000
0300
0000
0000
0000
,
0002
0000
0000
0000
0000
0000
0000
0000
0000
0000
0003
0000
1000
0000
0100
0001
,
0020
0000
0000
1030
,
0000
0000
0000
0000
0000
0000
0000
0000
0000
0000
0000
0000
0000
0000
0010
1000
,
0002
0000
0000
0100
0000
0000
0000
0000
0000
0000
0000
0000
0003
0000
0000
0000
,
0200
0000
0000
0000
0000
0000
0000
0000
0000
0000
0300
0000
0010
0000
1000
0100
,
0002
0000
0000
0013
,
0000
0000
0000
0000
0000
0000
0000
0000
0000
0000
0000
0000
0000
0000
1000
0001
,
0020
0000
0000
0100
0000
0000
0000
0000
0000
0000
0000
0000
0030
0000
0000
0000
,
0200
0000
0000
0000
0000
0000
0000
0000
0000
0000
0300
0000
0001
0000
0010
0100
,
2000
0000
0000
3100
,
0011
0000
0000
0000
0000
0000
0000
0000
1100
0000
0000
0000
0000
0000
0001
1000
,
0200
0000
0000
0300
,
1020
0000
0000
0000
0100
0000
0001
0000
0100
0000
1030
0001
1000
0000
0100
0010
,
0002
0000
0000
0000
,
0000
0000
0000
0000
,
0023
0000
0000
0030
,
2001
0000
0001
0000
0000
0000
0010
0000
0000
0000
0100
0000
0001
0000
3100
0010
,
0002
0000
1000
0000
,
0100
0000
0000
0010
1000
0010
0000
0000
,
0203
0000
1000
0000
,
0001
0010
0000
0000
1000
0000
0000
0300
,
0011
0000
1100
0220
,
0330
0101
0000
0000
1000
0010
1000
0220
,
0000
0330
1010
0000
0000
0000
0101
0000
,
0220
0000
0330
1000
0100
0000
0000
0011
,
0000
0220
0000
0330
1100
0000
0011
0000
,
1010
0000
2002
0000
3003
0101
0000
1100
,
0000
0011
0000
2002
0000
3003
0010
1000
,
0100
0001
0010
0100
2002
0000
3003
0100
,
0001
0000
0010
0000
1000
0000
0100
0010
0100
0010
0100
0010
0100
0010
2002
0000
,
0000
0000
0000
0000
,
0000
0000
0000
3003
0010
0001
1100
0000
,
0001
0010
1100
0000
0010
1000
0101
0000
,
1000
0010
0101
0000
1000
0001
0110
0000
,
0001
1000
0110
0000
1000
0010
0101
0000
,
0010
1000
0101
0000
1000
0100
0011
0000
,
0100
1000
0011
0000
0100
0010
1001
0000
,
0010
0100
1001
0000
0100
1000
0011
0000
,
1000
0000
0100
0000
0011
0000
0000
0000
0220
0000
0330
1000
0000
0000
1100
0101
,
0011
1010
1001
0000
0100
0000
0010
0000
0000
0000
1001
0000
0010
0000
0100
0000
,
0000
0101
1000
0010
0000
0110
0001
1000
,
0000
1010
0001
0100
0000
1001
0010
0100
,
0000
1100
0001
0010
0000
0110
0001
1000
,
0000
1001
0100
0010
0000
1010
0100
0001
,
0000
0110
1000
0001
0000
0011
0100
1000
,
0000
0011
0000
1010
0000
1100
0000
0101
,
0000
0000
2002
3003
0110
0000
0000
0000
1100
1010
0011
0101
0110
0000
1000
0000
,
0010
0001
0100
0010
1000
0001
0100
1000
,
0010
0001
0100
0010
0001
1000
0100
0001
,
0100
1000
0010
0100
0001
1000
0010
0001
,
0100
0000
0000
0000
1000
0000
0000
0000
0220
0000
0000
0000
0000
0000
0330
1000
0000
0100
0001
0010
1000
0001
0110
0000
0000
0000
0000
0000
0000
0000
0000
0000
,
1010
0000
0010
0000
0011
0000
0000
0001
1000
0100
0000
0000
1100
0000
0000
0000
,
1010
0010
0011
0000
0101
0000
1100
0000
,
1010
0000
0010
0000
0011
0000
0000
0001
1000
0100
0000
0000
1100
0000
0000
0000
,
1010
0010
0011
0000
1001
0000
0100
0000
,
1010
0000
0000
0000
1100
0000
0000
0010
0101
0001
0000
0000
0110
0000
0000
0000
,
1001
1100
0101
0011
,
1010
0000
0000
0000
0110
0000
0000
1000
1001
0001
0000
0000
1010
0000
0000
0000
,
0101
0000
0011
0000
1100
0000
0010
0001
,
0010
0000
0000
0000
0100
0000
1000
0000
0100
0000
0001
0000
0020
0000
0000
0030
,
1000
0000
0100
0000
0002
0000
0000
0003
1000
0000
0010
0000
0200
0000
0000
0300
,
0001
0000
0100
0000
2000
0000
0000
3000
0011
0000
0000
0000
0101
0000
0000
0000
,
1100
0000
1010
0000
0000
0000
0100
1000
,
0100
0000
0000
0000
0010
0000
0001
0000
0010
0000
1000
0000
0200
0000
0000
0300
,
0001
0000
0010
0000
2000
0000
0000
3000
0001
0000
0100
0000
0020
0000
0000
0030
,
1000
0000
0010
0000
0002
0000
0000
0003
1100
0000
0000
0000
1010
0000
0000
0000
,
0011
0101
0000
2002
,
0000
0000
0000
0000
0000
3000
0100
0000
,
0003
0000
0220
0000
0000
0300
1000
0030
,
0202
0000
0000
0000
0000
0303
1010
0000
,
0100
0001
0010
1001
,
1100
1010
0011
0101
,
1100
0000
1010
0000
0011
0000
0101
0100
,
0010
1000
0001
0010
1000
0100
0001
0010
,
0100
0000
1000
0000
0001
0010
0001
0010
0001
0010
0001
0010
0002
0000
0000
0003
,
1100
0000
0001
0000
,
0020
0001
0001
0030
0200
0000
2000
3300
,
0011
0000
1000
0000
,
0010
0000
0010
0000
0001
0000
0100
0000
0100
0000
1000
0000
,
0101
0000
0010
0000
,
0200
1000
1000
0300
0020
0000
0002
0033
,
1100
0000
0010
0000
,
0001
0000
0001
0000
0100
0000
1000
0000
1000
0000
0010
0000
,
1100
0000
0001
0000
,
2000
0010
0010
3000
0002
0000
0200
0303
,
1010
0000
0100
0000
,
1000
0000
1000
0000
0100
0000
0001
0000
0001
0000
0010
0000
,
0101
0000
1000
0000
,
0002
0100
0100
0003
2000
0000
0020
3030
,
0101
0000
0100
0000
,
1000
0000
0100
0000
0001
0000
0010
0000
1000
0000
0100
0000
,
0022
0000
0000
0000
,
0000
0000
0000
0000
,
0033
0000
0000
0000
;

//---------------dance-single - ----------------
#NOTES:
     dance-single:
     :
     Medium:
     7:
     0.471825,0.711367,0.444604,0.437547,0.148201,468.000000,405.000000,63.000000,62.000000,0.000000,0.000000,0.471825,0.711367,0.444604,0.437547,0.148201,468.000000,405.000000,63.000000,62.000000,0.000000,0.000000:
// measure 0
0002
0000
0000
0103
,  // measure 1
0000
0000
0000
0000
0000
0000
0000
0001
,  // measure 2
0020
0000
0000
1000
0000
0000
0000
0000
0000
0000
0000
0000
0030
0000
0000
0000
,  // measure 3
2000
0000
0000
0000
0000
3000
0001
0010
,  // measure 4
0200
0000
0000
0301
,  // measure 5
0000
0000
0000
0000
0000
0000
0000
0100
,  // measure 6
2000
0000
0000
0010
0000
0000
0000
0000
0000
0000
0000
0000
3000
0000
0000
0000
,  // measure 7
0020
0000
0000
0000
0000
0030
0100
0001
,  // measure 8
2000
0000
0000
3100
,  // measure 9
0000
0000
0000
0000
0000
0000
0000
0001
,  // measure 10
0200
0000
0000
0010
0000
0000
0000
0000
0000
0000
0000
0000
0300
0000
0000
0000
,  // measure 11
0020
0000
0000
0000
0000
0030
1000
0100
,  // measure 12
0002
0000
0000
0013
,  // measure 13
1100
0000
0000
0000
0011
0000
0000
1000
,  // measure 14
0020
0000
0000
0030
,  // measure 15
0201
0000
0010
1000
0010
0301
1000
0010
,  // measure 16
0200
0000
0000
0000
,  // measure 17
0000
0000
0000
0000
0000
0000
0000
0300
,  // measure 18
0020
0000
0000
0000
0000
0000
0000
0030
,  // measure 19
0002
1000
0000
0100
0000
0010
1000
0013
,  // measure 20
2000
0000
0001
0000
,  // measure 21
0010
0000
0000
0100
0001
0100
0000
0000
,  // measure 22
3020
0000
0001
0000
,  // measure 23
1000
0100
0000
0000
0001
0000
0000
0030
,  // measure 24
1100
0000
0011
0220
,  // measure 25
0330
1000
0000
0000
0001
0100
0001
0220
,  // measure 26
0000
0330
0001
0000
0000
0000
1000
0000
,  // measure 27
0220
0000
0330
0001
0010
0000
0000
1000
,  // measure 28
0000
0220
0000
0330
0011
0000
1100
0000
,  // measure 29
0101
0000
2002
0000
3003
1010
0000
0011
,  // measure 30
0000
1100
0000
2002
0000
3003
0100
0001
,  // measure 31
0010
1000
0100
0010
2002
0000
3003
0010
,  // measure 32
1000
0000
0100
0000
0001
0000
0010
0100
0010
0100
0010
0100
0010
0100
2002
0000
,  // measure 33
0000
0000
0000
0000
,  // measure 34
0000
0000
0000
3003
0100
1000
0010
0000
,  // measure 35
1000
0100
0001
0000
0100
0001
1000
0000
,  // measure 36
0001
0100
0010
0000
0001
1000
0100
0000
,  // measure 37
1000
0001
0010
0000
0001
0100
1000
0000
,  // measure 38
0100
0001
0010
0000
0001
0010
0100
0000
,  // measure 39
0010
0001
1000
0000
0010
0100
0001
0000
,  // measure 40
0100
0010
1000
0000
0010
0001
0100
0000
,  // measure 41
0001
0000
0010
0000
1000
0000
0000
0000
0220
0000
0330
0001
0000
0000
0010
1000
,  // measure 42
0100
0001
1000
0000
0010
0000
0100
0000
0000
0000
0001
0000
0100
0000
0010
0000
,  // measure 43
0000
1000
0001
0100
0000
0010
1000
0001
,  // measure 44
0000
0100
1000
0010
0000
1000
0100
0010
,  // measure 45
0000
0001
1000
0100
0000
0010
1000
0001
,  // measure 46
0000
1000
0010
0100
0000
0001
0010
1000
,  // measure 47
0000
0010
0001
1000
0000
0100
0010
0001
,  // measure 48
0000
1000
0000
0100
0000
0001
0000
0010
,  // measure 49
0000
0000
2002
3003
0110
0000
0000
0000
0001
0100
1000
0010
0100
0000
0001
0000
,  // measure 50
0100
1000
0010
0100
0001
1000
0010
0001
,  // measure 51
0100
1000
0010
0100
1000
0001
0010
1000
,  // measure 52
0010
0001
0100
0010
1000
0001
0100
1000
,  // measure 53
0010
0000
0000
0000
0001
0000
0000
0000
0220
0000
0000
0000
0000
0000
0330
0001
0000
0010
1000
0100
0001
1000
0100
0000
0000
0000
0000
0000
0000
0000
0000
0000
,  // measure 54
0101
0000
0000
0000
1100
0000
0000
1000
0001
0000
0000
0000
0011
0000
0000
0000
,  // measure 55
0101
1100
1010
0011
,  // measure 56
0101
0000
0000
0000
1100
0000
0000
1000
0001
0000
0000
0000
0011
0000
0000
0000
,  // measure 57
0101
1100
1001
0010
,  // measure 58
0101
0000
0000
0000
0011
0000
0000
0100
1010
0000
0000
0000
0110
0000
0000
0000
,  // measure 59
1001
0011
1010
1100
,  // measure 60
0101
0000
0000
0000
0110
0000
0000
0001
1001
0000
0000
0000
0101
0000
0000
0000
,  // measure 61
1010
0000
1100
0000
0011
0000
0100
1000
,  // measure 62
0100
0000
0000
0000
0010
0000
0001
0000
0010
0000
1000
0000
0200
0000
0000
0300
,  // measure 63
0001
0000
0010
0000
2000
0000
0000
3000
0001
0000
0100
0000
0020
0000
0000
0030
,  // measure 64
1000
0000
0010
0000
0002
0000
0000
0003
0100
0000
0000
0000
1000
0000
0000
0000
,  // measure 65
0010
0000
0001
0000
0000
0000
0010
0001
,  // measure 66
0010
0000
0000
0000
0100
0000
1000
0000
0100
0000
0001
0000
0020
0000
0000
0030
,  // measure 67
1000
0000
0100
0000
0002
0000
0000
0003
1000
0000
0010
0000
0200
0000
0000
0300
,  // measure 68
0001
0000
0100
0000
2000
0000
0000
3000
0010
0000
0000
0000
0001
0000
0000
0000
,  // measure 69
0100
1000
0000
2000
,  // measure 70
0000
0000
0000
0010
,  // measure 71
3000
0000
0200
0000
0000
0000
0001
0300
,  // measure 72
2020
0000
0000
0000
0000
3030
0101
0000
,  // measure 73
0010
1000
0100
1001
,  // measure 74
0010
0001
0100
1000
,  // measure 75
0010
0000
0001
0000
0100
0000
1000
0010
,  // measure 76
0100
0001
1000
0100
0001
0010
1000
0100
,  // measure 77
0010
0000
0001
0000
1000
0100
1000
0100
1000
0100
1000
0100
2000
0000
0000
3000
,  // measure 78
0011
0000
1000
0000
,  // measure 79
0100
1000
1000
0000
0020
0000
0002
0033
,  // measure 80
1100
0000
0001
0000
,  // measure 81
0100
0000
0100
0000
1000
0000
0010
0000
0010
0000
0001
0000
,  // measure 82
1010
0000
0100
0000
,  // measure 83
0010
0001
0001
0000
0200
0000
2000
3300
,  // measure 84
0011
0000
0100
0000
,  // measure 85
1000
0000
1000
0000
0010
0000
0001
0000
0001
0000
0100
0000
,  // measure 86
0011
0000
1000
0000
,  // measure 87
0001
0100
0100
0000
2000
0000
0020
3030
,  // measure 88
0101
0000
0010
0000
,  // measure 89
0001
0000
0001
0000
0010
0000
1000
0000
1000
0000
0100
0000
,  // measure 90
1010
0000
0001
0000
,  // measure 91
1000
0010
0010
0000
0002
0000
0200
0303
,  // measure 92
1010
0000
0010
0000
,  // measure 93
0001
0000
0010
0000
1000
0000
0100
0000
0001
0000
0010
0000
,  // measure 94
2200
0000
0000
0000
,  // measure 95
0000
0000
0000
0000
,  // measure 96
3300
0000
0000
0000
;

//---------------dance-single - ----------------
#NOTES:
     dance-single:
     :
     Easy:
     5:
     0.297411,0.575868,0.141144,0.465776,0.024700,295.000000,275.000000,20.000000,66.000000,0.000000,0.000000,0.297411,0.575868,0.141144,0.465776,0.024700,295.000000,275.000000,20.000000,66.000000,0.000000,0.000000:
0020
0000
0000
0031
,
0000
0000
0000
0000
0000
0000
0000
0010
,
2000
0000
0000
0100
0000
0000
0000
0000
0000
0000
0000
0000
3000
0000
0000
0000
,
0200
0000
0000
0000
0000
0300
0010
0000
,
0002
0000
0000
0013
,
0000
0000
0000
0000
0000
0000
0000
0001
,
0200
0000
0000
1000
0000
0000
0000
0000
0000
0000
0000
0000
0300
0000
0000
0000
,
2000
0000
0000
0000
0000
3000
0001
0000
,
0200
0000
0000
0301
,
0000
0000
0000
0000
0000
0000
0000
0010
,
0002
0000
0000
1000
0000
0000
0000
0000
0000
0000
0000
0000
0003
0000
0000
0000
,
2000
0000
0000
0000
0000
3000
0100
0000
,
0020
0000
0000
1030
,
0001
0000
0100
0000
,
2000
0000
0000
3000
,
0002
0000
1000
0000
0010
0003
0100
0000
,
0002
0000
0000
0000
,
0000
0000
0000
0000
0000
0000
0000
0003
,
2000
0000
0000
0000
0000
0000
0000
3000
,
0020
0100
0000
0001
0000
1000
0000
1030
,
0200
0000
0010
0000
,
1000
0000
0010
0000
,
2300
0000
0010
0000
,
0100
0000
0000
0000
0010
0000
0000
3000
,
0001
0000
0010
2002
,
3003
0100
0000
0000
0000
0010
0000
2002
,
0000
3003
0010
0000
0000
0000
0100
0000
,
2002
0000
3003
0010
0000
0000
0000
0100
,
0000
2002
0000
3003
0010
0000
0100
0000
,
0001
0000
0220
0000
0330
1000
0000
0010
,
0000
0001
0000
0220
0000
0330
0001
0000
,
0100
0000
1000
0000
0220
0000
0330
0001
,
0000
0010
0000
1000
0001
1000
0001
0220
,
0000
0000
0000
0000
,
0000
0000
0000
0330
0001
0000
1000
0000
,
0100
0010
0001
0100
,
0010
1000
0010
0001
,
0100
1000
0010
0100
,
0001
1000
0010
0001
,
1000
0100
1000
0010
,
0001
0100
1000
0001
,
0010
0000
0000
0000
0100
0000
0000
0000
2002
0000
3003
0010
0000
0000
1000
0000
,
0001
0100
0000
0001
0000
0010
0000
1000
,
0000
0100
0000
0001
0000
1000
0000
0010
,
0000
0001
0000
1000
0000
0100
0000
1000
,
0000
0010
0000
0001
0000
1000
0000
0010
,
0000
0100
0000
0001
0000
0010
0000
0100
,
0000
1000
0000
0100
0000
0001
0000
0010
,
0000
0100
0000
0001
0000
0010
0000
1000
,
0000
0000
0220
0330
1001
0000
0000
0000
0010
0000
0100
0000
0002
0000
0000
0000
,
0000
0000
0000
0000
0000
0003
0020
0000
,
0000
0030
2000
0000
0000
3000
0200
0000
,
0000
0000
0000
0000
0000
0300
0020
0000
,
0000
0000
0000
0000
0030
0000
0000
0000
2002
0000
0000
0000
0000
0000
3003
0000
0000
1000
0000
0001
0000
0100
0000
0000
0000
0000
0000
0000
0000
0000
0000
0000
,
0001
0100
0010
1000
,
0010
0001
0100
0010
,
0001
0100
0010
1000
,
0001
0100
0010
1000
,
0001
0010
1000
0001
,
0100
0010
1000
0001
,
0010
1000
0100
0001
,
1000
0100
0010
0001
,
0100
0000
0000
0000
1000
0000
0000
0000
0010
0000
0000
0000
0002
0000
0000
0003
,
0010
0000
0000
0000
0200
0000
0000
0300
0010
0000
0000
0000
2000
0000
0000
3000
,
0100
0000
0000
0000
0020
0000
0000
0030
0001
0000
0000
0000
0100
0000
0000
0000
,
1000
0010
0000
1000
,
0010
0000
0000
0000
0001
0000
0000
0000
0100
0000
0000
0000
2000
0000
0000
3000
,
0100
0000
0000
0000
0020
0000
0000
0030
0100
0000
0000
0000
0002
0000
0000
0003
,
0010
0000
0000
0000
0200
0000
0000
0300
1000
0000
0000
0000
0010
0000
0000
0000
,
0001
0100
0000
0200
,
0000
0000
0000
1000
,
0300
0000
0002
0000
0000
0000
0010
0003
,
0200
0000
0000
0000
0000
0300
0001
0000
,
1000
0100
0001
0110
,
1000
0010
0001
0100
,
1000
0010
0001
1100
,
0011
0101
1010
0110
,
1001
0000
0000
0000
0100
0000
0001
0000
0100
0000
0001
0000
0200
0000
0000
0300
,
1000
0000
0100
0000
,
0100
0000
0000
0000
2000
0000
0020
3030
,
0001
0000
0010
0000
,
0001
0000
1000
0000
,
0100
0000
0001
0000
,
0010
0000
0000
0000
0002
0000
0200
0303
,
1000
0000
0001
0000
,
0100
0000
0010
0000
,
1000
0000
0100
0000
,
0001
0000
0000
0000
0200
0000
2000
3300
,
0010
0000
1000
0000
,
0010
0000
0100
0000
,
1000
0000
0010
0000
,
1000
0000
0000
0000
0020
0000
0002
0033
,
0100
0000
1000
0000
,
0010
0000
0001
0000
,
0220
0000
0000
0000
,
0000
0000
0000
0000
,
0330
0000
0000
0000
;

//---------------dance-single - ----------------
#NOTES:
     dance-single:
     :
     Beginner:
     3:
     0.204659,0.304872,0.014114,0.105858,0.007057,203.000000,201.000000,2.000000,15.000000,0.000000,0.000000,0.204659,0.304872,0.014114,0.105858,0.007057,203.000000,201.000000,2.000000,15.000000,0.000000,0.000000:
0010
0000
0000
0001
,
0000
0000
0000
0000
,
1000
0000
0000
0000
,
0100
0000
0000
0010
,
0001
0000
0000
0010
,
0000
0000
0000
0000
,
0100
0000
0000
0000
,
1000
0000
0000
0001
,
0100
0000
0000
0001
,
0000
0000
0000
0000
,
0001
0000
0000
0000
,
1000
0000
0000
0100
,
0010
0000
0000
1000
,
0001
0000
0100
0000
,
1000
0000
0000
0000
,
0001
1000
0010
0100
,
0001
0000
0000
0000
,
0000
0000
0000
0000
,
1000
0000
0000
0000
,
0010
0000
0000
0000
,
0100
0000
0010
0000
,
1000
0000
0010
0000
,
1000
0000
0010
0000
,
0100
0000
0010
0000
,
0001
0000
0010
2000
,
3000
0100
0000
0000
0000
0010
0000
0002
,
0000
0003
0010
0000
0000
0000
0100
0000
,
2000
0000
3000
0010
0000
0000
0000
0100
,
0000
0002
0000
0003
0010
0000
0000
0000
,
1000
0000
0200
0000
0300
1000
0000
0000
,
0000
0001
0000
0020
0000
0030
0001
0000
,
0000
0000
1000
0000
0200
0000
0300
0001
,
0000
0000
0000
1000
0000
0001
0000
0220
,
0000
0000
0000
0000
,
0000
0000
0000
0330
0001
0000
0000
0000
,
0100
0000
1000
0000
,
0010
0000
0001
0000
,
0100
0000
0010
0000
,
1000
0000
0010
0000
,
1000
0000
0100
0000
,
0001
0000
1000
0000
,
0010
0000
0000
0000
0002
0003
0000
1000
,
0000
0100
0000
0000
0000
0010
0000
0000
,
0000
0001
0000
0000
0000
1000
0000
0000
,
0000
0010
0000
0000
0000
0100
0000
0000
,
0000
1000
0000
0000
0000
0001
0000
0000
,
0000
0100
0000
0000
0000
0010
0000
0000
,
0000
1000
0000
0000
0000
0001
0000
0000
,
0000
0100
0000
0000
0000
0010
0000
0000
,
0000
0000
0200
0300
0000
0000
0000
0000
0010
0000
0000
0000
1000
0000
0000
0000
,
0000
0000
0000
0100
,
0000
0001
0000
0010
,
0000
0000
0000
0100
,
0000
0000
0000
0000
0000
0000
0000
0000
0002
0000
0000
0000
0000
0000
0003
0000
0000
1000
0000
0000
0000
0000
0010
0000
0000
0000
0000
0000
0000
0000
0000
0000
,
0100
0001
1000
0010
,
0001
1000
0010
0100
,
1000
0001
0100
0010
,
1000
0001
0010
0100
,
1000
0001
0010
1000
,
0001
0100
0010
1000
,
0100
0010
0001
0100
,
0010
1000
0100
0001
,
0000
1000
0000
0001
,
0000
0100
0000
1000
,
0000
0010
0000
0100
,
0000
0010
0000
1000
,
0000
0001
0000
1000
,
0000
0010
0000
0001
,
0000
0100
0000
0010
,
0000
0100
0000
0100
,
0000
0000
0000
1000
,
0000
0001
0000
0010
,
0100
0000
0000
0001
,
0000
0100
0000
0010
,
0000
1000
0000
0100
,
0000
0010
0000
1000
,
0000
0001
0000
0100
,
0000
0000
0000
0000
0100
0000
0000
0000
0001
0000
0000
0000
0200
0000
0000
0300
,
1000
0000
0100
0000
,
0100
0000
1000
0010
,
0001
0000
0010
0000
,
0001
0000
1000
0000
,
0100
0000
0001
0000
,
0010
0000
0001
0100
,
1000
0000
0001
0000
,
0100
0000
0010
0000
,
1000
0000
0100
0000
,
0001
0000
0100
1000
,
0010
0000
1000
0000
,
0010
0000
0100
0000
,
1000
0000
0010
0000
,
1000
0000
0010
0001
,
0100
0000
1000
0000
,
0010
0000
0001
0000
,
2002
0000
0000
0000
,
0000
0000
0000
0000
,
3003
0000
0000
0000
;

//---------------dance-single - ----------------
#NOTES:
     dance-single:
     :
     Challenge:
     11:
     0.615994,1.151737,1.072696,0.564577,0.289346,611.000000,459.000000,152.000000,80.000000,0.000000,0.000000,0.615994,1.151737,1.072696,0.564577,0.289346,611.000000,459.000000,152.000000,80.000000,0.000000,0.000000:
0200
0000
0000
0301
,
0000
0000
0000
0000
0000
0000
0000
0000
0000
0000
0000
0000
0000
0000
0100
0001
,
2000
0000
0000
0010
0000
0000
0000
0000
0000
0000
0000
0000
3000
0000
0000
0000
,
0022
0000
0000
0000
0000
0000
0000
0000
0000
0000
0033
0000
0100
0000
1000
0010
,
0002
0000
0000
0103
,
0000
0000
0000
0000
0000
0000
0000
0000
0000
0000
0000
0000
0000
0000
0001
0100
,
0020
0000
0000
1000
0000
0000
0000
0000
0000
0000
0000
0000
0030
0000
0000
0000
,
2020
0000
0000
0000
0000
0000
0000
0000
0000
0000
3030
0000
0001
0000
0100
1000
,
0020
0000
0000
0031
,
0000
0000
0000
0000
0000
0000
0000
0000
0000
0000
0000
0000
0000
0000
0100
0010
,
0002
0000
0000
1000
0000
0000
0000
0000
0000
0000
0000
0000
0003
0000
0000
0000
,
2200
0000
0000
0000
0000
0000
0000
0000
0000
0000
3300
0000
0010
0000
0001
1000
,
0200
0000
0000
1300
,
0011
0000
0000
0000
0000
0000
0000
0000
1100
0000
0000
0000
0000
0000
0010
0100
,
2000
0000
0000
3000
,
0102
0000
0000
0000
1000
0000
0010
0000
1000
0000
0103
0010
0100
0000
1000
0001
,
0120
0100
0100
0100
,
0100
0000
0100
0000
0100
0000
0100
0030
,
1002
1000
1000
1003
,
0210
0000
0010
0000
0000
0000
0001
0000
0000
0000
1000
0000
0010
0000
1300
0001
,
0020
0000
0100
0000
,
1000
0000
0000
0001
0100
0001
0000
0000
,
2030
0000
0100
0000
,
0010
0001
0000
0000
0100
0000
0000
3000
,
0011
0000
1010
2200
,
3300
0101
0000
0000
0100
1000
0100
2020
,
0000
3030
0101
0000
0000
0000
1010
0000
,
0022
0000
0033
0100
1000
0000
0000
0011
,
0000
2020
0000
3030
1100
0000
0011
0000
,
1010
0000
0202
0000
0303
1010
0000
1100
,
0000
0011
0000
2200
0000
3300
0001
0100
,
1000
0010
0001
1000
0022
0000
0033
1000
,
0010
0000
0001
0000
0100
0000
1000
0100
0001
0010
1000
0100
0001
0010
2002
0000
,
0000
0000
0000
0000
,
0000
0000
0000
0000
0000
0000
3003
0000
0100
0000
1000
0000
0001
0010
0000
0000
,
0010
0000
0001
0000
0100
1000
0000
0000
0001
0000
0100
0000
1000
0010
0000
0000
,
0100
0000
0001
0000
0010
1000
0000
0000
0100
0000
0010
0000
1000
0001
0000
0000
,
0010
0000
0100
0000
0001
1000
0000
0000
0100
0000
0001
0000
1000
0010
0000
0000
,
0001
0000
0100
0000
0010
1000
0000
0000
0100
0000
1000
0000
0010
0001
0000
0000
,
1000
0000
0100
0000
0001
0010
0000
0000
1000
0000
0001
0000
0100
0010
0000
0000
,
0001
0000
1000
0000
0010
0100
0000
0000
1000
0000
0100
0000
0010
0001
0000
0000
,
0100
0000
1000
0000
0001
0010
0000
0000
2002
0000
3003
0110
0000
0000
1100
1010
,
0011
0101
0010
0000
1000
0000
0001
0100
0000
0000
0100
0000
0001
0000
1000
0010
,
0000
0000
0010
0000
0100
0000
0001
1000
0000
0000
1000
0000
0010
0000
0100
0001
,
0000
0000
0001
0000
0010
0000
1000
0100
0000
0000
0100
0000
0001
0000
1000
0010
,
0000
0000
0100
0000
0010
0000
0001
1000
0000
0000
1000
0000
0010
0000
0100
0001
,
0000
0000
0010
0000
1000
0000
0001
0100
0000
0000
0100
0000
1000
0000
0010
0001
,
0000
0000
0001
0000
0100
0000
0010
1000
0000
0000
0001
0000
1000
0000
0100
0010
,
0000
0011
0000
0101
0000
1100
0000
1010
,
0000
0000
0220
0330
1001
0000
0000
0000
1100
0101
0011
1010
1001
0000
0100
0000
,
0001
0010
1000
0001
0100
0010
1001
0100
,
0001
0010
1001
0001
0010
0100
1001
0010
,
1000
0100
0001
1000
0010
0100
1001
0010
,
1000
0000
0000
0000
0100
0000
0000
0000
2002
0000
0000
0000
0000
0000
3003
0110
0000
1010
0011
0101
1100
0110
1001
0000
0000
0000
0000
0000
0000
0000
0000
0000
,
0101
0000
0001
0000
0011
0000
0000
0010
0101
1000
0000
0000
1100
0000
0000
0000
,
0101
0001
0011
0000
1010
0000
1100
0000
,
0101
0000
0001
0000
0011
0000
0000
0010
0101
1000
0000
0000
1100
0000
0000
0000
,
0101
0001
0011
0000
0110
0000
1000
0000
,
0101
0000
0000
0000
1100
0000
0000
0001
1010
0010
0000
0000
1001
0000
0000
0000
,
0110
1100
1010
0011
,
0101
0000
0000
0000
1001
0000
0000
0100
0110
0010
0000
0000
0101
0000
0000
0000
,
1010
0000
0011
0000
1100
0000
0001
0010
,
0001
0000
0000
0000
1000
0000
0100
0000
1000
0000
0010
0000
2002
0000
0000
3003
,
0100
0000
1000
0000
0022
0000
0000
0033
0100
0000
0001
0000
2200
0000
0000
3300
,
0010
0000
1000
0000
2200
0000
0000
3300
0011
0000
0000
0000
1010
0000
0000
0000
,
1100
0000
0101
0000
0000
0000
1000
0100
,
1000
0000
0000
0000
0001
0000
0010
0000
0001
0000
0100
0000
2002
0000
0000
3003
,
0010
0000
0001
0000
2200
0000
0000
3300
0010
0000
1000
0000
0022
0000
0000
0033
,
0100
0000
1000
0000
0022
0000
0000
0033
1100
0000
0000
0000
0101
0000
0000
0000
,
0011
1010
0000
0220
,
0000
0000
0000
0000
0000
0300
1000
0000
,
0030
0000
2002
0000
0000
3000
0100
0003
,
2020
0000
0000
0000
0000
3030
0101
0000
,
1000
0010
0001
0110
,
1100
0101
0011
1010
,
1100
0000
0101
0000
0011
0000
1010
1100
,
0101
1100
0011
0101
1100
1010
0011
0101
,
1100
0000
0101
0000
0010
0001
0100
1000
0010
0001
0100
1000
0220
0000
0000
0330
,
1001
0000
0110
0000
,
0002
0010
0010
0003
2000
0000
0200
3300
,
0011
0000
1100
0000
,
0001
0000
0001
0000
0010
0000
1000
0000
1000
0000
0100
0000
,
1010
0000
0101
0000
,
2000
0100
0100
3000
0002
0000
0020
0033
,
1100
0000
0011
0000
,
0010
0000
0010
0000
1000
0000
0100
0000
0100
0000
0001
0000
,
1100
0000
0011
0000
,
0200
0001
0001
0300
0020
0000
2000
3030
,
0101
0000
1010
0000
,
0100
0000
0100
0000
1000
0000
0010
0000
0010
0000
0001
0000
,
1010
0000
0101
0000
,
0020
1000
1000
0030
0200
0000
0002
0303
,
1010
0000
0101
0000
,
0110
0000
1001
0000
0110
0000
1001
0000
0110
0000
1001
0000
,
0220
0000
0000
0000
,
0000
0000
0000
0000
,
0330
0000
0000
0000
;
